osu file format v12

[General]
AudioFilename: FZ OP.mp3
AudioLeadIn: 2000
PreviewTime: 56035
Countdown: 0
SampleSet: Normal
StackLeniency: 0.7
Mode: 1
LetterboxInBreaks: 0

[Editor]
Bookmarks: 349,8192,20741,33290,45839,52113,68584,81133,85447
DistanceSpacing: 0.8
BeatDivisor: 2
GridSize: 8

[Metadata]
Title:to the beginning (TV Size)
TitleUnicode:to the beginning (TV Size)
Artist:Kalafina
ArtistUnicode:Kalafina
Creator:nanda2009
Version:Futsuu
Source:Fate/Zero
Tags:taiko type-moon Fate Zero Kajiura Yuki opening
BeatmapID:179980
BeatmapSetID:51906

[Difficulty]
HPDrainRate:4
CircleSize:4
OverallDifficulty:4
ApproachRate:4
SliderMultiplier:1.4
SliderTickRate:1

[Events]
//Background and Video events
0,0,"BG.jpg",0,0
//Break Periods
//Storyboard Layer 0 (Background)
//Storyboard Layer 1 (Fail)
//Storyboard Layer 2 (Pass)
//Storyboard Layer 3 (Foreground)
//Storyboard Sound Samples
//Background Colour Transformations
3,100,163,162,255

[TimingPoints]
629,392.156862745098,4,1,0,50,1,0
6903,-100,4,1,0,100,0,0
56315,392.156862745098,4,1,0,100,1,1
85727,-100,4,1,0,100,0,0

[Colours]
Combo1 : 166,166,166
Combo2 : 154,78,78
Combo3 : 255,74,74

[HitObjects]
264,112,628,1,0,0:0:0:0:
264,112,1217,1,0,0:0:0:0:
264,112,1805,1,0,0:0:0:0:
272,112,2197,1,8,0:0:0:0:
104,136,2589,1,0,0:0:0:0:
104,136,2981,1,0,0:0:0:0:
104,136,3374,1,0,0:0:0:0:
272,112,3766,1,8,0:0:0:0:
272,112,4354,1,8,0:0:0:0:
272,112,4942,1,8,0:0:0:0:
256,192,5334,12,0,7687,0:0:0:0:
256,184,8472,1,4,0:0:0:0:
256,184,8864,1,8,0:0:0:0:
256,184,9648,1,8,0:0:0:0:
256,184,10432,1,8,0:0:0:0:
256,184,11217,1,8,0:0:0:0:
256,184,11609,1,0,0:0:0:0:
256,184,12001,1,8,0:0:0:0:
256,184,12785,1,8,0:0:0:0:
256,184,13570,1,0,0:0:0:0:
256,184,14158,1,8,0:0:0:0:
256,184,14354,1,8,0:0:0:0:
256,184,14746,1,0,0:0:0:0:
256,184,15138,1,8,0:0:0:0:
256,184,15923,1,8,0:0:0:0:
256,184,16707,1,0,0:0:0:0:
256,184,17491,1,8,0:0:0:0:
256,184,17883,1,0,0:0:0:0:
256,184,18276,1,8,0:0:0:0:
96,248,19060,1,0,0:0:0:0:
192,120,19256,1,0,0:0:0:0:
256,184,19844,1,8,0:0:0:0:
248,176,20040,1,8,0:0:0:0:
248,176,20432,1,0,0:0:0:0:
256,184,20629,1,0,0:0:0:0:
256,184,21021,1,4,0:0:0:0:
256,184,21413,1,0,0:0:0:0:
256,184,21609,1,8,0:0:0:0:
256,184,22197,1,8,0:0:0:0:
256,176,22589,1,0,0:0:0:0:
256,176,22981,1,8,0:0:0:0:
256,176,23178,1,0,0:0:0:0:
128,240,23766,1,8,0:0:0:0:
128,240,23962,1,0,0:0:0:0:
256,176,24158,1,0,0:0:0:0:
192,136,24746,1,0,0:0:0:0:
256,176,24942,1,8,0:0:0:0:
368,72,25334,1,0,0:0:0:0:
256,176,25530,1,0,0:0:0:0:
288,48,25923,1,8,0:0:0:0:
256,176,26119,1,8,0:0:0:0:
256,176,26511,1,0,0:0:0:0:
256,176,26903,1,8,0:0:0:0:
256,184,27295,1,0,0:0:0:0:
256,184,27687,1,8,0:0:0:0:
256,184,27883,1,0,0:0:0:0:
256,184,28471,1,8,0:0:0:0:
256,176,28863,1,0,0:0:0:0:
256,176,29255,1,8,0:0:0:0:
256,176,29452,1,0,0:0:0:0:
256,176,30040,1,8,0:0:0:0:
296,304,30236,1,0,0:0:0:0:
256,176,30432,1,0,0:0:0:0:
256,176,31021,1,0,0:0:0:0:
256,176,31217,1,8,0:0:0:0:
256,176,31805,1,0,0:0:0:0:
256,176,32393,1,4,0:0:0:0:
120,168,33178,1,0,0:0:0:0:
256,176,33570,1,4,0:0:0:0:
224,120,34158,1,0,0:0:0:0:
256,176,34746,1,8,0:0:0:0:
256,176,35138,1,0,0:0:0:0:
256,176,35530,1,8,0:0:0:0:
176,256,35727,1,8,0:0:0:0:
256,176,36315,1,8,0:0:0:0:
256,176,36707,1,0,0:0:0:0:
256,176,37099,1,8,0:0:0:0:
112,152,37295,1,0,0:0:0:0:
256,176,37883,1,8,0:0:0:0:
256,176,38276,1,0,0:0:0:0:
240,272,38668,1,0,0:0:0:0:
256,176,38864,1,8,0:0:0:0:
256,176,39452,1,8,0:0:0:0:
256,176,39844,1,0,0:0:0:0:
256,176,40236,1,8,0:0:0:0:
256,176,41021,1,8,0:0:0:0:
256,176,41413,1,0,0:0:0:0:
256,176,41805,1,8,0:0:0:0:
256,176,42589,1,8,0:0:0:0:
256,176,42981,1,0,0:0:0:0:
112,176,43570,1,8,0:0:0:0:
144,216,43766,1,0,0:0:0:0:
256,176,44158,1,8,0:0:0:0:
256,176,44550,1,0,0:0:0:0:
256,176,44942,1,0,0:0:0:0:
256,176,45334,1,0,0:0:0:0:
256,176,45727,1,8,0:0:0:0:
256,176,46119,1,4,0:0:0:0:
256,176,46707,1,0,0:0:0:0:
256,176,47295,1,8,0:0:0:0:
256,176,47687,1,0,0:0:0:0:
256,176,48079,1,8,0:0:0:0:
376,192,48276,1,8,0:0:0:0:
256,176,48864,1,8,0:0:0:0:
256,176,49256,1,0,0:0:0:0:
144,160,49648,1,0,0:0:0:0:
256,176,49844,1,8,0:0:0:0:
256,176,50432,1,8,0:0:0:0:
256,176,50825,1,0,0:0:0:0:
176,176,51217,1,8,0:0:0:0:
256,176,51413,1,8,0:0:0:0:
256,176,52001,1,8,0:0:0:0:
256,176,52393,1,4,0:0:0:0:
112,216,52785,1,0,0:0:0:0:
256,176,52981,1,8,0:0:0:0:
104,120,53374,1,0,0:0:0:0:
256,176,53766,1,0,0:0:0:0:
176,128,54354,1,0,0:0:0:0:
256,176,54550,1,0,0:0:0:0:
256,176,55138,1,8,0:0:0:0:
184,296,56315,1,4,0:0:0:0:
168,296,56903,1,8,0:0:0:0:
168,296,57491,1,0,0:0:0:0:
168,296,57883,1,8,0:0:0:0:
168,296,58275,1,0,0:0:0:0:
168,296,58667,1,8,0:0:0:0:
168,296,59060,1,0,0:0:0:0:
168,296,59452,1,8,0:0:0:0:
168,296,60040,1,8,0:0:0:0:
168,296,60628,1,0,0:0:0:0:
168,296,61020,1,8,0:0:0:0:
160,304,61805,1,8,0:0:0:0:
160,304,62197,1,0,0:0:0:0:
160,304,62589,1,8,0:0:0:0:
160,304,63177,1,8,0:0:0:0:
160,304,63765,1,8,0:0:0:0:
160,304,64158,1,0,0:0:0:0:
152,288,64942,1,0,0:0:0:0:
152,288,65334,1,0,0:0:0:0:
152,288,65726,1,8,0:0:0:0:
152,288,66314,1,8,0:0:0:0:
152,288,66511,1,0,0:0:0:0:
152,288,67099,1,0,0:0:0:0:
152,288,67295,1,8,0:0:0:0:
152,288,67687,1,0,0:0:0:0:
152,288,68079,1,8,0:0:0:0:
152,288,68471,1,8,0:0:0:0:
184,296,68864,1,4,0:0:0:0:
168,296,69452,1,8,0:0:0:0:
168,296,70040,1,0,0:0:0:0:
168,296,70432,1,8,0:0:0:0:
168,296,70824,1,0,0:0:0:0:
168,296,71216,1,8,0:0:0:0:
168,296,71609,1,0,0:0:0:0:
168,296,72001,1,8,0:0:0:0:
168,296,72589,1,8,0:0:0:0:
168,296,73177,1,0,0:0:0:0:
168,296,73569,1,8,0:0:0:0:
160,304,74354,1,0,0:0:0:0:
160,304,74746,1,0,0:0:0:0:
160,304,75138,1,8,0:0:0:0:
160,304,75726,1,8,0:0:0:0:
160,304,76314,1,8,0:0:0:0:
160,304,76707,1,0,0:0:0:0:
152,288,77491,1,8,0:0:0:0:
152,288,77883,1,0,0:0:0:0:
152,288,78275,1,8,0:0:0:0:
152,288,78863,1,8,0:0:0:0:
152,288,79060,1,0,0:0:0:0:
152,288,79452,1,8,0:0:0:0:
152,288,79844,1,0,0:0:0:0:
152,288,80236,1,0,0:0:0:0:
152,288,80628,1,0,0:0:0:0:
152,288,81020,1,8,0:0:0:0:
192,64,81413,1,4,0:0:0:0:
192,64,82001,1,8,0:0:0:0:
192,64,82197,1,0,0:0:0:0:
192,64,82981,1,8,0:0:0:0:
192,64,83569,1,8,0:0:0:0:
192,64,83765,1,8,0:0:0:0:
192,64,84158,1,8,0:0:0:0:
192,64,84550,1,0,0:0:0:0:
88,160,84942,1,8,0:0:0:0:
192,64,85138,1,0,0:0:0:0:
264,200,85530,1,0,0:0:0:0:
192,64,85726,1,4,0:0:0:0:
