osu file format v13

[General]
AudioFilename: 03 heavenly blue.mp3
AudioLeadIn: 0
PreviewTime: 55262
Countdown: 0
SampleSet: Normal
StackLeniency: 0.7
Mode: 0
LetterboxInBreaks: 1
WidescreenStoryboard: 1

[Editor]
DistanceSpacing: 1.2
BeatDivisor: 4
GridSize: 4
TimelineZoom: 1

[Metadata]
Title:heavenly blue ~TVsize~
TitleUnicode:heavenly blue ~TVsize~
Artist:Kalafina
ArtistUnicode:Kalafina
Creator:Weez
Version:Easy
Source:ALDNOAH.ZERO
Tags:aldnoah zero opening weezy blackabyss Hinsvar Xinely
BeatmapID:529387
BeatmapSetID:218574

[Difficulty]
HPDrainRate:3
CircleSize:2
OverallDifficulty:3
ApproachRate:3
SliderMultiplier:0.799999999999999
SliderTickRate:1

[Events]
//Background and Video events
Video,0,"aldnoah.zero.avi"
0,0,"aldnoah.jpg",0,0
//Break Periods
//Storyboard Layer 0 (Background)
//Storyboard Layer 1 (Fail)
//Storyboard Layer 2 (Pass)
//Storyboard Layer 3 (Foreground)
//Storyboard Sound Samples
//Background Colour Transformations
3,100,163,162,255

[TimingPoints]
230,382.165605095541,4,1,1,20,1,0
2905,-100,4,1,1,20,0,0
6344,-100,4,1,1,70,0,0
27746,-100,4,1,1,30,0,0
30230,-100,4,1,1,50,0,0
30803,-100,4,1,1,70,0,0
56790,-100,4,1,1,70,0,1
84306,-100,4,1,1,70,0,0
86790,-100,4,1,1,20,0,0
86886,-100,4,2,1,5,0,0

[Colours]
Combo1 : 64,0,64
Combo2 : 128,128,128
Combo3 : 0,89,198
Combo4 : 166,0,0

[HitObjects]
188,116,230,6,0,P|156:188|188:260,1,160,0|0,0:0|0:0,0:0:0:0:
256,192,1376,1,0,0:0:0:0:
324,268,1758,2,0,P|356:196|324:124,1,160,0|0,0:0|0:0,0:0:0:0:
256,192,3000,12,4,6344,0:0:0:0:
56,260,7109,2,0,L|176:296,1,120,0|0,0:0|0:0,0:0:0:0:
268,308,8064,2,0,P|332:296|368:240,1,120,0|0,0:0|0:0,0:0:0:0:
400,164,9020,1,8,0:0:0:0:
400,164,9402,2,0,P|376:84|304:44,1,160,0|0,0:0|0:0,0:0:0:0:
124,72,10930,2,0,P|112:152|44:200,1,160,0|0,0:0|0:0,0:0:0:0:
216,300,12459,6,0,L|340:276,2,120,0|0|8,0:0|0:0|0:0,0:0:0:0:
140,240,13988,2,0,L|128:112,2,120,0|0|8,0:0|0:0|0:0,0:0:0:0:
204,312,15516,1,0,0:0:0:0:
300,332,15899,2,0,P|392:344|448:288,1,160,8|8,0:0|0:0,0:0:0:0:
444,208,17045,2,0,L|396:88,2,120,0|8|8,0:0|0:0|3:0,0:0:0:0:
352,240,18574,6,0,L|264:280,1,79.9999999999999,4|8,0:0|0:0,0:0:0:0:
216,348,19338,2,0,L|164:272,1,79.9999999999999,0|8,0:0|0:0,0:0:0:0:
112,208,20102,2,0,P|56:144|68:76,1,160,0|0,0:0|0:0,0:0:0:0:
156,32,21249,1,8,0:0:0:0:
156,32,21631,2,0,P|220:48|296:120,1,160,0|0,0:0|0:0,0:0:0:0:
368,164,22778,1,8,0:0:0:0:
368,164,23160,2,0,P|320:220|232:220,1,160,0|0,0:0|0:0,0:0:0:0:
148,192,24306,1,8,0:0:0:0:
84,264,24688,6,0,P|144:320|192:328,2,120,0|0|8,0:0|0:0|0:0,0:0:0:0:
92,168,26217,2,0,P|108:116|88:52,2,120,0|0|8,0:0|0:0|0:0,0:0:0:0:
256,192,27746,12,8,30229,0:0:0:0:
60,128,30803,6,0,P|52:180|140:248,1,160,4|8,0:0|0:0,0:0:0:0:
212,284,31950,2,0,P|252:220|332:184,1,160,0|0,0:0|0:0,0:0:0:0:
420,160,33096,1,0,0:0:0:0:
464,348,33860,37,8,0:0:0:0:
464,348,34243,2,0,P|392:352|312:312,2,160,0|0|0,0:0|0:0|0:0,0:0:0:0:
480,252,36153,1,0,0:0:0:0:
376,92,36918,6,0,P|276:56|220:72,1,160,4|8,0:0|0:0,0:0:0:0:
36,76,38446,1,0,0:0:0:0:
36,76,38829,2,0,P|24:160|72:232,1,160,0|0,0:0|0:0,0:0:0:0:
144,180,39975,2,0,P|156:264|108:336,1,160,8|0,0:0|0:0,0:0:0:0:
312,328,41504,2,0,L|372:160,1,160,8|0,0:0|0:0,0:0:0:0:
204,76,43032,6,0,P|152:52|44:88,1,160,4|0,0:0|0:0,0:0:0:0:
56,172,44179,2,0,P|96:212|68:312,2,160,8|0|0,0:0|0:0|0:0,0:0:0:0:
72,76,46090,2,0,P|144:44|228:76,1,160,8|0,0:0|0:0,0:0:0:0:
268,148,47236,2,0,P|328:200|412:192,1,160,0|0,0:0|0:0,0:0:0:0:
464,272,48383,1,0,0:0:0:0:
280,332,49147,6,0,P|196:352|124:312,1,160,4|0,0:0|0:0,0:0:0:0:
60,144,50676,1,8,0:0:0:0:
136,84,51058,2,0,P|212:52|296:72,1,160,0|0,0:0|0:0,0:0:0:0:
376,104,52204,5,4,0:0:0:0:
472,212,52778,2,0,P|456:260|380:292,1,120,0|0,0:0|0:0,0:0:0:0:
308,264,53733,2,0,P|224:196|96:200,1,240,8|0,0:0|0:0,0:0:0:0:
40,120,55262,5,4,0:0:0:0:
108,52,55644,2,0,P|168:36|256:84,1,160,0|0,0:0|0:0,0:0:0:0:
288,168,56790,6,0,P|316:240|392:280,2,160,4|0|0,0:0|0:0|0:0,0:0:0:0:
216,104,58701,2,0,L|164:188,1,79.9999999999999,8|0,0:0|0:0,0:0:0:0:
192,268,59465,1,8,0:0:0:0:
128,340,59848,6,0,P|72:320|40:268,2,120,4|0|8,0:0|0:0|0:0,0:0:0:0:
192,268,61376,2,0,L|180:184,1,79.9999999999999,0|8,0:0|0:0,0:0:0:0:
172,92,62141,2,0,P|236:52|328:56,1,160,0|0,0:0|0:0,0:0:0:0:
472,168,63669,5,0,0:0:0:0:
436,256,64051,1,8,0:0:0:0:
356,308,64434,2,0,P|280:308|208:260,1,160,4|0,0:0|0:0,0:0:0:0:
128,212,65580,1,8,0:0:0:0:
36,244,65962,6,0,L|16:108,1,120,0|0,0:0|0:0,0:0:0:0:
136,40,67109,2,0,P|216:28|304:48,1,160,8|8,0:0|0:0,0:0:0:0:
380,80,68255,2,0,L|428:156,1,79.9999999999999,0|8,0:0|0:0,0:0:0:0:
468,232,69020,6,0,P|432:288|372:300,2,120,4|0|8,0:0|0:0|0:0,0:0:0:0:
376,200,70548,2,0,L|316:132,1,79.9999999999999,0|8,0:0|0:0,0:0:0:0:
256,68,71313,1,0,0:0:0:0:
160,68,71695,1,8,0:0:0:0:
76,116,72077,6,0,P|44:168|48:228,2,120,0|0|8,0:0|0:0|0:0,0:0:0:0:
160,68,73606,1,0,0:0:0:0:
256,68,73988,2,0,L|328:124,1,79.9999999999999,8|0,0:0|0:0,0:0:0:0:
396,176,74752,1,8,0:0:0:0:
440,260,75134,6,0,P|400:340|320:352,2,160,4|0|0,0:0|0:0|0:0,0:0:0:0:
344,240,77045,2,0,L|256:272,1,79.9999999999999,8|0,0:0|0:0,0:0:0:0:
176,292,77809,1,8,0:0:0:0:
88,256,78192,2,0,P|40:192|60:104,2,160,0|0|0,0:0|0:0|0:0,0:0:0:0:
172,208,80102,1,8,0:0:0:0:
172,208,80485,2,0,L|260:168,1,79.9999999999999,0|0,0:0|0:0,0:0:0:0:
336,208,81249,6,0,L|284:320,2,120,4|4|0,0:0|0:0|0:0,0:0:0:0:
380,124,82778,2,0,L|272:52,2,120,4|4|0,0:0|0:0|0:0,0:0:0:0:
256,192,84306,12,0,86981,0:0:0:0:
