osu file format v14

[General]
AudioFilename: heavenly blue-kalafina.mp3
AudioLeadIn: 0
PreviewTime: -1
Countdown: 0
SampleSet: Soft
StackLeniency: 0.7
Mode: 0
LetterboxInBreaks: 1
WidescreenStoryboard: 0

[Editor]
DistanceSpacing: 1.1
BeatDivisor: 4
GridSize: 4
TimelineZoom: 1

[Metadata]
Title:heavenly blue
TitleUnicode:heavenly blue
Artist:Kalafina
ArtistUnicode:Kalafina
Creator:simply_meh
Version:Normal
Source:アルドノア・ゼロ
Tags:アルドノア・ゼロ , Keiko , Wakana , Hikaru , simply_meh , ScrubbyNub
BeatmapID:681396
BeatmapSetID:304115

[Difficulty]
HPDrainRate:5
CircleSize:3
OverallDifficulty:5
ApproachRate:5
SliderMultiplier:1.5
SliderTickRate:1

[Events]
//Background and Video events
0,0,"HD.jpg",0,0
//Break Periods
//Storyboard Layer 0 (Background)
//Storyboard Layer 1 (Fail)
//Storyboard Layer 2 (Pass)
//Storyboard Layer 3 (Foreground)
//Storyboard Sound Samples

[TimingPoints]
0,437.956204379562,4,2,0,100,1,0
7554,-100,4,2,0,30,0,0
8540,-100,4,2,0,100,0,0
18175,-100,4,1,0,30,0,0
18503,-100,4,2,0,100,0,0
59487,-100,4,1,0,49,0,0

[HitObjects]
256,192,2956,12,0,5912,0:0:0:0:
64,116,6240,5,0,0:0:0:0:
92,196,6459,1,0,0:0:0:0:
160,304,6788,2,0,P|268:280|280:260,2,112.5
216,224,7664,2,0,P|320:216|336:236,1,112.5
352,288,8211,2,0,L|256:288,1,75
160,316,8759,2,0,P|92:244|104:216,2,112.5
148,200,9744,2,0,P|260:192|280:200,1,112.5
292,268,10291,2,0,P|236:288|196:252,2,112.5
228,176,11277,2,0,L|228:44,1,112.5
336,68,11934,2,0,P|416:96|420:120,2,112.5
340,168,12810,6,0,P|284:252|236:236,2,150
236,184,14014,2,0,P|160:192|136:244,2,112.5
320,256,14999,1,0,0:0:0:0:
436,324,15328,1,0,0:0:0:0:
436,148,15766,1,0,0:0:0:0:
292,144,16204,2,0,L|136:152,1,150
132,256,16970,2,0,P|80:212|96:132,2,150
192,148,18175,1,0,0:0:0:0:
328,152,18503,1,0,0:0:0:0:
224,256,18941,2,0,P|168:272|84:216,2,150
156,164,20145,6,0,P|264:128|296:136,1,150
364,256,20912,2,0,P|244:240|248:192,2,187.5
296,160,22335,2,0,P|268:84|192:120,2,150
180,184,23540,2,0,P|152:268|160:292,1,112.5
272,316,24197,2,0,P|304:272|320:208,2,112.5
248,236,25072,2,0,P|192:264|176:328,2,112.5
300,340,26058,2,0,L|456:340,1,150
388,216,26824,2,0,P|352:144|304:136,1,112.5
256,192,27481,12,0,29781,0:0:0:0:
48,140,30656,6,2,B|300:160|264:156,1,225
328,260,31642,2,2,P|280:292|192:248,1,150
100,316,32408,2,2,P|128:156|152:160,1,225,2|0,0:0|0:0,0:0:0:0:
236,192,33394,2,2,P|448:184|452:160,2,300,2|0|0,0:0|0:0|0:0,0:0:0:0:
100,96,35583,1,0,0:0:0:0:
132,228,35912,1,0,0:0:0:0:
412,304,36678,2,4,P|420:216|312:104,1,225,4|0,0:0|0:0,0:0:0:0:
220,164,37664,1,0,0:0:0:0:
160,220,37883,1,0,0:0:0:0:
224,276,38102,1,0,0:0:0:0:
284,220,38321,1,0,0:0:0:0:
380,280,38649,6,0,P|416:256|408:148,2,150
332,188,39854,2,0,P|112:176|96:200,1,262.5
360,264,41277,2,0,P|444:216|412:60,1,262.5
308,112,42372,2,0,L|212:148,2,75
228,256,43248,1,0,0:0:0:0:
136,164,43576,1,0,0:0:0:0:
256,72,44014,1,0,0:0:0:0:
364,152,44343,2,0,B|412:184|424:284|408:296,2,150
300,256,45547,2,0,P|248:296|144:236,2,187.5
224,220,46861,2,0,P|208:152|112:148,2,150
180,356,48065,6,0,P|356:300|360:264,1,225
280,212,49051,2,4,P|244:104|156:96,1,187.5,4|0,0:0|0:0,0:0:0:0:
64,224,50036,1,0,0:0:0:0:
212,296,50474,1,0,0:0:0:0:
352,240,50912,1,0,0:0:0:0:
240,184,51240,2,0,L|240:56,1,112.5
124,108,51897,2,0,P|80:144|68:216,2,112.5
132,216,52883,2,0,L|136:340,1,112.5
268,316,53540,2,0,P|320:260|332:188,1,150
256,192,54635,12,0,56386,0:0:0:0:
48,124,56715,5,0,0:0:0:0:
148,204,57043,1,0,0:0:0:0:
264,128,57372,1,0,0:0:0:0:
404,216,57810,1,0,0:0:0:0:
308,280,58138,2,0,P|304:188|352:144,1,150
224,104,58905,2,0,P|152:108|128:136,1,112.5
140,260,59562,2,4,P|100:232|140:116,1,187.5,4|0,0:0|0:0,0:0:0:0:
164,148,60218,2,0,P|276:156|324:116,1,150,4|0,0:0|0:0,0:0:0:0:
356,244,60985,1,0,0:0:0:0:
232,300,61313,1,0,0:0:0:0:
96,244,61751,6,0,P|104:140|152:100,2,150
192,204,62956,1,0,0:0:0:0:
296,152,63284,1,0,0:0:0:0:
404,76,63613,1,0,0:0:0:0:
448,208,63941,2,0,L|452:364,3,150
328,340,65583,2,4,P|300:204|352:180,1,187.5,4|0,0:0|0:0,0:0:0:0:
360,188,66240,2,4,P|388:128|356:32,1,150,4|0,0:0|0:0,0:0:0:0:
248,96,67007,1,0,0:0:0:0:
124,164,67335,1,0,0:0:0:0:
72,300,67773,1,0,0:0:0:0:
196,312,68102,6,0,P|340:292|356:260,1,187.5
264,208,68978,2,4,P|208:188|228:104,1,150,4|0,0:0|0:0,0:0:0:0:
260,112,69525,2,4,P|300:96|284:8,1,150,4|0,0:0|0:0,0:0:0:0:
180,68,70291,2,0,P|120:144|128:176,1,112.5
188,244,70948,2,0,L|308:256,2,112.5
136,332,71934,2,0,B|100:296|108:176|116:172,1,150,4|0,0:0|0:0,0:0:0:0:
148,172,72481,2,0,P|160:136|144:8,1,150,4|0,0:0|0:0,0:0:0:0:
248,88,73248,2,0,P|328:112|352:100,1,112.5
384,196,73795,2,0,P|400:260|368:340,1,150
240,336,74562,2,0,P|188:256|212:212,1,150
116,152,75328,5,0,0:0:0:0:
232,108,75656,1,0,0:0:0:0:
340,168,75985,1,0,0:0:0:0:
236,220,76313,2,0,P|184:296|212:324,2,150
292,312,77518,2,0,L|412:312,1,112.5
416,180,78175,2,0,P|368:136|256:144,1,150
216,212,78941,2,0,P|160:224|96:116,1,187.5
256,192,79817,12,0,80583,0:0:0:0:
72,120,80912,5,0,0:0:0:0:
184,208,81240,1,0,0:0:0:0:
332,284,81678,2,0,P|416:176|392:168,1,262.5
284,244,82773,2,0,P|236:216|256:148,1,112.5
372,120,83430,2,0,L|232:112,2,112.5
256,192,84416,12,0,86715,0:0:0:0:
