osu file format v13

[General]
AudioFilename: BELIEVE.mp3
AudioLeadIn: 0
PreviewTime: 58868
Countdown: 0
SampleSet: Soft
StackLeniency: 0.7
Mode: 0
LetterboxInBreaks: 0
WidescreenStoryboard: 0

[Editor]
DistanceSpacing: 0.8
BeatDivisor: 4
GridSize: 4
TimelineZoom: 1

[Metadata]
Title:believe~TV size~
TitleUnicode:believe~TV size~
Artist:Kalafina
ArtistUnicode:Kalafina
Creator:Setsurei
Version:Normal
Source:Fate/stay night [Unlimited Blade Works]
Tags:フェイト/ステイナイトアンリミテッドブレイドワークス Type-Moon ufotable Tohsaka Rin Archer Ending ED Sony Music Kurosanyan
BeatmapID:538389
BeatmapSetID:231734

[Difficulty]
HPDrainRate:4
CircleSize:3
OverallDifficulty:4
ApproachRate:5
SliderMultiplier:1.3
SliderTickRate:1

[Events]
//Background and Video events
0,0,"BG.jpg",0,0
Video,0,"ED.avi"
//Break Periods
//Storyboard Layer 0 (Background)
//Storyboard Layer 1 (Fail)
//Storyboard Layer 2 (Pass)
//Storyboard Layer 3 (Foreground)
//Storyboard Sound Samples
//Background Colour Transformations
3,100,163,162,255

[TimingPoints]
1945,384.615384615385,4,2,2,30,1,0
1945,-100,4,2,2,30,0,0
5021,-100,4,2,2,40,0,0
8098,-100,4,2,2,50,0,0
11175,-100,4,1,0,30,0,0
13868,-100,4,2,1,50,0,0
58868,-100,4,2,1,70,0,1
83483,-100,4,2,1,50,0,0

[Colours]
Combo1 : 191,97,85
Combo2 : 126,109,85
Combo3 : 216,163,117
Combo4 : 142,142,123

[HitObjects]
239,63,1945,6,0,P|180:42|119:61,2,130,12|0|8,0:0|0:0|0:0,0:0:0:0:
179,155,3098,1,0,0:0:0:0:
116,246,3483,2,0,P|176:267|237:249,2,130,8|0|8,0:0|0:0|0:0,0:0:0:0:
303,364,5021,6,0,P|367:350|416:309,1,130,8|0,0:0|0:0,0:0:0:0:
476,216,5791,1,8,0:0:0:0:
351,31,6560,2,0,P|288:43|239:84,1,130,8|0,0:0|0:0,0:0:0:0:
188,184,7329,1,8,0:0:0:0:
15,327,8098,6,0,P|1:265|15:202,1,130,8|0,0:0|0:0,0:0:0:0:
56,100,8868,1,8,0:0:0:0:
216,252,9637,2,0,B|272:284|284:328|284:328|308:335,1,130,8|0,0:0|0:0,0:0:0:0:
364,336,10214,2,0,B|396:336|396:336|489:202,1,195,2|0,0:0|0:0,0:0:0:0:
416,120,11175,6,0,P|439:99|470:89,2,65,4|0|2,0:0|0:0|0:2,0:0:0:0:
368,148,11752,1,0,0:0:0:0:
316,168,11945,2,0,P|252:178|195:150,1,130,2|0,0:2|0:0,0:0:0:0:
144,52,12714,2,0,P|80:48|28:86,1,130,2|0,0:2|0:0,0:0:0:0:
16,140,13291,2,0,L|16:205,1,65,2|0,0:2|0:0,0:0:0:0:
60,308,13868,1,12,0:0:0:0:
164,340,14252,6,0,B|188:352|188:352|240:336|288:359,2,130,8|0|8,0:0|0:0|0:0,0:0:0:0:
164,228,15406,1,0,0:0:0:0:
251,160,15791,2,0,P|315:171|371:204,1,130,8|0,0:0|0:0,0:0:0:0:
352,312,16560,1,8,0:0:0:0:
464,304,16945,1,2,0:0:0:0:
496,200,17329,5,8,0:0:0:0:
395,152,17714,2,0,P|332:140|282:100,1,130,0|8,0:0|0:0,0:0:0:0:
192,36,18483,1,0,0:0:0:0:
87,76,18868,2,0,P|52:128|55:192,1,130,8|0,0:0|0:0,0:0:0:0:
100,292,19637,1,8,0:0:0:0:
200,336,20021,1,2,0:0:0:0:
275,256,20406,6,0,P|331:224|395:232,2,130,8|0|8,0:0|0:0|0:0,0:0:0:0:
352,336,21560,2,0,P|415:343|471:312,2,130,0|8|0,0:0|0:0|0:0,0:0:0:0:
395,233,22714,1,8,0:0:0:0:
479,163,23098,2,0,P|428:125|365:127,1,130,0|8,0:0|0:0,0:0:0:0:
272,188,23868,5,0,0:0:0:0:
164,208,24252,1,8,0:0:0:0:
88,128,24637,1,0,0:0:0:0:
176,60,25021,2,0,P|235:35|299:38,1,130,8|0,0:0|0:0,0:0:0:0:
408,64,25791,1,8,0:0:0:0:
492,136,26175,1,2,0:0:0:0:
455,240,26560,6,0,P|420:292|360:315,1,130,12|0,0:0|0:0,0:0:0:0:
256,280,27329,1,8,0:0:0:0:
188,368,27714,1,0,0:0:0:0:
84,328,28098,2,0,P|50:275|58:212,1,130,8|0,0:0|0:0,0:0:0:0:
104,180,28675,2,0,B|140:171|163:184|192:201|230:192,1,130,0|0,0:0|0:0,0:0:0:0:
284,172,29252,1,0,0:0:0:0:
256,280,29637,6,0,P|320:275|371:238,1,130,8|0,0:0|0:0,0:0:0:0:
424,216,30214,2,0,B|460:225|460:225|512:192|505:151,1,130,0|0,0:0|0:0,0:0:0:0:
500,96,30791,1,0,0:0:0:0:
400,48,31175,2,0,P|338:33|273:40,2,130,8|0|8,0:0|0:0|0:0,0:0:0:0:
500,96,32329,1,2,0:0:0:0:
507,207,32714,6,0,P|491:270|445:314,1,130,8|0,0:0|0:0,0:0:0:0:
340,288,33483,1,8,0:0:0:0:
236,324,33868,1,0,0:0:0:0:
127,339,34252,2,0,P|134:276|177:229,1,130,8|0,0:0|0:0,0:0:0:0:
232,216,34829,1,0,0:0:0:0:
288,212,35021,2,0,P|328:163|336:99,1,130,8|0,0:0|0:0,0:0:0:0:
256,20,35791,5,8,0:0:0:0:
208,116,36175,1,0,0:0:0:0:
156,20,36560,2,0,P|110:63|94:126,1,130,8|0,0:0|0:0,0:0:0:0:
65,233,37329,1,8,0:0:0:0:
140,316,37714,2,0,P|166:333|197:344,1,65,0|2,0:0|0:0,0:0:0:0:
252,352,38098,1,8,0:0:0:0:
360,332,38483,1,0,0:0:0:0:
468,304,38868,6,0,P|433:250|375:221,1,130,12|0,0:0|0:0,0:0:0:0:
320,228,39445,1,0,0:0:0:0:
264,228,39637,2,0,B|236:200|212:204|212:204|196:168|214:135|214:135|220:64|159:25,1,260,10|8,0:0|0:0,0:0:0:0:
104,124,40791,1,0,0:0:0:0:
24,200,41175,1,10,0:0:0:0:
40,308,41560,1,0,0:0:0:0:
144,344,41945,6,0,P|205:361|264:338,1,130,8|0,0:0|0:0,0:0:0:0:
304,296,42521,1,0,0:0:0:0:
295,239,42714,2,0,P|282:177|306:117,1,130,10|0,0:0|0:0,0:0:0:0:
400,188,43483,1,8,0:0:0:0:
460,280,43868,2,0,L|478:343,2,65,0|2|8,0:0|0:0|0:0,0:0:0:0:
496,176,44637,1,0,0:0:0:0:
464,72,45021,6,0,P|410:37|346:37,2,130,12|0|10,0:0|0:0|0:0,0:0:0:0:
464,72,46175,1,0,0:0:0:0:
380,144,46560,2,0,P|319:164|255:160,1,130,8|0,0:0|0:0,0:0:0:0:
148,124,47329,2,0,P|94:161|62:216,1,130,10|0,0:0|0:0,0:0:0:0:
28,320,48098,6,0,B|73:356|149:358|149:358|199:318,1,195,8|0,0:0|0:0,0:0:0:0:
244,282,48868,2,0,B|247:242|292:234|292:234|338:254|329:313|372:325|372:325|395:295|424:304,1,260,10|8,0:0|0:0,0:0:0:0:
476,208,50021,2,0,P|494:182|504:150,2,65,0|2|8,0:0|0:0|0:0,0:0:0:0:
396,132,50791,1,0,0:0:0:0:
312,60,51175,6,0,P|249:43|185:50,1,130,12|0,0:0|0:0,0:0:0:0:
136,76,51752,1,0,0:0:0:0:
108,124,51945,2,0,B|74:151|75:215|75:215|37:234|30:299|30:299|13:325|17:356,1,260,10|8,0:0|0:0,0:0:0:0:
128,356,53098,1,0,0:0:0:0:
232,320,53483,2,0,B|268:316|268:316|360:328,1,130,10|0,0:0|0:0,0:0:0:0:
416,332,54060,1,0,0:0:0:0:
464,308,54252,6,0,P|488:248|486:184,1,130,8|0,0:0|0:0,0:0:0:0:
468,76,55021,2,0,P|414:39|351:31,1,130,10|0,0:0|0:0,0:0:0:0:
252,76,55791,1,8,0:0:0:0:
148,36,56175,1,0,0:0:0:0:
44,72,56560,1,10,0:0:0:0:
12,176,56945,6,0,P|14:209|27:238,1,65,10|0,0:0|0:0,0:0:0:0:
51,288,57329,1,12,0:0:0:0:
144,352,57714,2,0,L|274:352,2,130,4|12|4,0:0|0:0|0:0,0:0:0:0:
163,243,58868,6,0,P|100:246|51:288,2,130,12|2|8,0:0|0:0|0:0,0:0:0:0:
276,244,60021,1,2,0:0:0:0:
356,320,60406,2,0,P|385:262|378:199,1,130,8|2,0:0|0:0,0:0:0:0:
340,96,61175,1,8,0:0:0:0:
252,28,61560,1,2,0:0:0:0:
172,104,61945,6,0,P|112:125|66:171,1,130,8|2,0:0|0:0,0:0:0:0:
65,226,62521,2,0,P|111:272|171:294,1,130,0|0,0:0|0:0,0:0:0:0:
228,296,63098,1,2,0:0:0:0:
328,248,63483,1,8,0:0:0:0:
424,192,63868,2,0,P|376:148|313:135,2,130,2|8|2,0:0|0:0|0:0,0:0:0:0:
396,300,65021,6,0,P|357:351|295:365,1,130,8|2,0:0|0:0,0:0:0:0:
244,344,65598,2,0,B|220:316|220:316|172:312|130:292,1,130,0|0,0:0|0:0,0:0:0:0:
84,260,66175,1,2,0:0:0:0:
52,156,66560,2,0,P|68:93|112:46,1,130,8|2,0:0|0:0,0:0:0:0:
168,40,67137,2,0,P|231:56|278:100,1,130,0|0,0:0|0:0,0:0:0:0:
304,148,67714,1,2,0:0:0:0:
307,260,68098,6,0,P|245:244|204:196,2,130,8|2|8,0:0|0:0|0:0,0:0:0:0:
364,252,69060,1,0,0:0:0:0:
412,220,69252,1,2,0:0:0:0:
476,128,69637,1,8,0:0:0:0:
408,40,70021,1,2,0:0:0:0:
296,40,70406,2,0,B|264:44|264:44|224:80|174:77,1,130,8|2,0:0|0:0,0:0:0:0:
64,96,71175,6,0,P|27:148|24:211,1,130,12|2,0:0|0:0,0:0:0:0:
43,264,71752,1,0,0:0:0:0:
67,316,71945,1,8,0:0:0:0:
176,340,72329,1,2,0:0:0:0:
199,232,72714,2,0,P|255:263|283:321,2,130,8|2|8,0:0|0:0|0:0,0:0:0:0:
104,176,73868,1,2,0:0:0:0:
184,100,74252,6,0,P|248:116|300:155,1,130,12|2,0:0|0:0,0:0:0:0:
364,244,75021,1,0,0:0:0:0:
428,332,75406,1,2,0:0:0:0:
503,251,75791,2,0,P|479:191|444:137,1,130,12|6,0:0|0:0,0:0:0:0:
404,96,76368,1,0,0:0:0:0:
356,68,76560,2,0,P|295:45|230:42,1,130,8|2,0:0|0:0,0:0:0:0:
120,36,77329,5,12,0:0:0:0:
20,84,77714,2,0,P|12:124|12:148,1,65,2|0,0:0|0:0,0:0:0:0:
20,204,78098,1,8,0:0:0:0:
120,252,78483,1,2,0:0:0:0:
91,359,78868,6,0,P|155:360|207:322,1,130,8|2,0:0|0:0,0:0:0:0:
256,296,79445,2,0,B|322:275|366:343|366:343|429:333,1,195,0|2,0:0|0:0,0:0:0:0:
424,224,80406,2,0,B|456:224|492:248|492:248|512:132|423:89,1,260,12|8,0:0|0:0,0:0:0:0:
320,52,81560,1,2,0:0:0:0:
216,92,81945,5,12,0:0:0:0:
168,120,82137,1,0,0:0:0:0:
147,172,82329,2,0,P|152:235|194:283,1,130,2|8,0:0|0:0,0:0:0:0:
256,192,83098,1,2,0:0:0:0:
256,192,83483,12,4,86560,0:0:0:0:
