osu file format v13

[General]
AudioFilename: Fate Stay Night .mp3
AudioLeadIn: 0
PreviewTime: 58216
Countdown: 0
SampleSet: None
StackLeniency: 0.4
Mode: 0
LetterboxInBreaks: 1
WidescreenStoryboard: 1

[Editor]
Bookmarks: 72449
DistanceSpacing: 1
BeatDivisor: 4
GridSize: 4
TimelineZoom: 1.3

[Metadata]
Title:believe -TV size-
TitleUnicode:believe -TV size-
Artist:Kalafina
ArtistUnicode:Kalafina
Creator:saisee2010
Version:Normal
Source:Fate/stay night [Unlimited Blade Works]
Tags:Fate Stay Night Unlimited Blade Works Type-Moon Studio Deen Tohsaka Rin Archer Ending ED Sony Music フェイト/ステイナイトアンリミテッドブレイドワークス
BeatmapID:546699
BeatmapSetID:235775

[Difficulty]
HPDrainRate:4
CircleSize:3
OverallDifficulty:5
ApproachRate:5
SliderMultiplier:1.3
SliderTickRate:1

[Events]
//Background and Video events
0,0,"213.jpg",0,0
//Break Periods
2,10825,12113
//Storyboard Layer 0 (Background)
//Storyboard Layer 1 (Fail)
//Storyboard Layer 2 (Pass)
//Storyboard Layer 3 (Foreground)
//Storyboard Sound Samples

[TimingPoints]
1395,384.615384615385,4,2,0,60,1,0
16779,-100,4,3,0,60,0,0
58318,-100,4,3,0,60,0,1
86010,-100,4,3,0,60,0,0

[Colours]
Combo1 : 0,223,223
Combo2 : 128,0,255
Combo3 : 0,128,0
Combo4 : 254,96,1

[HitObjects]
184,192,4471,6,0,P|152:112|224:28,2,195,2|0|0,0:0|0:0|0:0,0:0:0:0:
316,192,6010,2,0,P|348:272|276:356,2,195,2|0|0,0:0|0:0|0:0,0:0:0:0:
256,76,7548,6,0,B|140:76|80:84|80:156,1,195,2|0,0:0|0:0,0:0:0:0:
256,368,9087,2,0,B|372:368|432:360|432:288,1,195,8|8,0:0|0:0,0:0:0:0:
256,76,10625,5,4,0:0:0:0:
256,344,13318,5,4,1:0:0:0:
200,228,13702,2,0,P|168:156|164:100,1,130,0|0,0:0|0:0,0:0:0:0:
288,140,14471,2,0,P|316:198|324:262,2,130,0|0|0,0:0|0:0|0:0,0:0:0:0:
392,60,15625,1,0,0:0:0:0:
432,184,16010,1,0,0:0:0:0:
434,318,16395,2,0,P|371:305|324:262,1,130,0|4,0:0|0:0,0:0:0:0:
288,140,17164,5,0,1:0:0:0:
240,260,17548,2,0,P|160:296|64:256,2,195,4|4|4,0:0|0:0|0:0,0:0:0:0:
156,172,19087,2,0,L|156:40,2,130,4|0|4,0:0|1:0|0:0,0:0:0:0:
76,288,20241,5,2,0:0:0:0:
140,304,20433,2,0,P|216:320|284:288,1,130
204,196,21202,1,4,0:0:0:0:
260,176,21395,2,0,P|321:158|384:176,2,130,2|0|2,0:0|1:0|0:0,0:0:0:0:
332,308,22548,2,0,P|393:324|455:307,2,130,0|4|0,1:0|0:0|1:0,0:0:0:0:
300,192,23702,5,4,3:0:0:0:
84,284,24471,2,0,P|80:328|76:352,2,65,4|0|0,0:0|0:0|1:0,0:0:0:0:
100,168,25241,2,0,P|176:156|232:104,1,130,4|0,0:0|1:0,0:0:0:0:
380,104,26010,6,0,P|400:216|400:320,2,195,4|4|0,0:0|0:0|1:0,0:0:0:0:
256,64,27548,2,0,L|256:276,2,195,4|0|0,0:0|0:0|1:0,0:0:0:0:
132,104,29087,2,0,P|112:216|112:320,2,195,4|4|0,0:0|0:0|1:0,0:0:0:0:
256,168,30625,1,4,0:0:0:0:
320,184,30818,2,0,P|368:256|312:344,1,195,0|4,0:0|0:0,0:0:0:0:
192,352,31779,5,0,1:0:0:0:
88,280,32164,2,0,P|96:205|118:137,1,130,4|0,0:0|0:0,0:0:0:0:
136,100,32741,2,0,P|240:72|312:144,1,195,4|0,0:0|1:0,0:0:0:0:
292,280,33702,5,2,0:0:0:0:
248,296,33895,2,0,P|152:288|108:256,1,130,0|0,1:0|0:0,0:0:0:0:
100,220,34471,2,0,P|99:150|131:94,2,130,0|0|4,1:0|1:0|0:0,0:0:0:0:
224,184,35625,6,0,P|297:187|353:231,2,130,0|4|0,1:0|0:0|1:0,0:0:0:0:
256,304,36779,2,0,P|168:296|104:216,2,195,0|2|0,1:0|0:0|1:0,0:0:0:0:
396,272,38318,6,0,P|396:144|376:80,2,195,4|4|0,1:0|0:0|0:0,0:0:0:0:
256,204,39856,2,0,P|231:109|236:12,2,195,4|4|0,1:0|0:0|0:0,0:0:0:0:
356,140,41395,6,0,P|324:300|140:232,1,390,4|0,1:0|0:0,0:0:0:0:
112,132,42933,2,0,B|180:52|244:84|272:28,2,195,0|0|0,1:0|1:0|1:0,0:0:0:0:
160,224,44471,6,0,P|66:227|8:148,2,195,4|0|0,1:0|0:0|0:0,0:0:0:0:
256,180,46010,2,0,L|256:384,2,195,4|0|0,1:0|0:0|0:0,0:0:0:0:
352,152,47548,6,0,P|255:79|156:164,2,260,4|2|0,1:0|0:0|1:0,0:0:0:0:
428,256,49471,2,0,P|412:324|340:352,1,130,0|0,0:0|1:0,0:0:0:0:
244,356,50241,1,8,0:0:0:0:
128,328,50625,6,0,P|72:204|264:120,1,390,4|4,1:0|0:0,0:0:0:0:
288,8,52164,2,0,P|374:111|192:208,1,390,4|8,1:0|0:0,0:0:0:0:
264,120,53702,2,0,P|164:108|94:184,2,195,4|4|8,1:0|0:0|0:0,0:0:0:0:
256,192,55241,12,4,57548,0:0:0:0:
136,76,58318,6,0,P|200:48|268:68,1,130,4|0,0:0|1:0,0:0:0:0:
340,160,59087,2,0,P|276:188|208:168,1,130,4|0,0:0|1:0,0:0:0:0:
88,184,59856,2,0,B|108:264|32:296|92:388,2,195,4|8|0,0:0|0:0|1:0,0:0:0:0:
212,224,61395,6,0,P|320:240|356:260,1,130,8|0,0:0|1:0,0:0:0:0:
252,348,62164,2,0,P|144:332|108:312,2,130,8|0|8,0:0|1:0|0:0,0:0:0:0:
364,280,63318,1,0,1:0:0:0:
364,152,63702,1,4,0:0:0:0:
256,80,64087,1,0,1:0:0:0:
128,128,64471,6,0,P|120:232|128:288,1,130,4|0,2:0|1:0,0:0:0:0:
128,324,65048,2,0,P|232:332|288:324,1,130,0|4,1:0|0:0,0:0:0:0:
324,324,65625,2,0,P|332:220|324:164,2,130,0|8|0,1:0|0:0|1:0,0:0:0:0:
224,244,66779,2,0,P|221:179|229:114,2,130,8|0|4,0:0|1:0|0:0,0:0:0:0:
344,292,67933,6,0,P|436:284|504:284,1,130,0|8,1:0|0:0,0:0:0:0:
384,192,68702,2,0,P|292:200|224:200,1,130,0|4,1:0|0:0,0:0:0:0:
156,112,69471,2,0,P|248:104|316:104,2,130,0|8|0,1:0|0:0|1:0,0:0:0:0:
68,208,70625,6,0,P|104:296|152:312,1,130,4|0,2:0|1:0,0:0:0:0:
196,308,71202,2,0,P|288:300|356:300,1,130,8|0,0:0|0:0,0:0:0:0:
392,296,71779,1,0,1:0:0:0:
400,172,72164,2,0,P|420:104|400:44,1,130,8|0,0:0|1:0,0:0:0:0:
288,108,72933,2,0,P|220:88|148:120,1,130,4|0,0:0|1:0,0:0:0:0:
115,227,73702,6,0,P|176:248|238:230,1,130,8|0,0:0|1:0,0:0:0:0:
340,148,74471,2,0,P|371:211|356:288,1,130,4|0,0:0|1:0,0:0:0:0:
238,230,75241,2,0,P|207:167|222:90,2,130,8|0|4,0:0|1:0|0:0,0:0:0:0:
280,356,76395,2,0,P|343:362|400:332,2,130,0|4|0,1:0|1:0|1:0,0:0:0:0:
216,348,77356,6,0,P|132:302|124:189,1,195,4|0,0:0|1:0,0:0:0:0:
192,140,78318,2,0,P|99:106|20:168,2,195,8|8|0,0:0|0:0|1:0,0:0:0:0:
311,192,79856,6,0,P|408:184|456:193,1,130,4|0,0:0|1:0,0:0:0:0:
372,300,80625,2,0,P|275:308|227:299,1,130,8|0,0:0|1:0,0:0:0:0:
116,280,81395,2,0,P|120:176|140:136,1,130,4|0,2:0|1:0,0:0:0:0:
224,64,82164,2,0,L|308:64,2,65,4|4|0,0:0|0:0|1:0,0:0:0:0:
256,192,82933,12,4,86010,1:0:0:0:
