osu file format v13

[General]
AudioFilename: Fate Stay Night .mp3
AudioLeadIn: 0
PreviewTime: 58216
Countdown: 0
SampleSet: None
StackLeniency: 0.4
Mode: 0
LetterboxInBreaks: 1
WidescreenStoryboard: 0

[Editor]
DistanceSpacing: 1.7
BeatDivisor: 4
GridSize: 4
TimelineZoom: 1.8

[Metadata]
Title:believe -TV size-
TitleUnicode:believe -TV size-
Artist:Kalafina
ArtistUnicode:Kalafina
Creator:saisee2010
Version:Insane
Source:Fate/stay night [Unlimited Blade Works]
Tags:Fate Stay Night Unlimited Blade Works Type-Moon Studio Deen Tohsaka Rin Archer Ending ED Sony Music フェイト/ステイナイトアンリミテッドブレイドワークス
BeatmapID:546403
BeatmapSetID:235775

[Difficulty]
HPDrainRate:7
CircleSize:4
OverallDifficulty:7.5
ApproachRate:8
SliderMultiplier:1.7
SliderTickRate:1

[Events]
//Background and Video events
0,0,"213.jpg",0,0
//Break Periods
2,10825,12947
//Storyboard Layer 0 (Background)
//Storyboard Layer 1 (Fail)
//Storyboard Layer 2 (Pass)
//Storyboard Layer 3 (Foreground)
//Storyboard Sound Samples

[TimingPoints]
1395,384.615384615385,4,2,0,60,1,0
4471,-125,4,2,0,60,0,0
13702,-142.857142857143,4,2,0,60,0,0
21395,-111.111111111111,4,2,0,60,0,0
23702,-142.857142857143,4,2,0,60,0,0
25433,-111.111111111111,4,2,0,60,0,0
26010,-142.857142857143,4,2,0,60,0,0
33895,-111.111111111111,4,2,0,60,0,0
35625,-142.857142857143,4,2,0,60,0,0
38125,-200,4,2,0,60,0,0
39664,-133.333333333333,4,2,0,60,0,0
41395,-200,4,2,0,60,0,0
42741,-133.333333333333,4,2,0,60,0,0
44279,-200,4,2,0,60,0,0
50433,-125,4,2,0,60,0,0
53702,-153.846153846154,4,2,0,60,0,0
58318,-83.3333333333333,4,2,0,70,0,1
86010,-83.3333333333333,4,2,0,60,0,0

[Colours]
Combo1 : 0,223,223
Combo2 : 128,0,255
Combo3 : 0,128,0
Combo4 : 254,96,1

[HitObjects]
176,132,4471,5,2,0:0:0:0:
256,68,4664,1,0,0:0:0:0:
336,132,4856,1,0,0:0:0:0:
308,228,5048,1,2,0:0:0:0:
204,228,5241,2,0,P|136:200|216:64,1,272,2|2,0:0|0:0,0:0:0:0:
304,88,6202,5,0,0:0:0:0:
372,164,6395,1,0,0:0:0:0:
372,264,6587,1,2,0:0:0:0:
304,340,6779,2,0,P|184:328|144:192,1,272,2|2,0:0|0:0,0:0:0:0:
252,144,7741,5,0,0:0:0:0:
156,68,7933,1,0,0:0:0:0:
268,24,8125,1,2,0:0:0:0:
368,96,8318,2,0,P|424:228|348:336,1,272,2|8,0:0|0:0,0:0:0:0:
292,228,9279,5,0,0:0:0:0:
236,336,9471,1,0,0:0:0:0:
112,328,9664,2,0,P|32:176|124:44,1,340,8|4,0:0|1:0,0:0:0:0:
176,288,13702,6,0,P|120:280|96:272,2,59.4999981842042,0|0|0,0:0|0:0|0:0,0:0:0:0:
264,292,14279,2,0,P|308:240|316:188,2,118.999996368408,0|0|0,0:0|0:0|0:0,0:0:0:0:
208,200,15241,2,0,P|164:148|156:96,1,118.999996368408,0|0,0:0|0:0,0:0:0:0:
256,44,15818,1,0,0:0:0:0:
304,200,16010,2,0,P|348:148|356:96,1,118.999996368408,0|0,0:0|0:0,0:0:0:0:
256,44,16587,1,0,0:0:0:0:
168,44,16779,6,0,P|112:52|48:92,2,118.999996368408,0|0|0,0:0|0:0|0:0,0:0:0:0:
256,112,17741,2,0,P|256:148|260:184,1,59.4999981842042,0|0,0:0|0:0,0:0:0:0:
168,252,18125,1,0,0:0:0:0:
283,276,18318,2,0,P|342:269|398:249,2,118.999996368408,0|0|0,0:0|0:0|0:0,0:0:0:0:
399,248,19279,2,0,P|395:218|393:188,1,59.4999981842042,0|0,0:0|1:0,0:0:0:0:
340,116,19664,1,0,0:0:0:0:
308,144,19760,1,0,0:0:0:0:
276,168,19856,6,0,P|192:164|140:152,1,118.999996368408,0|0,0:0|0:0,0:0:0:0:
68,144,20433,2,0,P|57:202|57:262,2,118.999996368408,0|0|0,0:0|0:0|0:0,0:0:0:0:
204,76,21395,2,0,P|280:76|336:160,1,152.999995330811,0|0,0:0|0:0,0:0:0:0:
240,168,21971,1,0,0:0:0:0:
240,168,22164,2,0,P|291:221|366:220,1,152.999995330811,0|0,0:0|0:0,0:0:0:0:
448,224,22741,1,0,0:0:0:0:
320,288,22933,6,0,P|324:328|320:372,2,76.4999976654053,0|0|0,1:0|0:0|0:0,0:0:0:0:
316,152,23510,1,0,0:0:0:0:
208,240,23702,2,0,P|144:148|220:64,1,237.999992736817,0|0,0:0|0:0,0:0:0:0:
328,80,24664,2,0,P|384:92|404:104,2,59.4999981842042,0|0|0,0:0|0:0|0:0,0:0:0:0:
256,192,25241,1,0,0:0:0:0:
180,304,25433,2,0,P|116:292|80:280,2,76.4999976654053,0|0|0,0:0|1:0|0:0,0:0:0:0:
300,312,26010,6,0,P|356:272|360:220,1,118.999996368408
452,224,26587,2,0,P|425:160|372:136,1,118.999996368408
424,56,27164,2,0,P|355:49|312:80,1,118.999996368408
315,75,27741,1,0,0:0:0:0:
108,240,28125,1,0,0:0:0:0:
96,152,28318,2,0,L|88:96|84:68,2,59.4999981842042,0|0|0,0:0|0:0|1:0,0:0:0:0:
180,180,28895,1,0,0:0:0:0:
208,96,29087,6,0,P|268:68|332:96,1,118.999996368408
392,128,29664,2,0,P|420:188|392:252,1,118.999996368408
348,303,30241,2,0,P|296:331|239:317,1,118.999996368408
240,317,30818,1,0,0:0:0:0:
96,208,31202,1,0,0:0:0:0:
84,120,31395,2,0,L|76:64|72:36,2,59.4999981842042,0|0|0,0:0|0:0|1:0,0:0:0:0:
168,144,31971,6,0,P|208:144|240:152,1,59.4999981842042
388,76,32548,2,0,P|384:112|384:152,1,59.4999981842042
320,304,33125,2,0,P|360:312|400:312,2,59.4999981842042,0|0|0,0:0|0:0|0:0,0:0:0:0:
232,288,33702,1,0,0:0:0:0:
140,268,33895,2,0,P|96:212|112:136,1,152.999995330811,0|0,0:0|0:0,0:0:0:0:
192,88,34471,2,0,B|248:36|308:140|356:64,2,152.999995330811,0|0|0,0:0|0:0|1:0,0:0:0:0:
312,268,35625,6,0,P|380:256|416:216,2,118.999996368408,0|0|0,0:0|0:0|1:0,0:0:0:0:
196,88,36779,2,0,L|56:64,1,118.999996368408,0|0,0:0|0:0,0:0:0:0:
168,264,37356,2,0,L|308:288,1,118.999996368408,0|0,1:0|0:0,0:0:0:0:
285,284,37933,1,0,1:0:0:0:
456,300,38318,6,0,P|472:184|364:108,1,255,4|0,1:0|0:0,0:0:0:0:
256,164,39664,6,0,L|256:236,1,63.7500024318696,0|0,0:0|1:0,0:0:0:0:
188,336,40048,1,0,0:0:0:0:
316,336,40241,2,0,P|388:320|432:268,2,127.500004863739,0|0|0,0:0|1:0|0:0,0:0:0:0:
148,308,41395,6,0,P|80:248|156:120,1,255,4|0,1:0|0:0,0:0:0:0:
252,52,42741,6,0,P|312:56|336:56,1,63.7500024318696,0|0,0:0|1:0,0:0:0:0:
320,140,43125,2,0,P|380:144|404:144,2,63.7500024318696,0|0|0,0:0|0:0|1:0,0:0:0:0:
236,140,43702,2,0,P|228:232|232:284,1,127.500004863739,0|0,0:0|1:0,0:0:0:0:
152,312,44471,6,0,P|196:352|272:348,2,127.5,4|0|0,1:0|0:0|0:0,0:0:0:0:
360,72,46010,2,0,P|316:32|240:36,2,127.5,4|0|0,1:0|0:0|0:0,0:0:0:0:
376,296,47548,6,0,P|416:252|412:176,2,127.5,4|0|0,1:0|0:0|0:0,0:0:0:0:
136,88,49087,2,0,P|96:132|100:208,2,127.5,4|0|0,1:0|0:0|0:0,0:0:0:0:
208,48,50433,1,0,0:0:0:0:
208,48,50625,6,0,P|268:52|296:60,1,68,0|0,1:0|0:0,0:0:0:0:
312,136,51010,2,0,P|372:132|400:124,2,68,0|0|0,0:0|0:0|1:0,0:0:0:0:
236,92,51587,1,0,0:0:0:0:
192,168,51779,2,0,P|196:228|204:256,2,68,0|0|0,0:0|0:0|1:0,0:0:0:0:
272,204,52356,1,0,0:0:0:0:
312,136,52548,2,0,P|376:120|396:120,1,68,0|0,0:0|0:0,0:0:0:0:
424,36,52933,2,0,P|475:121|408:212,1,204,4|0,1:0|0:0,0:0:0:0:
348,240,53702,6,0,P|292:260|236:240,3,110.499994941712,0|0|0|0,0:0|0:0|1:0|0:0,0:0:0:0:
156,216,55048,1,0,0:0:0:0:
80,176,55241,2,0,L|76:104,2,55.2499974708558,0|0|0,0:0|0:0|0:0,0:0:0:0:
172,204,55818,1,0,0:0:0:0:
263,233,56010,2,0,P|271:285|271:301,2,55.2499974708558,0|0|0,1:0|0:0|0:0,0:0:0:0:
288,148,56587,1,0,0:0:0:0:
288,148,56779,5,0,1:0:0:0:
372,200,56971,1,0,0:0:0:0:
280,240,57164,2,0,P|288:292|288:308,1,55.2499974708558,0|0,1:0|0:0,0:0:0:0:
200,324,57548,1,0,1:0:0:0:
160,296,57645,1,0,0:0:0:0:
132,252,57741,1,0,0:0:0:0:
124,204,57837,1,0,0:0:0:0:
132,156,57933,1,0,1:0:0:0:
152,112,58029,1,0,0:0:0:0:
184,76,58125,1,0,0:0:0:0:
232,60,58221,1,0,0:0:0:0:
280,64,58318,6,0,P|356:84|392:152,1,152.999995330811,4|0,1:0|0:0,0:0:0:0:
392,220,58702,2,0,L|392:348,2,101.999996887207,0|0|0,1:0|0:0|0:0,0:0:0:0:
256,152,59279,1,0,0:0:0:0:
256,264,59471,2,0,L|156:284,1,101.999996887207,0|0,1:0|0:0,0:0:0:0:
208,160,59856,2,0,L|365:128,1,152.999995330811
444,112,60241,2,0,P|464:176|452:236,2,101.999996887207,0|0|0,1:0|0:0|0:0,0:0:0:0:
303,195,60818,5,0,0:0:0:0:
368,344,61010,1,0,1:0:0:0:
460,208,61202,1,0,0:0:0:0:
200,312,61395,2,0,P|112:312|56:264,1,152.999995330811
62,274,61779,1,0,1:0:0:0:
171,166,61971,2,0,P|256:120|347:176,1,203.999993774414
256,228,62548,2,0,L|256:332,1,101.999996887207,0|0,1:0|0:0,0:0:0:0:
256,330,62933,5,4,1:0:0:0:
256,124,63125,1,0,0:0:0:0:
256,124,63221,1,0,0:0:0:0:
256,124,63318,2,0,P|344:124|380:112,2,101.999996887207,0|0|4,1:0|0:0|1:0,0:0:0:0:
180,192,63895,1,0,0:0:0:0:
180,192,63991,1,0,0:0:0:0:
180,192,64087,2,0,P|180:280|192:316,2,101.999996887207,0|0|4,1:0|0:0|1:0,0:0:0:0:
376,252,64664,5,2,0:0:0:0:
376,252,64760,1,8,0:0:0:0:
308,60,64952,1,2,0:0:0:0:
308,60,65048,2,0,P|240:56|176:80,1,101.999996887207,8|4,0:0|1:0,0:0:0:0:
104,192,65433,1,0,0:0:0:0:
268,208,65625,2,0,P|288:300|288:344,1,101.999996887207,0|0,1:0|0:0,0:0:0:0:
288,307,66010,1,8,2:0:0:0:
428,224,66202,5,2,0:0:0:0:
428,224,66298,1,8,2:0:0:0:
342,84,66491,1,2,0:0:0:0:
342,84,66587,2,0,P|255:37|168:83,1,203.999993774414,8|0,0:0|0:0,0:0:0:0:
256,140,67164,2,0,L|256:268,2,101.999996887207,4|0|8,2:0|0:0|0:0,0:0:0:0:
96,48,67741,5,2,0:0:0:0:
96,48,67837,1,8,0:0:0:0:
116,220,68029,1,2,0:0:0:0:
116,220,68125,2,0,P|108:308|124:344,1,101.999996887207,8|0,0:0|1:0,0:0:0:0:
280,276,68510,2,0,P|368:284|404:268,1,101.999996887207,0|0,0:0|1:0,0:0:0:0:
300,132,68895,6,0,P|308:44|292:8,1,101.999996887207,0|0,0:0|1:0,0:0:0:0:
236,184,69279,2,0,P|148:176|112:192,1,101.999996887207,0|0,0:0|1:0,0:0:0:0:
308,212,69664,1,0,0:0:0:0:
308,212,69760,1,0,0:0:0:0:
308,212,69856,2,0,P|372:256|392:320,2,101.999996887207,0|0|0,1:0|0:0|1:0,0:0:0:0:
260,44,70433,1,0,0:0:0:0:
260,44,70529,1,0,0:0:0:0:
260,44,70625,2,0,P|172:40|144:60,2,101.999996887207,4|0|0,0:0|0:0|1:0,0:0:0:0:
200,204,71202,6,0,P|148:285|199:367,1,203.999993774414
256,172,71779,1,0,1:0:0:0:
316,368,71971,1,0,0:0:0:0:
156,250,72164,1,0,1:0:0:0:
360,250,72356,1,0,0:0:0:0:
200,368,72548,1,0,1:0:0:0:
256,136,72741,5,2,0:0:0:0:
256,136,72837,1,2,0:0:0:0:
134,285,73029,1,2,0:0:0:0:
377,287,73221,1,2,0:0:0:0:
377,287,73318,1,2,0:0:0:0:
256,352,73510,1,2,0:0:0:0:
133,98,73702,2,0,P|99:192|133:286,1,203.999993774414,4|0,0:0|0:0,0:0:0:0:
377,286,74279,2,0,P|412:192|378:98,1,203.999993774414,4|0,0:0|0:0,0:0:0:0:
256,144,74856,2,0,L|256:36,1,101.999996887207,4|0,0:0|0:0,0:0:0:0:
256,236,75241,6,0,L|256:356,1,101.999996887207,4|0,2:0|0:0,0:0:0:0:
256,338,75529,1,0,0:0:0:0:
256,338,75625,2,0,P|160:328|132:320,2,101.999996887207,0|0|0,1:0|0:0|1:0,0:0:0:0:
368,188,76202,1,0,0:0:0:0:
368,188,76298,1,0,0:0:0:0:
368,188,76395,2,0,P|464:178|492:170,2,101.999996887207,0|0|4,1:0|0:0|1:0,0:0:0:0:
260,80,76971,5,2,0:0:0:0:
260,80,77068,2,0,L|136:104,1,101.999996887207,2|2,0:0|0:0,0:0:0:0:
84,116,77356,2,0,L|84:240,2,101.999996887207,2|0|0,0:0|1:0|0:0,0:0:0:0:
192,232,77933,2,0,P|244:216|312:236,1,101.999996887207,0|0,1:0|0:0,0:0:0:0:
354,328,78318,2,0,P|307:343|256:337,2,101.999996887207,0|0|0,1:0|0:0|1:0,0:0:0:0:
412,134,78895,2,0,P|346:61|247:55,1,203.999993774414,0|0,0:0|0:0,0:0:0:0:
90,257,79471,2,0,P|157:330|257:337,1,203.999993774414,0|0,1:0|1:0,0:0:0:0:
412,236,80048,6,0,L|412:134,2,101.999996887207,0|0|0,0:0|1:0|0:0,0:0:0:0:
260,208,80625,2,0,L|260:336,2,101.999996887207,0|0|0,1:0|0:0|1:0,0:0:0:0:
260,208,81202,1,0,0:0:0:0:
164,256,81395,6,0,P|152:204|176:148,1,101.999996887207,0|2,1:0|3:0,3:0:0:0:
180,136,81683,1,4,3:0:0:0:
208,116,81779,1,0,1:0:0:0:
240,104,81875,1,0,3:0:0:0:
276,104,81971,1,2,3:0:0:0:
308,116,82068,1,0,3:0:0:0:
336,140,82164,1,0,1:0:0:0:
356,172,82260,1,8,3:0:0:0:
360,208,82356,5,2,3:0:0:0:
356,244,82452,1,4,3:0:0:0:
340,276,82548,1,0,1:0:0:0:
312,300,82645,1,8,3:0:0:0:
280,312,82741,1,2,3:0:0:0:
244,312,82837,1,12,3:0:0:0:
212,300,82933,1,4,1:0:0:0:
256,192,83029,12,4,86010,1:0:0:0:
