osu file format v13

[General]
AudioFilename: Fate Stay Night .mp3
AudioLeadIn: 0
PreviewTime: 58216
Countdown: 0
SampleSet: None
StackLeniency: 0.4
Mode: 0
LetterboxInBreaks: 1
WidescreenStoryboard: 1

[Editor]
DistanceSpacing: 1.1
BeatDivisor: 4
GridSize: 4
TimelineZoom: 1.3

[Metadata]
Title:believe -TV size-
TitleUnicode:believe -TV size-
Artist:Kalafina
ArtistUnicode:Kalafina
Creator:saisee2010
Version:Hard
Source:Fate/stay night [Unlimited Blade Works]
Tags:Fate Stay Night Unlimited Blade Works Type-Moon Studio Deen Tohsaka Rin Archer Ending ED Sony Music フェイト/ステイナイトアンリミテッドブレイドワークス
BeatmapID:546402
BeatmapSetID:235775

[Difficulty]
HPDrainRate:6
CircleSize:3.5
OverallDifficulty:6.5
ApproachRate:6
SliderMultiplier:1.5
SliderTickRate:1

[Events]
//Background and Video events
0,0,"213.jpg",0,0
//Break Periods
2,10825,12263
//Storyboard Layer 0 (Background)
//Storyboard Layer 1 (Fail)
//Storyboard Layer 2 (Pass)
//Storyboard Layer 3 (Foreground)
//Storyboard Sound Samples

[TimingPoints]
1395,384.615384615385,4,3,0,60,1,0
4471,-125,4,2,0,60,0,0
13702,-142.857142857143,4,3,0,60,0,0
33895,-111.111111111111,4,3,0,60,0,0
35625,-142.857142857143,4,3,0,60,0,0
38125,-200,4,3,0,60,0,0
39664,-133.333333333333,4,3,0,60,0,0
41395,-200,4,3,0,60,0,0
42741,-133.333333333333,4,3,0,60,0,0
44279,-200,4,3,0,60,0,0
50433,-125,4,3,0,60,0,0
53702,-153.846153846154,4,3,0,60,0,0
56779,-125,4,3,0,60,0,0
58318,-90.9090909090909,4,3,0,70,0,1
86010,-83.3333333333333,4,3,0,60,0,0

[Colours]
Combo1 : 0,223,223
Combo2 : 128,0,255
Combo3 : 0,128,0
Combo4 : 254,96,1

[HitObjects]
172,104,4471,6,0,L|100:104,2,60,2|0|0,0:0|0:0|0:0,0:0:0:0:
252,104,5048,2,0,P|316:116|352:220,1,180,2|0,0:0|0:0,0:0:0:0:
256,324,6010,6,0,L|256:408,2,60,2|0|0,0:0|0:0|0:0,0:0:0:0:
256,248,6587,2,0,P|192:236|156:132,1,180,2|0,0:0|0:0,0:0:0:0:
300,96,7548,6,0,L|376:96,2,60,2|0|0,0:0|0:0|0:0,0:0:0:0:
220,96,8125,2,0,P|156:108|104:148,2,120,2|0|0,0:0|0:0|0:0,0:0:0:0:
300,96,9087,6,0,L|300:224,1,120,8|0,0:0|0:0,0:0:0:0:
384,216,9664,2,0,L|384:348,2,120,8|0|0,0:0|0:0|0:0,0:0:0:0:
384,96,10625,5,4,0:0:0:0:
128,88,13318,5,4,1:0:0:0:
128,88,13702,2,0,P|208:88|248:96,1,104.999996795654
312,96,14279,2,0,P|312:176|304:216,2,104.999996795654,0|0|0,0:0|0:0|0:0,0:0:0:0:
232,92,15241,1,0,0:0:0:0:
112,192,15625,1,0,0:0:0:0:
232,296,16010,1,0,0:0:0:0:
352,192,16395,2,0,L|464:192,1,104.999996795654,0|4,0:0|0:0,0:0:0:0:
160,192,17164,6,0,L|48:192,1,104.999996795654,0|4,0:0|0:0,0:0:0:0:
156,72,17933,1,0,0:0:0:0:
156,72,18125,2,0,P|236:76|280:144,1,157.499995193482,4|0,0:0|0:0,0:0:0:0:
364,200,19087,2,0,P|328:232|268:240,2,104.999996795654,0|0|0,0:0|1:0|0:0,0:0:0:0:
368,96,20241,5,4,0:0:0:0:
368,96,20433,2,0,B|316:84|316:84|244:96,1,104.999996795654,2|0,0:0|0:0,0:0:0:0:
172,228,21202,1,4,0:0:0:0:
172,228,21395,2,0,B|224:240|224:240|296:228,1,104.999996795654,2|0,0:0|0:0,0:0:0:0:
424,280,22164,2,0,B|436:228|436:228|424:156,2,104.999996795654,2|0|4,0:0|0:0|0:0,0:0:0:0:
256,332,23318,5,4,0:0:0:0:
120,288,23702,2,0,P|92:208|144:136,1,157.499995193482,8|4,0:0|0:0,0:0:0:0:
196,124,24471,2,0,P|240:120|272:124,2,52.4999983978272,0|0|0,0:0|0:0|0:0,0:0:0:0:
196,228,25241,2,0,P|252:304|272:304,1,104.999996795654,0|0,0:0|1:0,0:0:0:0:
324,148,26010,6,0,P|416:148|448:152,1,104.999996795654,4|0,0:0|0:0,0:0:0:0:
432,204,26587,2,0,P|435:256|433:308,1,104.999996795654,8|0,0:0|0:0,0:0:0:0:
380,308,27164,2,0,P|288:308|256:304,1,104.999996795654,4|0,0:0|0:0,0:0:0:0:
224,304,27741,2,0,P|227:251|225:199,1,104.999996795654,8|0,0:0|0:0,0:0:0:0:
224,116,28318,5,8,0:0:0:0:
284,56,28510,1,0,0:0:0:0:
368,48,28702,1,0,1:0:0:0:
444,88,28895,1,0,0:0:0:0:
476,172,29087,6,0,L|476:284,1,104.999996795654,4|0,0:0|0:0,0:0:0:0:
380,344,29664,2,0,L|380:239,1,104.999996795654,8|0,0:0|0:0,0:0:0:0:
284,292,30241,2,0,P|212:280|172:256,1,104.999996795654,4|0,0:0|0:0,0:0:0:0:
84,312,30818,2,0,L|84:192,1,104.999996795654,8|0,0:0|0:0,0:0:0:0:
84,119,31395,5,4,0:0:0:0:
144,60,31587,1,0,0:0:0:0:
228,48,31779,1,0,1:0:0:0:
304,88,31971,1,0,0:0:0:0:
348,160,32164,6,0,P|412:168|448:196,1,104.999996795654,8|0,0:0|0:0,0:0:0:0:
367,264,32741,2,0,P|316:260|272:232,1,104.999996795654,4|0,0:0|0:0,0:0:0:0:
272,233,33318,1,2,0:0:0:0:
84,324,33702,5,4,0:0:0:0:
84,324,33895,2,0,L|84:172,1,134.999995880127,2|0,0:0|0:0,0:0:0:0:
84,108,34471,2,0,P|164:108|208:144,1,134.999995880127,2|4,0:0|0:0,0:0:0:0:
320,236,35241,1,0,1:0:0:0:
448,328,35625,6,0,P|460:272|448:216,2,104.999996795654,12|4|0,0:0|0:0|1:0,0:0:0:0:
256,144,36779,2,0,L|136:128,1,104.999996795654,0|2,0:0|0:0,0:0:0:0:
256,240,37356,2,0,L|376:256,1,104.999996795654,0|0,1:0|0:0,0:0:0:0:
464,264,37933,1,0,1:0:0:0:
436,144,38318,6,0,P|346:85|257:144,1,225,4|0,1:0|0:0,0:0:0:0:
136,84,39856,2,0,L|136:264,2,168.750006437302,0|0|0,1:0|0:0|0:0,0:0:0:0:
327,162,41395,6,0,P|377:259|328:355,1,225,4|0,1:0|0:0,0:0:0:0:
256,260,42933,2,0,L|80:260,2,168.750006437302,0|0|0,1:0|0:0|0:0,0:0:0:0:
256,168,44471,6,0,P|272:88|408:48,1,225,4|0,1:0|0:0,0:0:0:0:
360,144,46010,2,0,P|432:152|472:128,2,112.5,0|0|0,1:0|0:0|0:0,0:0:0:0:
152,240,47548,6,0,P|80:232|40:256,2,112.5,0|0|0,1:0|0:0|0:0,0:0:0:0:
360,336,49087,2,0,P|432:344|472:320,2,112.5,0|0|0,1:0|0:0|0:0,0:0:0:0:
136,296,50625,6,0,P|104:208|156:128,1,180,4|4,1:0|0:0,0:0:0:0:
220,88,51395,2,0,P|272:84|304:80,2,60,0|0|0,1:0|0:0|0:0,0:0:0:0:
260,264,52164,2,0,P|356:232|376:160,1,180,4|4,1:0|0:0,0:0:0:0:
372,80,52933,2,0,P|420:84|452:89,2,60,0|0|0,1:0|0:0|0:0,0:0:0:0:
256,72,53510,1,0,0:0:0:0:
256,72,53702,6,0,P|180:80|152:104,1,97.4999955368044,4|4,1:0|0:0,0:0:0:0:
256,312,54471,2,0,P|332:304|360:280,1,97.4999955368044,0|8,1:0|0:0,0:0:0:0:
195,88,55241,2,0,P|134:133|121:167,1,97.4999955368044,0|4,1:0|0:0,0:0:0:0:
316,295,56010,2,0,P|377:250|390:216,1,97.4999955368044,0|8,1:0|0:0,0:0:0:0:
392,152,56587,1,0,0:0:0:0:
468,97,56779,2,0,P|392:56|315:96,1,180,0|4,1:0|0:0,0:0:0:0:
256,156,57548,2,0,L|256:288,1,120,0|0,1:0|1:0,0:0:0:0:
92,312,58318,6,0,P|92:212|128:148,1,165.000005035401,4|8,1:0|0:0,0:0:0:0:
84,72,58895,2,0,P|184:72|248:108,1,165.000005035401,0|4,1:0|0:0,0:0:0:0:
328,80,59471,2,0,P|328:180|292:244,2,165.000005035401,0|0|4,1:0|1:0|0:0,0:0:0:0:
213,148,60433,2,0,P|179:222|184:304,1,165.000005035401,0|8,1:0|0:0,0:0:0:0:
100,300,61010,2,0,P|180:313|245:363,1,165.000005035401,0|4,1:0|0:0,0:0:0:0:
344,360,61587,5,4,0:0:0:0:
408,284,61779,1,0,1:0:0:0:
412,184,61971,2,0,P|357:90|300:56,1,165.000005035401,0|4,0:0|0:0,0:0:0:0:
308,160,62548,2,0,P|363:254|420:288,1,165.000005035401,0|8,1:0|0:0,0:0:0:0:
256,40,63318,5,4,2:0:0:0:
80,192,63702,1,4,2:0:0:0:
256,344,64087,1,4,2:0:0:0:
432,192,64471,1,4,2:0:0:0:
256,68,64856,6,0,P|312:72|348:96,1,82.5000025177003,0|4,1:0|0:0,0:0:0:0:
256,316,65433,2,0,P|200:312|164:288,1,82.5000025177003,0|0,0:0|1:0,0:0:0:0:
84,272,65818,1,0,0:0:0:0:
84,272,66010,2,0,B|112:212|160:204|160:204|40:176|100:152|96:112,2,247.500007553101,0|4|4,1:0|0:0|2:0,0:0:0:0:
256,144,67548,5,0,1:0:0:0:
360,256,67933,1,0,1:0:0:0:
360,256,68125,2,0,P|252:308|144:256,1,247.500007553101,0|0,0:0|1:0,0:0:0:0:
256,64,69087,5,4,0:0:0:0:
348,344,69471,1,0,1:0:0:0:
108,172,69856,1,8,0:0:0:0:
404,172,70241,1,0,1:0:0:0:
164,344,70625,1,4,2:0:0:0:
256,64,71010,5,0,1:0:0:0:
256,64,71202,2,0,P|356:68|404:136,1,165.000005035401,0|0,0:0|0:0,0:0:0:0:
424,200,71779,2,0,P|420:300|352:348,1,165.000005035401,0|0,1:0|0:0,0:0:0:0:
260,340,72356,1,0,0:0:0:0:
124,292,72548,2,0,P|133:251|149:214,1,82.5000025177003,0|0,1:0|0:0,0:0:0:0:
268,196,72933,1,0,0:0:0:0:
356,88,73125,2,0,P|396:97|433:113,1,82.5000025177003,0|0,0:0|1:0,0:0:0:0:
508,164,73510,1,0,0:0:0:0:
424,200,73702,6,0,P|344:220|260:192,1,165.000005035401,4|0,2:0|1:0,0:0:0:0:
196,120,74279,2,0,P|162:189|193:269,1,165.000005035401,4|0,2:0|0:0,0:0:0:0:
268,320,74856,1,0,1:0:0:0:
348,360,75048,1,0,0:0:0:0:
344,268,75241,6,0,P|360:220|348:184,1,82.5000025177003,0|0,1:0|0:0,0:0:0:0:
256,136,75625,2,0,P|324:84|419:106,2,165.000005035401,0|0|0,1:0|1:0|1:0,0:0:0:0:
111,220,76779,2,0,P|175:271|256:280,1,165.000005035401,4|0,1:0|1:0,0:0:0:0:
400,195,77356,6,0,P|336:144|256:136,1,165.000005035401,0|0,0:0|0:0,0:0:0:0:
156,136,77933,2,0,P|96:140|52:164,1,82.5000025177003,0|0,1:0|0:0,0:0:0:0:
44,244,78318,2,0,P|104:240|148:216,1,82.5000025177003,0|0,1:0|0:0,0:0:0:0:
220,212,78702,2,0,P|256:200|300:199,1,82.5000025177003,0|0,1:0|0:0,0:0:0:0:
244,116,79087,2,0,P|232:80|236:36,2,82.5000025177003,0|0|0,1:0|0:0|1:0,0:0:0:0:
332,64,79664,1,0,0:0:0:0:
420,108,79856,5,0,1:0:0:0:
440,204,80048,1,0,0:0:0:0:
388,288,80241,1,0,1:0:0:0:
292,312,80433,1,0,0:0:0:0:
192,312,80625,2,0,L|80:312,1,82.5000025177003,0|0,1:0|0:0,0:0:0:0:
174,192,81010,2,0,L|256:192,1,82.5000025177003,0|0,1:0|0:0,0:0:0:0:
340,92,81395,5,4,0:0:0:0:
424,192,81587,2,0,L|484:192,1,41.2500012588501,4|2,0:0|0:0,0:0:0:0:
340,296,81875,2,0,L|340:348,1,41.2500012588501,4|2,0:0|0:0,0:0:0:0:
256,192,82164,2,0,L|204:192,8,41.2500012588501,4|2|12|4|2|12|12|2|4,0:0|0:0|0:0|0:0|0:0|0:0|0:0|0:0|1:0,0:0:0:0:
256,192,83125,12,4,86010,1:0:0:0:
