osu file format v13

[General]
AudioFilename: Fate Stay Night .mp3
AudioLeadIn: 0
PreviewTime: 58216
Countdown: 0
SampleSet: None
StackLeniency: 0.4
Mode: 0
LetterboxInBreaks: 1
WidescreenStoryboard: 1

[Editor]
DistanceSpacing: 1.2
BeatDivisor: 4
GridSize: 4
TimelineZoom: 1.8

[Metadata]
Title:believe -TV size-
TitleUnicode:believe -TV size-
Artist:Kalafina
ArtistUnicode:Kalafina
Creator:saisee2010
Version:Fate
Source:Fate/stay night [Unlimited Blade Works]
Tags:Fate Stay Night Unlimited Blade Works Type-Moon Studio Deen Tohsaka Rin Archer Ending ED Sony Music フェイト/ステイナイトアンリミテッドブレイドワークス
BeatmapID:546401
BeatmapSetID:235775

[Difficulty]
HPDrainRate:8
CircleSize:4.2
OverallDifficulty:8
ApproachRate:9
SliderMultiplier:2
SliderTickRate:1

[Events]
//Background and Video events
0,0,"213.jpg",0,0
//Break Periods
2,10825,12708
//Storyboard Layer 0 (Background)
//Storyboard Layer 1 (Fail)
//Storyboard Layer 2 (Pass)
//Storyboard Layer 3 (Foreground)
//Storyboard Sound Samples

[TimingPoints]
1395,384.615384615385,4,2,0,60,1,0
4471,-125,4,2,0,60,0,0
7068,-125,4,2,0,5,0,0
7164,-125,4,2,0,60,0,0
7452,-125,4,2,0,5,0,0
7548,-125,4,2,0,60,0,0
8702,-125,4,2,0,40,0,0
9087,-125,4,2,0,65,0,0
9664,-200,4,3,0,60,0,0
13702,-125,4,3,0,60,0,0
18318,-100,4,3,0,60,0,0
19087,-142.857142857143,4,3,0,60,0,0
21395,-111.111111111111,4,3,0,60,0,0
23702,-142.857142857143,4,3,0,60,0,0
23991,-142.857142857143,4,3,0,30,0,0
24087,-142.857142857143,4,3,0,60,0,0
25433,-111.111111111111,4,3,0,60,0,0
26010,-142.857142857143,4,3,0,60,0,0
33895,-111.111111111111,4,3,0,60,0,0
35625,-142.857142857143,4,3,0,60,0,0
38318,-200,4,3,0,55,0,0
38702,-200,4,3,0,50,0,0
39087,-200,4,3,0,45,0,0
39664,-133.333333333333,4,3,0,40,0,0
39856,-133.333333333333,4,3,0,35,0,0
41395,-200,4,3,0,60,0,0
42741,-133.333333333333,4,3,0,60,0,0
44471,-166.666666666667,4,3,0,60,0,0
46010,-125,4,3,0,60,0,0
47548,-166.666666666667,4,3,0,60,0,0
50433,-125,4,3,0,60,0,0
52164,-105.263157894737,4,3,0,60,0,0
57356,-80,4,3,0,60,0,0
58318,-66.6666666666667,4,3,0,70,0,1
86010,-83.3333333333333,4,3,0,60,0,0

[Colours]
Combo1 : 0,223,223
Combo2 : 128,0,255
Combo3 : 0,128,0
Combo4 : 254,96,1

[HitObjects]
256,312,4471,5,2,0:0:0:0:
284,152,4664,1,0,0:0:0:0:
404,256,4856,1,0,0:0:0:0:
256,312,5048,1,2,0:0:0:0:
404,256,5241,2,0,P|460:200|472:116,2,160,0|2|2,0:0|0:0|0:0,0:0:0:0:
256,312,6202,5,0,0:0:0:0:
144,312,6395,1,0,0:0:0:0:
144,200,6587,1,2,0:0:0:0:
144,88,6779,2,0,P|176:36|236:20,1,120,0|0,0:0|0:0,0:0:0:0:
224,100,7164,2,0,P|285:107|323:174,1,120,2|0,2:0|0:0,0:0:0:0:
244,180,7548,6,0,P|260:215|257:255,1,80,2|0,0:0|0:0,0:0:0:0:
257,255,7933,1,0,0:0:0:0:
184,320,8125,1,2,0:0:0:0:
320,344,8318,2,0,P|397:330|446:269,2,160,2|2|2,0:0|0:0|3:0,0:0:0:0:
256,56,9279,5,0,3:0:0:0:
448,269,9471,1,0,3:0:0:0:
188,344,9664,2,0,P|88:316|100:176,1,250,2|4,3:0|1:0,3:0:0:0:
124,140,13318,5,4,1:0:0:0:
124,140,13702,2,0,P|168:128|208:140,1,80,4|0,0:0|0:0,0:0:0:0:
308,60,14087,2,0,P|320:104|308:144,1,80,8|0,0:0|0:0,0:0:0:0:
388,244,14471,2,0,P|344:256|304:244,1,80,4|0,0:0|0:0,0:0:0:0:
204,324,14856,2,0,P|192:280|204:240,1,80,8|0,0:0|0:0,0:0:0:0:
256,96,15241,2,0,L|256:196,1,80,4|0,0:0|0:0,0:0:0:0:
256,216,15529,1,0,0:0:0:0:
256,256,15625,5,4,0:0:0:0:
156,324,15818,2,0,L|88:324,2,40,0|0|4,0:0|0:0|0:0,0:0:0:0:
356,324,16202,2,0,L|424:324,2,40,0|0|8,0:0|0:0|0:0,0:0:0:0:
256,256,16587,1,0,0:0:0:0:
232,131,16779,6,0,P|193:126|154:132,1,80,0|0,1:0|0:0,0:0:0:0:
76,322,17164,2,0,P|116:326|156:324,1,80,0|0,0:0|0:0,0:0:0:0:
357,330,17548,2,0,P|361:270|352:224,1,80,0|0,0:0|0:0,0:0:0:0:
155,53,17933,2,0,P|149:93|153:133,1,80,0|0,0:0|0:0,0:0:0:0:
255,362,18318,5,0,0:0:0:0:
156,54,18510,1,0,0:0:0:0:
417,244,18702,1,0,0:0:0:0:
94,244,18895,1,0,0:0:0:0:
356,54,19087,2,0,P|404:52|440:64,1,69.9999978637696,0|0,0:0|0:0,0:0:0:0:
476,68,19375,1,0,0:0:0:0:
484,120,19471,2,0,P|492:166|475:203,2,69.9999978637696,0|0|4,1:0|0:0|0:0,0:0:0:0:
188,300,20048,5,0,0:0:0:0:
324,300,20241,1,0,0:0:0:0:
322,176,20433,2,0,P|255:160|188:176,1,139.999995727539,4|0,0:0|0:0,0:0:0:0:
324,48,21010,1,0,0:0:0:0:
188,48,21202,1,0,0:0:0:0:
400,236,21395,6,0,L|400:124,1,89.9999972534181,4|0,0:0|0:0,0:0:0:0:
112,148,21779,2,0,L|112:238,1,89.9999972534181,4|0,0:0|0:0,0:0:0:0:
339,303,22164,2,0,P|253:327|168:304,2,179.999994506836,4|4|4,0:0|0:0|0:0,0:0:0:0:
92,68,23318,5,4,0:0:0:0:
92,68,23702,2,0,P|144:80|200:72,1,104.999996795654,4|0,0:0|0:0,0:0:0:0:
228,68,24087,2,0,P|279:61|332:80,1,104.999996795654,4|0,0:0|0:0,0:0:0:0:
360,92,24471,5,4,0:0:0:0:
245,217,24664,1,0,0:0:0:0:
411,182,24856,1,4,0:0:0:0:
256,112,25048,1,0,0:0:0:0:
341,260,25241,2,0,P|352:304|368:336,1,69.9999978637696,4|8,0:0|0:0,0:0:0:0:
364,336,25529,1,8,0:0:0:0:
368,344,25625,1,8,0:0:0:0:
372,352,25721,1,8,0:0:0:0:
376,360,25818,1,8,0:0:0:0:
138,222,26010,6,0,P|136:187|156:148,1,69.9999978637696,0|4,1:0|0:0,0:0:0:0:
256,76,26395,1,8,0:0:0:0:
363,154,26587,2,0,P|414:240|362:325,1,209.999993591309,0|8,1:0|0:0,0:0:0:0:
256,220,27356,1,0,0:0:0:0:
164,311,27548,6,0,P|129:319|94:320,1,69.9999978637696,0|8,1:0|0:0,0:0:0:0:
148,188,27933,1,8,0:0:0:0:
256,100,28125,1,0,1:0:0:0:
256,100,28221,1,0,0:0:0:0:
364,188,28414,1,4,0:0:0:0:
256,276,28606,1,4,0:0:0:0:
256,276,28702,1,0,1:0:0:0:
396,324,28895,1,0,0:0:0:0:
396,324,29087,6,0,P|452:352|484:360,1,69.9999978637696,0|8,1:0|0:0,0:0:0:0:
256,328,29471,1,8,0:0:0:0:
152,312,29664,2,0,P|100:227|152:142,1,209.999993591309,0|8,1:0|0:0,0:0:0:0:
360,312,30433,1,0,0:0:0:0:
360,85,30625,5,0,1:0:0:0:
226,268,30818,1,8,0:0:0:0:
442,198,31010,1,8,0:0:0:0:
226,128,31202,1,4,0:0:0:0:
226,128,31298,1,0,0:0:0:0:
388,280,31491,1,4,0:0:0:0:
140,328,31683,1,4,0:0:0:0:
140,328,31779,1,0,1:0:0:0:
360,84,31971,1,0,0:0:0:0:
360,84,32164,6,0,P|380:144|352:196,1,104.999996795654,0|0,1:0|0:0,0:0:0:0:
352,228,32548,2,0,P|388:248|440:240,2,69.9999978637696,0|0|0,1:0|0:0|1:0,0:0:0:0:
52,156,33125,1,0,0:0:0:0:
148,76,33318,1,0,1:0:0:0:
192,196,33510,2,0,L|192:244,2,34.9999989318848,0|0|0,0:0|0:0|1:0,0:0:0:0:
276,144,33895,2,0,P|344:100|424:152,1,179.999994506836,0|0,1:0|0:0,0:0:0:0:
348,184,34471,6,0,L|348:296,2,89.9999972534181,0|0|0,1:0|0:0|1:0,0:0:0:0:
256,224,35048,1,0,0:0:0:0:
256,224,35145,1,0,0:0:0:0:
256,224,35241,2,0,P|184:236|112:204,1,134.999995880127,0|0,1:0|0:0,0:0:0:0:
88,196,35625,6,0,L|88:108,2,69.9999978637696,0|0|0,1:0|0:0|1:0,0:0:0:0:
220,144,36202,1,0,0:0:0:0:
188,280,36395,1,0,1:0:0:0:
320,324,36587,1,0,0:0:0:0:
336,184,36779,6,0,L|336:68,1,104.999996795654,0|0,1:0|0:0,0:0:0:0:
256,160,37164,2,0,L|164:160,1,69.9999978637696,0|0,1:0|0:0,0:0:0:0:
104,68,37548,1,0,1:0:0:0:
195,285,37741,1,4,0:0:0:0:
256,160,37933,1,0,1:0:0:0:
40,192,38125,1,4,0:0:0:0:
384,288,38318,6,0,L|440:288,1,50,4|4,2:0|0:0,0:0:0:0:
356,224,38702,2,0,L|296:224,1,50,4|4,2:0|0:0,0:0:0:0:
384,160,39087,2,0,L|456:160,2,50,4|4|4,2:0|0:0|2:0,0:0:0:0:
164,288,39664,1,0,0:0:0:0:
164,288,39856,2,0,P|132:216|176:160,1,150.000005722046,4|0,2:0|0:0,0:0:0:0:
256,88,40433,1,0,0:0:0:0:
364,192,40625,2,0,L|444:180,2,75.0000028610231,4|4|2,2:0|0:0|0:0,0:0:0:0:
256,88,41202,1,0,0:0:0:0:
136,120,41395,6,0,P|100:184|136:256,1,150,4|2,1:0|0:0,0:0:0:0:
128,340,42164,2,0,P|188:316|212:280,1,100,4|2,1:0|0:0,0:0:0:0:
284,184,42741,2,0,L|284:280,1,75.0000028610231,0|4,0:0|1:0,0:0:0:0:
388,328,43125,1,2,0:0:0:0:
456,192,43318,6,0,P|421:156|404:128,1,75.0000028610231,0|4,0:0|1:0,0:0:0:0:
332,152,43702,2,0,P|282:154|236:140,1,75.0000028610231,0|2,0:0|0:0,0:0:0:0:
228,220,44087,2,0,P|184:243|136:248,1,75.0000028610231,0|2,1:0|0:0,0:0:0:0:
64,260,44471,6,0,L|64:180,2,59.9999981689454,4|0|2,1:0|0:0|0:0,0:0:0:0:
172,300,45048,2,0,P|253:332|336:300,1,179.999994506836,0|0,1:0|0:0,0:0:0:0:
256,192,45818,1,2,0:0:0:0:
330,80,46010,2,0,P|255:56|180:81,1,160,0|0,1:0|1:0,0:0:0:0:
176,236,46587,5,2,0:0:0:0:
292,128,46779,1,0,1:0:0:0:
268,284,46971,1,2,0:0:0:0:
196,140,47164,1,0,1:0:0:0:
336,220,47356,1,2,0:0:0:0:
396,324,47548,6,0,P|456:240|440:168,1,179.999994506836,0|2,1:0|0:0,0:0:0:0:
116,60,48318,2,0,P|56:144|72:216,1,179.999994506836,0|4,1:0|0:0,0:0:0:0:
152,304,49087,2,0,L|152:376,2,59.9999981689454,0|0|0,1:0|0:0|0:0,0:0:0:0:
232,212,49664,1,0,1:0:0:0:
320,292,49856,2,0,P|350:228|343:169,1,119.999996337891,0|0,0:0|1:0,0:0:0:0:
208,132,50433,6,0,P|208:64|216:44,1,80,0|4,0:0|1:0,0:0:0:0:
316,144,50818,2,0,P|384:144|404:152,1,80,0|0,0:0|1:0,0:0:0:0:
304,252,51202,2,0,P|304:320|296:340,1,80,0|0,0:0|1:0,0:0:0:0:
196,240,51587,2,0,P|128:240|108:232,1,80,0|0,0:0|1:0,0:0:0:0:
256,156,51971,1,0,0:0:0:0:
256,56,52164,6,0,L|351:56,1,94.9999974632264,4|0,1:0|0:0,0:0:0:0:
256,328,52548,2,0,L|161:328,2,94.9999974632264,0|0|0,0:0|0:0|1:0,0:0:0:0:
256,226,53125,2,0,L|256:124,1,94.9999974632264,0|0,0:0|1:0,0:0:0:0:
351,56,53510,1,0,0:0:0:0:
351,56,53702,6,0,L|449:56,2,94.9999974632264,4|0|0,1:0|0:0|0:0,0:0:0:0:
161,328,54279,2,0,L|51:328,1,94.9999974632264,0|0,0:0|1:0,0:0:0:0:
276,36,54664,2,0,P|336:40|376:52,1,94.9999974632264,0|0,0:0|1:0,0:0:0:0:
408,152,55048,1,0,0:0:0:0:
408,152,55145,1,0,0:0:0:0:
408,152,55241,1,0,1:0:0:0:
260,176,55433,6,0,P|200:172|152:156,1,94.9999974632264,0|0,0:0|1:0,0:0:0:0:
124,280,55818,1,0,0:0:0:0:
124,280,55914,1,0,0:0:0:0:
124,280,56010,2,0,L|224:308,1,94.9999974632264,0|0,1:0|0:0,0:0:0:0:
444,316,56395,1,0,1:0:0:0:
388,104,56587,5,0,0:0:0:0:
388,104,56683,1,0,0:0:0:0:
388,104,56779,2,0,L|288:76,1,94.9999974632264,4|0,1:0|0:0,0:0:0:0:
68,68,57164,1,4,1:0:0:0:
68,220,57356,5,0,0:0:0:0:
68,220,57452,1,0,0:0:0:0:
68,220,57548,2,0,L|140:196,1,62.5
196,80,57741,2,0,L|216:140,1,62.5
240,304,57933,2,0,L|260:244,1,62.5
340,192,58125,2,0,L|404:168,1,62.5
468,140,58318,6,0,P|440:68|368:44,1,150.000005722046,4|0,1:0|0:0,0:0:0:0:
256,192,58702,1,8,1:0:0:0:
44,244,58895,2,0,P|72:316|144:340,1,150.000005722046,4|0,1:0|1:0,0:0:0:0:
316,336,59279,2,0,P|416:312|456:272,2,150.000005722046,0|8|0,0:0|1:0|0:0,0:0:0:0:
64,224,59856,1,0,1:0:0:0:
216,88,60048,1,0,0:0:0:0:
256,280,60241,1,8,1:0:0:0:
356,60,60433,2,0,P|428:172|360:320,1,300.000011444092
256,332,61010,5,8,1:0:0:0:
276,168,61202,1,0,0:0:0:0:
119,260,61395,2,0,B|119:138|119:138|126:111,1,150.000005722046,2|2,0:0|0:0,0:0:0:0:
40,36,61683,2,0,B|163:35|163:35|207:47,1,150.000005722046,2|2,0:0|0:0,0:0:0:0:
275,117,61971,2,0,B|151:117|151:117|126:111,1,150.000005722046,2|0,0:0|1:0,0:0:0:0:
256,232,62356,2,0,P|234:303|243:377,1,150.000005722046,2|8,0:0|1:0,0:0:0:0:
304,176,62741,2,0,P|429:121|470:60,1,150.000005722046,2|0,0:0|1:0,0:0:0:0:
232,160,63125,2,0,P|177:109|146:41,1,150.000005722046,2|8,0:0|1:0,0:0:0:0:
68,236,63510,5,2,0:0:0:0:
68,236,63606,1,2,0:0:0:0:
68,236,63702,2,0,P|96:324|156:336,1,150.000005722046,0|2,1:0|0:0,0:0:0:0:
188,336,63991,1,2,0:0:0:0:
232,336,64087,1,0,1:0:0:0:
276,336,64183,1,2,0:0:0:0:
320,336,64279,2,0,P|385:305|396:234,1,150.000005722046,2|0,0:0|1:0,0:0:0:0:
312,92,64664,5,2,2:0:0:0:
312,92,64760,1,8,2:0:0:0:
212,224,64952,2,0,P|176:204|140:168,1,75.0000028610231,2|8,2:0|2:0,0:0:0:0:
404,312,65241,1,0,1:0:0:0:
231,15,65433,1,0,0:0:0:0:
172,349,65625,1,0,1:0:0:0:
416,113,65818,1,0,0:0:0:0:
80,160,66010,5,8,1:0:0:0:
380,320,66202,1,2,2:0:0:0:
380,320,66298,1,8,2:0:0:0:
56,244,66491,1,2,2:0:0:0:
56,244,66587,1,8,2:0:0:0:
244,84,66779,2,0,P|316:63|391:68,2,150.000005722046,0|0|4,0:0|0:0|2:0,0:0:0:0:
176,332,67356,1,0,0:0:0:0:
464,256,67548,6,0,P|468:180|436:88,1,150.000005722046,8|2,1:0|2:0,0:0:0:0:
388,188,67837,2,0,P|384:264|416:356,1,150.000005722046,10|2,2:0|2:0,0:0:0:0:
404,334,68125,1,8,2:0:0:0:
124,196,68318,2,0,P|128:120|96:28,2,150.000005722046,0|2|8,1:0|2:0|1:0,0:0:0:0:
256,340,68895,1,2,2:0:0:0:
432,100,69087,5,8,1:0:0:0:
124,60,69279,1,2,2:0:0:0:
124,60,69375,1,0,0:0:0:0:
124,60,69471,2,0,P|95:127|124:194,1,150.000005722046,8|2,1:0|2:0,0:0:0:0:
360,320,69856,1,8,1:0:0:0:
360,268,69952,1,0,0:0:0:0:
360,216,70048,1,2,2:0:0:0:
360,164,70145,1,0,0:0:0:0:
360,112,70241,2,0,P|296:80|232:120,1,150.000005722046,8|0,1:0|1:0,0:0:0:0:
108,268,70625,5,4,2:0:0:0:
108,268,70721,2,0,P|89:196|113:126,1,150.000005722046,2|2,2:0|2:0,0:0:0:0:
113,126,71010,1,4,1:0:0:0:
276,232,71202,1,0,2:0:0:0:
276,232,71298,2,0,P|345:255|417:237,1,150.000005722046,2|0,2:0|2:0,0:0:0:0:
417,236,71587,1,2,2:0:0:0:
340,56,71779,1,4,1:0:0:0:
256,344,71971,1,0,0:0:0:0:
116,252,72164,6,0,B|100:148|104:128|140:88,1,150.000005722046,2|2,2:0|2:0,0:0:0:0:
124,106,72452,1,2,2:0:0:0:
292,148,72645,1,2,2:0:0:0:
292,148,72741,2,0,B|396:132|416:136|456:172,1,150.000005722046,2|0,2:0|1:0,0:0:0:0:
340,300,73125,1,0,2:0:0:0:
176,324,73318,2,0,P|120:244|144:184,2,150.000005722046,0|0|0,1:0|0:0|1:0,0:0:0:0:
256,188,73895,2,0,L|256:32,1,150.000005722046,0|0,0:0|1:0,0:0:0:0:
256,188,74279,2,0,L|256:344,1,150.000005722046,0|0,0:0|1:0,0:0:0:0:
424,344,74664,5,0,0:0:0:0:
168,176,74856,1,0,1:0:0:0:
388,260,75048,1,0,0:0:0:0:
132,92,75241,2,0,P|240:80|304:96,1,150.000005722046,0|0,1:0|0:0,0:0:0:0:
332,100,75529,1,0,0:0:0:0:
384,112,75625,2,0,P|397:185|388:259,1,150.000005722046,4|0,1:0|0:0,0:0:0:0:
304,324,76010,2,0,P|196:336|132:320,1,150.000005722046,0|0,1:0|0:0,0:0:0:0:
108,312,76298,1,0,0:0:0:0:
68,276,76395,2,0,P|56:168|72:104,2,150.000005722046,4|0|4,1:0|0:0|2:0,0:0:0:0:
256,52,76971,5,4,2:0:0:0:
160,352,77164,1,0,2:0:0:0:
159,352,77260,1,0,2:0:0:0:
159,352,77356,1,2,2:0:0:0:
414,166,77548,1,0,1:0:0:0:
99,166,77741,1,0,0:0:0:0:
354,352,77933,1,0,1:0:0:0:
256,202,78125,1,0,0:0:0:0:
256,202,78221,1,0,0:0:0:0:
256,202,78318,6,0,P|192:154|112:146,2,150.000005722046,0|0|0,1:0|0:0|1:0,0:0:0:0:
256,52,78895,1,0,0:0:0:0:
404,52,79087,2,0,P|416:160|404:208,1,150.000005722046,0|0,1:0|0:0,0:0:0:0:
108,332,79471,2,0,P|96:224|108:176,1,150.000005722046,0|0,1:0|0:0,0:0:0:0:
256,52,79856,6,0,L|256:202,1,150.000005722046,4|2,1:0|0:0,0:0:0:0:
256,256,80145,1,2,0:0:0:0:
256,308,80241,1,0,1:0:0:0:
64,336,80433,1,2,0:0:0:0:
124,336,80529,1,2,0:0:0:0:
184,336,80625,1,0,1:0:0:0:
448,336,80818,1,2,0:0:0:0:
388,336,80914,1,2,0:0:0:0:
328,336,81010,1,0,1:0:0:0:
256,200,81202,1,0,0:0:0:0:
136,236,81395,6,0,P|160:136|200:104,1,150.000005722046,2|0,0:0|0:0,0:0:0:0:
193,107,81683,2,0,P|288:100|336:120,1,150.000005722046,2|4,0:0|0:0,0:0:0:0:
336,120,81971,1,2,0:0:0:0:
376,168,82068,1,4,0:0:0:0:
332,208,82164,1,8,0:0:0:0:
376,248,82260,2,0,L|404:320,1,75.0000028610231,2|4,0:0|0:0,0:0:0:0:
200,312,82452,2,0,L|128:340,1,75.0000028610231,8|2,0:0|0:0,0:0:0:0:
136,136,82645,2,0,L|108:64,2,75.0000028610231,4|8|4,0:0|0:0|0:0,0:0:0:0:
372,92,82933,6,0,P|388:268|160:308,1,450.000017166138,6|0,2:0|0:0,0:0:0:0:
256,192,83702,1,2,0:0:0:0:
256,192,83798,12,4,86010,1:0:0:0:
