osu file format v14

[General]
AudioFilename: Believe.mp3
AudioLeadIn: 0
PreviewTime: 75092
Countdown: 0
SampleSet: Soft
StackLeniency: 0.7
Mode: 2
LetterboxInBreaks: 0
WidescreenStoryboard: 0

[Editor]
Bookmarks: 278938
DistanceSpacing: 0.9
BeatDivisor: 4
GridSize: 16
TimelineZoom: 2

[Metadata]
Title:believe
TitleUnicode:believe
Artist:Kalafina
ArtistUnicode:Kalafina
Creator:CLSW
Version:Platter
Source:Fate/stay night [Unlimited Blade Works]
Tags:フェイト/ステイナイト Fsn F/sn UBW ufotable ending TYPE MOON 梶浦由記 Yuki Kajiura Progressive Rock Gothic Metal
BeatmapID:705528
BeatmapSetID:316647

[Difficulty]
HPDrainRate:5
CircleSize:3.5
OverallDifficulty:7.5
ApproachRate:7.5
SliderMultiplier:1.93
SliderTickRate:2

[Events]
//Background and Video events
0,0,"bg3.jpg",0,0
//Break Periods
2,27816,29483
2,161662,169483
//Storyboard Layer 0 (Background)
//Storyboard Layer 1 (Fail)
//Storyboard Layer 2 (Pass)
//Storyboard Layer 3 (Foreground)
//Storyboard Sound Samples

[TimingPoints]
3001,384.615384615385,4,2,0,30,1,0
3001,-200,4,2,0,30,0,0
15308,-133.333333333333,4,2,1,30,0,0
15404,-133.333333333333,4,2,2,30,0,0
15428,-133.333333333333,4,2,2,30,0,0
21462,-200,4,2,1,30,0,0
26077,-200,4,2,0,40,0,0
26101,-200,4,2,0,40,0,0
30308,-200,4,2,1,40,0,0
30693,-120.481927710843,4,2,1,40,0,0
30789,-120.481927710843,4,2,3,30,0,0
43001,-120.481927710843,4,2,1,40,0,0
43097,-120.481927710843,4,2,3,30,0,0
54347,-120.481927710843,4,2,1,40,0,0
75308,-100,4,2,1,50,0,1
103001,-120.481927710843,4,2,1,40,0,0
103097,-120.481927710843,4,2,3,30,0,0
115308,-120.481927710843,4,2,1,30,0,0
115404,-120.481927710843,4,2,3,30,0,0
127616,-120.481927710843,4,2,1,40,0,0
127712,-120.481927710843,4,2,3,40,0,0
139924,-120.481927710843,4,2,1,40,0,0
140020,-120.481927710843,4,2,3,40,0,0
152231,-120.481927710843,4,2,1,40,0,0
152327,-120.481927710843,4,2,3,40,0,0
161462,-120.481927710843,4,2,1,40,0,0
171077,-120.481927710843,4,2,3,30,0,0
183001,-120.481927710843,4,2,1,40,0,0
183097,-120.481927710843,4,2,3,30,0,0
194154,-120.481927710843,4,2,1,30,0,0
195308,-120.481927710843,4,2,1,40,0,0
215308,-100,4,2,1,50,0,1
242808,-100,4,2,1,50,0,0
243001,-100,4,2,1,50,0,1
264539,-100,4,2,1,50,0,0
264635,-100,4,2,1,30,0,0

[Colours]
Combo1 : 74,4,15
Combo2 : 234,0,0
Combo3 : 176,0,0

[HitObjects]
128,256,3001,6,0,P|112:224|96:112,2,144.75,0|0|0,0:0|0:0|0:0,0:0:0:0:
384,256,4539,2,0,P|400:224|416:112,2,144.75,0|0|0,0:0|0:0|0:0,0:0:0:0:
176,288,6077,6,0,P|124:283|80:208,2,144.75
336,288,7616,2,0,P|387:283|432:208,2,144.75
184,96,9154,6,0,L|328:96,1,144.75,0|0,0:0|0:0,0:0:0:0:
456,208,10308,1,0,0:0:0:0:
184,304,10693,2,0,L|328:304,1,144.75
56,272,11847,1,0,0:0:0:0:
184,176,12231,6,0,L|328:176,2,144.75
464,200,13770,1,0,0:0:0:0:
256,200,14347,1,0,0:0:0:0:
48,200,14924,1,0,0:0:0:0:
320,208,15308,6,0,P|368:208|432:128,1,144.750005521775,2|0,0:3|0:0,0:0:0:0:
336,112,15885,2,0,L|192:112,1,144.750005521775,0|0,0:0|0:0,0:0:0:0:
320,144,16462,2,0,L|336:224,1,72.3750027608873,0|0,0:0|0:0,0:0:0:0:
208,208,16847,6,0,P|176:224|112:320,1,144.750005521775,0|0,0:0|0:0,0:0:0:0:
240,320,17424,2,0,L|384:320,1,144.750005521775,0|0,0:0|0:0,0:0:0:0:
224,288,18001,2,0,L|144:288,1,72.3750027608873,0|0,0:0|0:0,0:0:0:0:
304,288,18385,6,0,P|352:288|400:208,1,144.750005521775
240,192,18962,2,0,P|268:128|336:117,1,144.750005521775,0|0,0:0|0:0,0:0:0:0:
208,112,19539,2,0,L|192:192,1,72.3750027608873,0|0,0:0|0:0,0:0:0:0:
320,192,19924,6,0,P|368:224|304:272,1,144.750005521775,0|0,0:0|0:0,0:0:0:0:
192,240,20501,2,0,P|144:272|208:320,1,144.750005521775,0|0,0:0|0:0,0:0:0:0:
352,320,21077,2,0,L|256:320,1,72.3750027608873,0|0,0:0|0:0,0:0:0:0:
128,336,21462,6,0,P|128:304|224:240,2,144.75,2|2|0,0:0|0:0|0:0,0:0:0:0:
384,336,23001,2,0,P|384:304|288:240,2,144.75,2|2|0,0:0|0:0|0:0,0:0:0:0:
192,176,24539,6,0,L|336:176,2,144.75,2|2|0,0:0|0:0|0:0,0:0:0:0:
368,144,26077,2,0,L|320:240,1,96.5,4|0,0:0|0:0,0:0:0:0:
144,144,26654,2,0,L|192:240,1,96.5,4|0,0:0|0:0,0:0:0:0:
368,224,27231,1,4,0:0:0:0:
144,224,27616,5,4,0:3:0:0:
400,192,30308,5,12,0:0:0:0:
112,192,30693,6,0,L|288:192,1,160.19000232209,2|0,0:3|0:0,0:0:0:0:
144,224,31270,2,0,P|96:256|160:320,2,160.19000232209,4|4|0,0:0|0:0|0:0,0:0:0:0:
304,176,32231,6,0,L|144:176,2,160.19000232209,4|4|4,0:0|0:0|0:0,0:0:0:0:
80,144,33385,1,0,0:0:0:0:
304,128,33770,6,0,L|464:128,1,160.19000232209,4|4,0:0|0:0,0:0:0:0:
240,128,34539,2,0,L|80:128,1,160.19000232209,4|4,0:0|0:0,0:0:0:0:
240,176,35116,6,0,P|288:208|224:272,1,160.19000232209,4|4,0:0|0:0,0:0:0:0:
80,272,35693,2,0,L|64:352,1,80.0950011610451,4|0,0:0|0:0,0:0:0:0:
192,336,36077,2,0,P|224:288|128:272,1,160.19000232209,4|4,0:0|0:3,0:0:0:0:
384,256,36847,6,0,L|224:256,1,160.19000232209,4|4,0:0|0:0,0:0:0:0:
352,208,37424,2,0,L|192:208,2,160.19000232209,0|0|0,0:0|0:0|0:0,0:0:0:0:
191,208,38385,6,0,P|128:192|80:112,1,160.19000232209,4|4,0:0|0:0,0:0:0:0:
320,208,39154,2,0,P|384:192|432:112,1,160.19000232209,4|4,0:0|0:0,0:0:0:0:
144,112,39924,5,4,0:0:0:0:
368,112,40308,2,0,L|208:112,2,160.19000232209,4|4|4,0:0|0:0|0:0,0:0:0:0:
112,160,41462,6,0,L|208:160,1,80.0950011610451,4|0,0:0|0:0,0:0:0:0:
352,160,41847,2,0,P|400:176|448:288,2,160.19000232209,4|4|4,0:0|0:0|0:3,0:0:0:0:
128,224,43001,6,0,L|304:224,1,160.19000232209,2|4,0:3|0:0,0:0:0:0:
128,256,43577,2,0,P|64:240|32:144,1,160.19000232209,0|0,0:0|0:0,0:0:0:0:
160,144,44154,2,0,L|80:144,2,80.0950011610451,4|0|4,0:0|0:0|0:0,0:0:0:0:
320,128,44731,6,0,L|144:128,1,160.19000232209
320,176,45308,2,0,P|368:192|416:304,1,160.19000232209,4|4,0:0|0:0,0:0:0:0:
144,128,46077,6,0,P|96:144|80:256,1,160.19000232209,4|4,0:0|0:0,0:0:0:0:
160,288,46654,2,0,P|96:288|32:208,1,160.19000232209,0|0,0:0|0:0,0:0:0:0:
160,192,47231,2,0,L|80:192,2,80.0950011610451,4|0|4,0:0|0:0|0:0,0:0:0:0:
320,144,47808,6,0,L|160:144,1,160.19000232209
256,176,48385,1,4,0:0:0:0:
32,176,48770,1,4,0:3:0:0:
304,176,49154,6,0,L|480:176,1,160.19000232209,4|4,0:0|0:0,0:0:0:0:
304,208,49731,2,0,L|144:208,1,160.19000232209,0|0,0:0|0:0,0:0:0:0:
272,240,50308,2,0,L|368:240,2,80.0950011610451,4|4|0,0:0|0:0|0:0,0:0:0:0:
432,272,50885,2,0,L|256:272,1,160.19000232209
144,272,51462,2,0,P|96:256|64:160,2,160.19000232209,4|4|4,0:0|0:0|0:0,0:0:0:0:
400,224,52616,6,0,L|240:224,2,160.19000232209,4|4|4,0:0|0:0|0:0,0:0:0:0:
144,224,53770,6,0,P|80:208|32:112,1,160.19000232209,4|4,0:0|0:0,0:0:0:0:
160,128,54347,2,0,L|320:128,1,160.19000232209,8|0,0:0|0:0,0:0:0:0:
480,128,54924,2,0,L|464:208,1,80.0950011610451,8|0,0:0|0:0,0:0:0:0:
272,208,55308,6,0,P|224:224|304:352,1,240.285003483135,6|4,0:3|0:0,0:0:0:0:
432,352,56077,2,0,L|176:352,1,240.285003483135,8|4,0:0|0:0,0:0:0:0:
320,352,56847,6,0,L|336:272,1,80.0950011610451,4|0,0:0|0:0,0:0:0:0:
176,272,57231,1,8,0:0:0:0:
416,224,57616,2,0,L|256:224,1,160.19000232209,4|8,0:0|0:0,0:0:0:0:
496,160,58385,6,0,L|240:160,1,240.285003483135,4|4,0:0|0:0,0:0:0:0:
96,160,59154,2,0,L|336:160,1,240.285003483135,8|4,0:0|0:0,0:0:0:0:
208,160,59924,6,0,L|192:240,1,80.0950011610451,0|0,0:0|0:0,0:0:0:0:
320,240,60308,2,0,P|384:256|336:320,2,160.19000232209,8|4|8,0:0|0:0|0:0,0:0:0:0:
64,240,61462,6,0,L|240:240,1,160.19000232209,4|8,0:1|0:0,0:0:0:0:
352,240,62039,2,0,L|176:240,1,160.19000232209,4|0,0:0|0:0,0:0:0:0:
352,240,62616,2,0,L|368:160,1,80.0950011610451,8|0,0:0|0:0,0:0:0:0:
208,176,63001,6,0,L|192:256,1,80.0950011610451,4|0,0:0|0:0,0:0:0:0:
320,256,63385,2,0,L|336:176,1,80.0950011610451,8|0,0:0|0:0,0:0:0:0:
240,176,63770,2,0,L|224:256,1,80.0950011610451,0|0,0:0|0:0,0:0:0:0:
352,256,64154,2,0,L|368:176,1,80.0950011610451,4|0,0:0|0:0,0:0:0:0:
208,176,64539,6,0,P|144:192|64:336,1,240.285003483135,4|4,0:1|0:0,0:0:0:0:
224,176,65308,2,0,P|288:192|368:336,1,240.285003483135,8|4,0:0|0:0,0:0:0:0:
240,336,66077,6,0,L|160:336,1,80.0950011610451,4|0,0:0|0:0,0:0:0:0:
320,336,66462,2,0,P|384:320|416:224,2,160.19000232209,8|4|8,0:0|0:0|0:0,0:0:0:0:
79,336,67616,6,0,L|336:336,1,240.285003483135,4|4,0:1|0:0,0:0:0:0:
160,272,68385,2,0,L|400:272,1,240.285003483135,8|4,0:0|0:0,0:0:0:0:
272,224,69154,5,4,0:0:0:0:
480,160,69539,1,0,0:0:0:0:
256,160,69924,1,8,0:0:0:0:
464,112,70308,2,0,L|384:112,1,80.0950011610451,4|0,0:0|0:0,0:0:0:0:
256,112,70693,6,0,P|208:128|256:208,1,160.19000232209,4|0,0:1|0:0,0:0:0:0:
320,208,71270,1,4,0:0:0:0:
480,208,71462,1,8,0:0:0:0:
256,320,71847,2,0,L|336:320,1,80.0950011610451,4|0,0:0|0:0,0:0:0:0:
464,320,72231,6,0,P|480:272|384:224,1,160.19000232209,4|0,0:0|0:0,0:0:0:0:
320,208,72808,1,4,0:0:0:0:
160,208,73001,2,0,P|112:192|160:128,1,160.19000232209,8|0,0:0|0:0,0:0:0:0:
320,128,73577,1,0,0:0:0:0:
224,80,73770,6,0,P|160:96|144:160,1,120.142501741568,8|0,0:0|0:0,0:0:0:0:
176,176,74154,2,0,L|272:176,1,80.0950011610451,8|4,0:0|0:0,0:0:0:0:
96,176,74539,5,12,0:0:0:0:
57,185,74635,1,0,0:0:0:0:
30,214,74731,1,8,0:0:0:0:
24,253,74827,1,8,0:0:0:0:
41,289,74923,1,8,0:0:0:0:
74,309,75019,1,8,0:0:0:0:
113,308,75115,1,8,0:0:0:0:
368,304,75308,6,0,P|416:288|337:229,1,193,6|8,0:3|0:0,0:0:0:0:
224,224,75885,2,0,L|32:224,1,193,4|0,0:0|0:0,0:0:0:0:
192,176,76462,2,0,L|304:176,1,96.5,8|0,0:0|0:0,0:0:0:0:
480,176,76847,6,0,P|464:224|336:272,1,193,4|8,0:0|0:0,0:0:0:0:
176,272,77424,2,0,L|384:272,1,193,4|4,0:0|0:0,0:0:0:0:
208,272,78001,2,0,L|192:176,1,96.5,8|0,0:0|0:0,0:0:0:0:
384,176,78385,6,0,P|448:208|480:320,1,193,4|8,0:0|0:0,0:0:0:0:
320,320,78962,2,0,P|256:320|176:224,1,193,0|4,0:0|0:0,0:0:0:0:
368,224,79539,2,0,L|384:320,1,96.5,8|0,0:0|0:0,0:0:0:0:
224,320,79924,6,0,L|208:224,1,96.5,4|0,0:0|0:0,0:0:0:0:
368,176,80308,2,0,L|208:288,2,193,8|0|8,0:0|0:0|0:0,0:0:0:0:
112,176,81462,6,0,L|320:176,1,193,4|8,0:0|0:0,0:0:0:0:
176,192,82039,2,0,P|112:224|192:288,1,193,4|4,0:0|0:0,0:0:0:0:
336,304,82616,2,0,L|224:304,1,96.5,8|0,0:0|0:0,0:0:0:0:
48,304,83001,6,0,P|48:240|176:176,1,193,4|8,0:0|0:0,0:0:0:0:
304,240,83577,2,0,P|304:176|176:112,1,193,4|4,0:0|0:0,0:0:0:0:
80,80,84154,2,0,L|176:80,1,96.5,8|0,0:0|0:0,0:0:0:0:
336,80,84539,6,0,L|224:80,2,96.5,4|0|8,0:0|0:0|0:0,0:0:0:0:
208,96,85116,2,0,P|144:112|112:224,1,193,4|4,0:0|0:0,0:0:0:0:
240,240,85693,2,0,L|336:240,1,96.5,8|0,0:0|0:0,0:0:0:0:
176,240,86077,6,0,L|160:336,1,96.5,4|0,0:0|0:0,0:0:0:0:
320,336,86462,2,0,L|336:240,1,96.5,8|0,0:0|0:0,0:0:0:0:
144,128,86847,2,0,P|96:176|80:304,2,193,12|8|6,0:0|0:0|0:3,0:0:0:0:
368,128,88001,5,8,0:0:0:0:
272,160,88193,2,0,L|464:160,1,193,4|0,0:0|0:0,0:0:0:0:
304,192,88770,2,0,L|288:288,1,96.5,8|0,0:0|0:0,0:0:0:0:
480,288,89154,6,0,P|464:240|336:160,1,193,4|8,0:0|0:0,0:0:0:0:
192,208,89731,2,0,P|208:160|336:80,1,193,4|4,0:0|0:0,0:0:0:0:
480,48,90308,2,0,L|368:48,1,96.5,8|0,0:0|0:0,0:0:0:0:
192,48,90693,6,0,L|288:48,2,96.5,4|0|8,0:0|0:0|0:0,0:0:0:0:
32,48,91270,2,0,P|32:112|160:176,1,193,0|4,0:0|0:0,0:0:0:0:
385,176,91847,2,0,L|289:176,1,96.5,8|0,0:0|0:0,0:0:0:0:
96,176,92231,6,0,L|288:176,2,193,4|8|4,0:0|0:0|0:0,0:0:0:0:
176,128,93193,1,0,0:0:0:0:
368,96,93385,2,0,L|256:96,1,96.5,8|0,0:0|0:0,0:0:0:0:
80,96,93770,5,4,0:0:0:0:
336,144,94154,1,8,0:0:0:0:
208,144,94347,2,0,P|144:176|112:288,1,193,4|4,0:0|0:0,0:0:0:0:
272,288,94924,2,0,L|384:288,1,96.5,8|0,0:0|0:0,0:0:0:0:
176,288,95308,6,0,P|128:272|176:176,1,193,4|8,0:0|0:0,0:0:0:0:
336,144,95885,2,0,L|144:144,1,193,4|4,0:0|0:0,0:0:0:0:
272,160,96462,2,0,L|288:256,1,96.5,8|0,0:0|0:0,0:0:0:0:
128,256,96847,6,0,L|336:256,1,193,4|8,0:0|0:0,0:0:0:0:
224,208,97424,1,4,0:0:0:0:
128,176,97616,2,0,L|336:176,1,193,0|8,0:0|0:0,0:0:0:0:
224,128,98193,1,4,0:0:0:0:
416,176,98385,6,0,L|208:176,1,193,0|8,0:0|0:0,0:0:0:0:
320,128,98962,1,4,0:0:0:0:
416,96,99154,2,0,L|208:96,1,193,0|8,0:0|0:0,0:0:0:0:
320,48,99731,1,4,0:0:0:0:
64,64,99924,6,0,P|32:128|96:240,1,193,0|8,0:0|0:0,0:0:0:0:
176,224,100501,1,4,0:0:0:0:
448,80,100693,2,0,P|480:144|416:256,1,193,0|8,0:0|0:0,0:0:0:0:
336,240,101270,1,0,0:0:0:0:
144,256,101462,6,0,L|272:256,1,96.5,4|8,0:0|0:0,0:0:0:0:
432,256,101847,2,0,L|320:256,1,96.5,8|4,0:0|0:0,0:0:0:0:
144,224,102231,1,8,0:0:0:0:
102,201,102327,1,8,0:0:0:0:
89,156,102423,1,0,0:0:0:0:
114,116,102519,1,0,0:0:0:0:
160,106,102615,1,8,0:0:0:0:
256,96,102808,1,8,0:0:0:0:
64,96,103001,6,0,P|32:144|112:192,1,160.19000232209,2|4,0:3|0:3,0:0:0:0:
352,160,103770,2,0,P|384:208|304:256,1,160.19000232209,4|4,0:0|0:0,0:0:0:0:
64,256,104539,6,0,L|240:256,1,160.19000232209,4|4,0:0|0:3,0:0:0:0:
96,256,105116,2,0,P|48:240|80:144,1,160.19000232209,0|0,0:0|0:0,0:0:0:0:
192,144,105693,2,0,L|96:144,1,80.0950011610451,4|0,0:0|0:0,0:0:0:0:
272,144,106077,6,0,P|336:160|384:256,1,160.19000232209,4|4,0:0|0:3,0:0:0:0:
304,240,106654,1,0,0:0:0:0:
176,176,106847,2,0,P|112:192|156:328,1,240.285003483135,4|0,0:0|0:0,0:0:0:0:
304,320,107616,6,0,L|464:320,3,160.19000232209,4|4|4|4,0:0|0:3|0:0|0:0,0:0:0:0:
240,320,109154,6,0,P|160:295|128:224,1,160.19000232209,4|4,0:0|0:3,0:0:0:0:
208,160,109731,1,0,0:0:0:0:
368,144,109924,2,0,P|331:212|256:233,1,160.19000232209,4|4,0:0|0:0,0:0:0:0:
176,224,110501,1,0,0:0:0:0:
48,224,110693,6,0,L|64:304,1,80.0950011610451,4|0,0:0|0:0,0:0:0:0:
192,288,111077,2,0,L|352:288,2,160.19000232209,4|4|4,0:3|0:0|0:0,0:0:0:0:
416,288,112231,6,0,P|400:224|288:176,1,160.19000232209,4|4,0:0|0:3,0:0:0:0:
240,176,112808,1,0,0:0:0:0:
112,272,113001,2,0,P|128:208|240:160,1,160.19000232209,4|4,0:0|0:0,0:0:0:0:
288,160,113578,1,0,0:0:0:0:
448,176,113770,6,0,L|352:176,1,80.0950011610451,4|0,0:0|0:0,0:0:0:0:
240,176,114154,2,0,L|224:256,1,80.0950011610451,4|0,0:3|0:0,0:0:0:0:
352,256,114539,2,0,L|432:256,1,80.0950011610451,4|0,0:0|0:0,0:0:0:0:
272,256,114924,2,0,L|176:256,1,80.0950011610451,4|0,0:0|0:0,0:0:0:0:
352,256,115308,6,0,P|416:240|448:144,1,160.19000232209,2|4,0:3|0:3,0:0:0:0:
368,112,115885,1,0,0:0:0:0:
208,256,116077,2,0,P|144:240|208:112,1,240.285003483135,4|0,0:0|0:0,0:0:0:0:
320,80,116847,6,0,L|224:80,1,80.0950011610451,4|0,0:0|0:0,0:0:0:0:
80,80,117231,2,0,L|256:80,2,160.19000232209,4|4|4,0:3|0:0|0:0,0:0:0:0:
304,80,118385,6,0,P|368:96|352:192,1,160.19000232209,4|4,0:0|0:3,0:0:0:0:
288,176,118962,1,0,0:0:0:0:
128,160,119154,2,0,P|64:176|80:272,1,160.19000232209,4|4,0:0|0:0,0:0:0:0:
144,272,119731,1,0,0:0:0:0:
304,272,119924,6,0,L|144:272,2,160.19000232209,4|4|4,0:0|0:3|0:0,0:0:0:0:
80,272,121077,1,4,0:0:0:0:
368,272,121462,6,0,P|416:256|464:160,1,160.19000232209,4|4,0:0|0:3,0:0:0:0:
464,80,122039,1,0,0:0:0:0:
304,272,122231,2,0,P|256:256|208:160,1,160.19000232209,4|4,0:0|0:0,0:0:0:0:
208,80,122808,1,0,0:0:0:0:
368,80,123001,6,0,L|192:80,1,160.19000232209,4|4,0:0|0:3,0:0:0:0:
368,128,123577,2,0,P|416:176|352:192,1,160.19000232209,0|0,0:0|0:0,0:0:0:0:
192,176,124154,1,4,0:0:0:0:
432,176,124539,6,0,L|272:176,1,160.19000232209,4|4,0:0|0:3,0:0:0:0:
192,176,125116,1,0,0:0:0:0:
32,144,125308,2,0,L|272:144,1,240.285003483135,4|0,0:0|0:0,0:0:0:0:
256,192,126077,12,0,127231,0:0:0:0:
416,96,127616,6,0,P|416:160|336:192,1,160.19000232209,2|4,0:3|0:3,0:0:0:0:
176,192,128193,2,0,P|176:256|256:288,1,160.19000232209,0|0,0:0|0:0,0:0:0:0:
384,304,128770,2,0,L|288:304,1,80.0950011610451,4|0,0:0|0:0,0:0:0:0:
144,304,129154,6,0,P|71:283|63:208,1,160.19000232209,4|4,0:0|0:3,0:0:0:0:
192,208,129731,2,0,P|264:187|272:112,1,160.19000232209,0|0,0:0|0:0,0:0:0:0:
112,112,130308,2,0,L|192:112,1,80.0950011610451,4|0,0:0|0:0,0:0:0:0:
352,112,130693,6,0,P|416:128|464:208,1,160.19000232209,4|4,0:0|0:3,0:0:0:0:
480,272,131270,1,0,0:0:0:0:
320,272,131462,2,0,L|192:176,1,160.19000232209,4|4,0:0|0:0,0:0:0:0:
256,128,132039,1,0,0:0:0:0:
128,160,132231,6,0,P|192:96|272:80,1,160.19000232209,4|4,0:0|0:3,0:0:0:0:
32,80,133001,1,4,0:0:0:0:
256,80,133385,1,4,0:3:0:0:
32,160,133770,6,0,L|208:160,1,160.19000232209,4|4,0:0|0:3,0:0:0:0:
112,208,134347,1,0,0:0:0:0:
272,224,134539,2,0,L|16:224,1,240.285003483135,4|0,0:0|0:0,0:0:0:0:
160,256,135308,6,0,L|336:256,1,160.19000232209,4|4,0:0|0:3,0:0:0:0:
96,224,136077,1,4,0:0:0:0:
288,208,136462,1,4,0:0:0:0:
480,160,136847,6,0,L|304:160,1,160.19000232209,4|4,0:0|0:3,0:0:0:0:
240,160,137424,1,0,0:0:0:0:
400,112,137616,2,0,L|240:112,1,160.19000232209,4|4,0:0|0:0,0:0:0:0:
160,112,138193,1,0,0:0:0:0:
32,160,138385,6,0,L|208:160,1,160.19000232209,4|4,0:0|0:3,0:0:0:0:
272,160,138962,1,0,0:0:0:0:
112,112,139154,2,0,L|272:112,1,160.19000232209,4|4,0:0|0:0,0:0:0:0:
32,112,139924,6,0,P|16:160|48:288,1,160.19000232209,2|4,0:3|0:3,0:0:0:0:
192,112,140501,2,0,P|208:160|176:288,1,160.19000232209,0|0,0:0|0:0,0:0:0:0:
112,272,141077,2,0,P|96:224|128:192,1,80.0950011610451,4|0,0:0|0:0,0:0:0:0:
272,176,141462,6,0,L|96:176,1,160.19000232209,4|4,0:0|0:3,0:0:0:0:
240,208,142039,2,0,L|432:208,1,160.19000232209,0|0,0:0|0:0,0:0:0:0:
304,256,142616,2,0,L|288:336,1,80.0950011610451,4|0,0:0|0:0,0:0:0:0:
416,336,143001,6,0,P|448:304|368:240,1,160.19000232209,4|4,0:0|0:3,0:0:0:0:
304,224,143577,1,0,0:0:0:0:
144,192,143770,2,0,L|384:192,1,240.285003483135,4|0,0:0|0:0,0:0:0:0:
256,192,144539,6,0,L|240:272,1,80.0950011610451,4|0,0:0|0:0,0:0:0:0:
400,272,144924,2,0,P|448:240|384:176,2,160.19000232209,4|4|4,0:3|0:0|0:0,0:0:0:0:
192,272,146077,6,0,L|368:272,1,160.19000232209,4|4,0:0|0:3,0:0:0:0:
272,224,146654,1,0,0:0:0:0:
432,176,146847,2,0,L|192:176,1,240.285003483135,4|0,0:0|0:0,0:0:0:0:
32,144,147616,6,0,L|192:144,1,160.19000232209,4|4,0:0|0:3,0:0:0:0:
32,96,148385,2,0,L|112:96,1,80.0950011610451,4|0,0:0|0:0,0:0:0:0:
272,96,148770,2,0,L|288:176,1,80.0950011610451,4|0,0:0|0:0,0:0:0:0:
144,160,149154,6,0,P|96:160|32:256,1,160.19000232209,4|4,0:0|0:3,0:0:0:0:
32,288,149731,1,0,0:0:0:0:
192,272,149924,2,0,P|155:203|79:189,1,160.19000232209,4|4,0:0|0:0,0:0:0:0:
32,192,150501,1,0,0:0:0:0:
192,160,150693,6,0,P|240:160|304:256,1,160.19000232209,4|4,0:0|0:3,0:0:0:0:
304,288,151270,1,0,0:0:0:0:
144,272,151463,2,0,P|180:203|256:189,1,160.19000232209,4|4,0:0|0:3,0:0:0:0:
304,192,152040,1,0,0:0:0:0:
112,224,152231,6,0,P|64:224|32:128,1,160.19000232209,2|4,0:3|0:3,0:0:0:0:
112,112,152808,1,0,0:0:0:0:
272,80,153001,2,0,L|176:80,1,80.0950011610451,4|0,0:0|0:0,0:0:0:0:
64,80,153385,2,0,L|160:80,1,80.0950011610451,4|0,0:3|0:0,0:0:0:0:
304,80,153770,6,0,P|352:96|304:160,1,160.19000232209,4|4,0:0|0:3,0:0:0:0:
224,160,154347,1,0,0:0:0:0:
96,192,154539,2,0,L|176:192,1,80.0950011610451,4|0,0:0|0:0,0:0:0:0:
336,192,154924,2,0,L|240:192,1,80.0950011610451,4|0,0:3|0:0,0:0:0:0:
96,240,155308,6,0,L|272:240,1,160.19000232209,4|4,0:0|0:3,0:0:0:0:
176,208,155885,1,0,0:0:0:0:
48,208,156077,2,0,L|64:128,1,80.0950011610451,4|0,0:0|0:0,0:0:0:0:
224,128,156462,2,0,L|208:208,1,80.0950011610451,4|0,0:3|0:0,0:0:0:0:
48,160,156847,6,0,L|208:160,1,160.19000232209,4|4,0:0|0:3,0:0:0:0:
128,112,157424,1,0,0:0:0:0:
256,112,157616,2,0,L|240:192,1,80.0950011610451,4|0,0:0|0:0,0:0:0:0:
80,192,158001,2,0,L|96:272,1,80.0950011610451,4|0,0:3|0:0,0:0:0:0:
256,272,158385,6,0,L|336:272,1,80.0950011610451,4|0,0:0|0:0,0:0:0:0:
256,208,158770,2,0,L|160:208,1,80.0950011610451,4|0,0:3|0:0,0:0:0:0:
336,208,159154,2,0,L|352:288,1,80.0950011610451,4|0,0:0|0:0,0:0:0:0:
175,208,159539,2,0,L|159:288,1,80.0950011610451,4|0,0:3|0:0,0:0:0:0:
352,320,159924,6,0,L|432:320,1,80.0950011610451,4|0,0:3|0:0,0:0:0:0:
160,320,160308,2,0,L|80:320,1,80.0950011610451,4|0,0:3|0:0,0:0:0:0:
352,304,160693,1,4,0:3:0:0:
391,304,160789,1,4,0:3:0:0:
421,279,160885,1,0,0:0:0:0:
428,241,160981,1,0,0:0:0:0:
408,207,161077,1,4,0:3:0:0:
371,194,161173,1,0,0:0:0:0:
335,208,161269,1,4,0:3:0:0:
80,224,161462,5,2,0:3:0:0:
112,192,170308,5,4,0:3:0:0:
416,192,170693,5,2,0:3:0:0:
328,192,171077,1,4,0:0:0:0:
240,192,171462,1,4,0:0:0:0:
176,192,171847,1,4,0:0:0:0:
112,192,172231,5,4,0:0:0:0:
176,208,172616,1,4,0:0:0:0:
240,208,173001,1,4,0:0:0:0:
328,192,173385,1,4,0:0:0:0:
96,192,173770,5,4,0:0:0:0:
184,192,174154,1,4,0:0:0:0:
272,192,174539,1,4,0:0:0:0:
336,192,174924,1,4,0:0:0:0:
400,192,175308,5,4,0:0:0:0:
336,192,175693,1,4,0:0:0:0:
272,192,176078,1,4,0:0:0:0:
184,192,176462,1,4,0:0:0:0:
400,160,176847,6,0,L|416:320,1,160.19000232209,4|4,0:0|0:0,0:0:0:0:
256,160,177616,2,0,L|240:320,1,160.19000232209,4|4,0:0|0:0,0:0:0:0:
96,320,178385,6,0,L|112:160,1,160.19000232209,4|4,0:0|0:0,0:0:0:0:
416,320,179154,2,0,L|400:160,1,160.19000232209,4|4,0:0|0:0,0:0:0:0:
96,160,179924,5,4,0:0:0:0:
416,160,180308,2,0,L|240:240,2,160.19000232209,4|4|4,0:0|0:0|0:0,0:0:0:0:
96,176,181462,6,0,L|272:176,1,160.19000232209,4|4,0:0|0:0,0:0:0:0:
416,176,182231,2,0,L|240:176,1,160.19000232209,4|4,0:0|0:3,0:0:0:0:
64,256,183001,5,2,0:3:0:0:
160,256,183385,1,4,0:0:0:0:
248,256,183770,1,4,0:0:0:0:
328,256,184154,1,4,0:0:0:0:
400,256,184539,5,4,0:0:0:0:
328,256,184924,1,4,0:0:0:0:
248,256,185308,1,4,0:0:0:0:
160,256,185693,1,4,0:0:0:0:
448,256,186077,5,4,0:0:0:0:
352,256,186461,1,4,0:0:0:0:
264,256,186846,1,4,0:0:0:0:
184,256,187230,1,4,0:0:0:0:
112,256,187615,5,4,0:0:0:0:
184,256,188000,1,4,0:0:0:0:
264,256,188384,1,4,0:0:0:0:
352,256,188769,1,4,0:3:0:0:
64,256,189154,6,0,L|48:96,1,160.19000232209,4|4,0:0|0:0,0:0:0:0:
352,256,189924,2,0,L|368:96,1,160.19000232209,4|4,0:0|0:0,0:0:0:0:
160,256,190693,6,0,L|144:96,1,160.19000232209,4|4,0:0|0:0,0:0:0:0:
448,256,191462,2,0,L|464:96,1,160.19000232209,4|4,0:0|0:0,0:0:0:0:
176,80,192231,6,0,L|368:80,1,160.19000232209,4|4,0:0|0:0,0:0:0:0:
64,256,193001,2,0,L|48:96,1,160.19000232209,4|4,0:0|0:0,0:0:0:0:
256,144,193770,6,0,L|432:144,1,160.19000232209,4|8,0:0|0:0,0:0:0:0:
256,176,194347,2,0,P|192:192|272:288,1,240.285003483135,4|8,0:0|0:0,0:0:0:0:
64,288,195308,6,0,L|320:288,1,240.285003483135,2|4,0:3|0:0,0:0:0:0:
176,288,196077,2,0,P|144:240|272:160,1,240.285003483135,8|4,0:0|0:0,0:0:0:0:
128,128,196847,6,0,L|224:128,1,80.0950011610451,4|0,0:0|0:0,0:0:0:0:
368,128,197231,2,0,L|176:128,2,160.19000232209,8|0|8,0:0|0:0|0:0,0:0:0:0:
144,160,198385,6,0,P|80:176|80:336,1,240.285003483135,4|4,0:0|0:0,0:0:0:0:
224,176,199154,2,0,P|288:192|288:352,1,240.285003483135,8|4,0:0|0:0,0:0:0:0:
176,336,199924,6,0,L|272:336,1,80.0950011610451,4|0,0:0|0:0,0:0:0:0:
416,288,200308,2,0,L|256:288,1,160.19000232209,8|4,0:0|0:0,0:0:0:0:
32,288,201077,2,0,L|224:288,1,160.19000232209,8|4,0:0|0:1,0:0:0:0:
416,224,201847,5,0,0:0:0:0:
336,224,202039,2,0,P|288:192|400:96,1,240.285003483135,4|8,0:0|0:0,0:0:0:0:
160,64,203001,6,0,L|128:224,1,160.19000232209,4|8,0:0|0:0,0:0:0:0:
352,64,203770,2,0,L|384:224,1,160.19000232209,4|8,0:0|0:0,0:0:0:0:
128,240,204539,6,0,L|368:240,1,240.285003483135,4|4,0:0|0:0,0:0:0:0:
208,240,205308,2,0,P|144:224|208:96,1,240.285003483135,8|4,0:0|0:0,0:0:0:0:
320,96,206077,6,0,L|224:96,1,80.0950011610451,4|0,0:0|0:0,0:0:0:0:
80,96,206462,2,0,P|32:144|80:240,2,160.19000232209,8|4|8,0:0|0:0|0:0,0:0:0:0:
304,144,207616,6,0,P|416:160|480:272,1,240.285003483135,4|4,0:1|0:0,0:0:0:0:
320,192,208385,2,0,P|208:208|144:320,1,240.285003483135,8|4,0:0|0:0,0:0:0:0:
272,304,209154,6,0,L|448:304,3,160.19000232209,4|0|12|4,0:0|0:0|0:0|0:0,0:0:0:0:
352,256,210501,1,0,0:0:0:0:
224,256,210693,6,0,P|160:256|64:112,1,240.285003483135,4|4,0:1|0:0,0:0:0:0:
224,112,211462,2,0,L|48:112,1,160.19000232209,8|0,0:0|0:0,0:0:0:0:
288,256,212231,6,0,P|352:256|448:112,1,240.285003483135,0|4,0:1|0:0,0:0:0:0:
288,112,213000,2,0,L|464:112,1,160.19000232209,8|0,0:0|0:0,0:0:0:0:
176,192,213770,6,0,L|160:112,1,80.0950011610451,8|0,0:0|0:0,0:0:0:0:
288,160,214154,2,0,L|304:80,1,80.0950011610451,8|4,0:0|0:0,0:0:0:0:
432,128,214539,5,12,0:0:0:0:
471,137,214635,1,8,0:0:0:0:
498,166,214731,1,4,0:0:0:0:
504,205,214827,1,4,0:0:0:0:
487,241,214923,1,8,0:0:0:0:
454,261,215019,1,4,0:0:0:0:
415,260,215115,1,8,0:0:0:0:
96,304,215308,6,0,P|64:272|159:173,1,193,6|8,0:3|0:0,0:0:0:0:
256,224,215885,2,0,L|448:224,1,193,4|4,0:0|0:0,0:0:0:0:
288,176,216462,2,0,L|176:176,1,96.5,8|0,0:0|0:0,0:0:0:0:
32,176,216847,6,0,P|48:224|176:272,1,193,4|8,0:0|0:0,0:0:0:0:
336,272,217424,2,0,L|128:272,1,193,0|4,0:0|0:0,0:0:0:0:
304,272,218001,2,0,L|320:176,1,96.5,8|0,0:0|0:0,0:0:0:0:
128,176,218385,6,0,P|64:208|32:320,1,193,4|8,0:0|0:0,0:0:0:0:
192,320,218962,2,0,P|256:320|336:224,1,193,4|4,0:0|0:0,0:0:0:0:
144,224,219539,2,0,L|128:320,1,96.5,8|0,0:0|0:0,0:0:0:0:
288,320,219924,6,0,L|304:224,1,96.5,4|0,0:0|0:0,0:0:0:0:
144,176,220308,2,0,L|304:288,2,193,8|4|8,0:0|0:0|0:0,0:0:0:0:
400,176,221462,6,0,L|192:176,1,193,4|8,0:0|0:0,0:0:0:0:
336,192,222039,2,0,P|400:224|320:288,1,193,4|0,0:0|0:0,0:0:0:0:
176,304,222616,2,0,L|288:304,1,96.5,8|0,0:0|0:0,0:0:0:0:
464,304,223001,6,0,P|464:240|336:176,1,193,4|8,0:0|0:0,0:0:0:0:
208,240,223577,2,0,P|208:176|336:112,1,193,4|4,0:0|0:0,0:0:0:0:
432,80,224154,2,0,L|336:80,1,96.5,8|0,0:0|0:0,0:0:0:0:
176,80,224539,6,0,L|288:80,2,96.5,4|0|8,0:0|0:0|0:0,0:0:0:0:
304,96,225116,2,0,P|368:112|400:224,1,193,0|4,0:0|0:0,0:0:0:0:
272,240,225693,2,0,L|176:240,1,96.5,8|0,0:0|0:0,0:0:0:0:
336,240,226077,6,0,L|352:336,1,96.5,4|0,0:0|0:0,0:0:0:0:
192,336,226462,2,0,L|176:240,1,96.5,8|0,0:0|0:0,0:0:0:0:
368,128,226847,2,0,P|448:160|464:272,2,193,12|8|6,0:0|0:0|0:3,0:0:0:0:
144,128,228001,5,8,0:0:0:0:
240,160,228193,2,0,L|48:160,1,193,4|4,0:0|0:0,0:0:0:0:
208,192,228770,2,0,L|224:288,1,96.5,8|0,0:0|0:0,0:0:0:0:
32,288,229154,6,0,P|48:240|176:160,1,193,4|8,0:0|0:0,0:0:0:0:
320,208,229731,2,0,P|304:160|176:80,1,193,4|0,0:0|0:0,0:0:0:0:
32,48,230308,2,0,L|144:48,1,96.5,8|0,0:0|0:0,0:0:0:0:
304,48,230693,6,0,L|208:48,2,96.5,4|0|8,0:0|0:0|0:0,0:0:0:0:
480,48,231270,2,0,P|480:112|352:176,1,193,0|4,0:0|0:0,0:0:0:0:
128,176,231847,2,0,L|224:176,1,96.5,8|0,0:0|0:0,0:0:0:0:
416,176,232231,6,0,L|224:176,2,193,4|8|4,0:0|0:0|0:0,0:0:0:0:
336,128,233193,1,0,0:0:0:0:
144,96,233385,2,0,L|256:96,1,96.5,8|0,0:0|0:0,0:0:0:0:
432,96,233770,5,4,0:0:0:0:
176,144,234154,1,8,0:0:0:0:
304,144,234347,2,0,P|368:176|400:288,1,193,4|4,0:0|0:0,0:0:0:0:
240,288,234924,2,0,L|128:288,1,96.5,8|0,0:0|0:0,0:0:0:0:
336,288,235308,6,0,P|384:272|336:176,1,193,4|8,0:0|0:0,0:0:0:0:
176,144,235885,2,0,L|368:144,1,193,4|4,0:0|0:0,0:0:0:0:
240,160,236462,2,0,L|224:256,1,96.5,8|0,0:0|0:0,0:0:0:0:
384,256,236847,6,0,L|176:256,1,193,4|8,0:0|0:0,0:0:0:0:
288,208,237424,1,4,0:0:0:0:
384,176,237616,2,0,L|176:176,1,193,0|8,0:0|0:0,0:0:0:0:
288,128,238193,1,0,0:0:0:0:
96,176,238385,6,0,L|304:176,1,193,4|8,0:0|0:0,0:0:0:0:
192,128,238962,1,4,0:0:0:0:
96,96,239154,2,0,L|304:96,1,193,0|8,0:0|0:0,0:0:0:0:
192,48,239731,1,0,0:0:0:0:
448,64,239924,6,0,P|480:128|416:240,1,193,4|8,0:0|0:0,0:0:0:0:
336,224,240501,1,4,0:0:0:0:
64,80,240693,2,0,P|32:144|96:256,1,193,0|8,0:0|0:0,0:0:0:0:
176,240,241270,1,0,0:0:0:0:
448,240,241462,5,4,0:0:0:0:
352,240,241654,1,8,0:0:0:0:
305,238,241750,1,0,0:0:0:0:
278,200,241846,1,8,0:0:0:0:
291,156,241942,1,8,0:0:0:0:
334,139,242038,1,4,0:0:0:0:
448,224,242231,5,8,0:0:0:0:
490,201,242327,1,8,0:0:0:0:
503,156,242423,1,4,0:0:0:0:
478,116,242519,1,0,0:0:0:0:
432,106,242615,1,8,0:0:0:0:
336,96,242808,1,0,0:0:0:0:
32,96,243001,6,0,L|240:96,1,193,6|8,0:3|0:0,0:0:0:0:
384,96,243577,2,0,L|272:96,1,96.5,4|0,0:0|0:0,0:0:0:0:
192,96,243962,1,0,0:0:0:0:
32,144,244154,2,0,L|144:144,1,96.5,8|0,0:0|0:0,0:0:0:0:
321,208,244539,6,0,L|113:208,1,193,4|8,0:0|0:0,0:0:0:0:
288,240,245115,2,0,L|400:240,1,96.5,4|0,0:0|0:0,0:0:0:0:
480,240,245500,1,4,0:0:0:0:
320,272,245692,2,0,L|208:272,1,96.5,8|0,0:0|0:0,0:0:0:0:
384,272,246077,6,0,P|432:256|448:112,1,193,4|8,0:0|0:0,0:0:0:0:
304,128,246654,2,0,L|208:128,2,96.5,0|0|4,0:0|0:0|0:0,0:0:0:0:
112,128,247231,2,0,L|96:224,1,96.5,8|0,0:0|0:0,0:0:0:0:
400,128,247616,6,0,L|416:224,1,96.5,4|0,0:0|0:0,0:0:0:0:
256,224,248001,2,0,L|240:320,1,96.5,8|0,0:0|0:0,0:0:0:0:
368,336,248385,2,0,P|432:320|384:224,2,193,4|8|4,0:0|0:0|0:0,0:0:0:0:
112,320,249539,6,0,L|208:320,1,96.5,8|4,0:0|0:0,0:0:0:0:
304,288,249924,2,0,L|192:288,1,96.5,0|4,0:0|0:0,0:0:0:0:
336,272,250308,2,0,L|448:272,1,96.5,8|0,0:0|0:0,0:0:0:0:
272,224,250693,6,0,L|480:224,1,193,4|8,0:0|0:0,0:0:0:0:
336,176,251270,2,0,L|224:176,2,96.5,4|0|4,0:0|0:0|0:0,0:0:0:0:
208,160,251847,2,0,L|112:160,1,96.5,8|0,0:0|0:0,0:0:0:0:
272,160,252231,6,0,P|320:208|224:256,1,193,4|8,0:0|0:0,0:0:0:0:
112,256,252808,2,0,L|208:256,1,96.5,4|0,0:0|0:0,0:0:0:0:
288,256,253193,1,4,0:0:0:0:
160,208,253385,2,0,L|64:208,1,96.5,8|0,0:0|0:0,0:0:0:0:
192,208,253770,6,0,L|208:304,1,96.5,4|0,0:0|0:0,0:0:0:0:
79,303,254154,2,0,L|63:207,1,96.5,8|0,0:0|0:0,0:0:0:0:
224,192,254539,2,0,L|240:288,1,96.5,12|0,0:0|0:0,0:0:0:0:
48,320,254924,2,0,P|32:272|80:144,1,193,8|6,0:0|0:3,0:0:0:0:
304,128,255693,5,8,0:0:0:0:
208,80,255885,2,0,L|432:80,1,193,4|0,0:0|0:0,0:0:0:0:
272,96,256462,2,0,L|256:192,1,96.5,8|0,0:0|0:0,0:0:0:0:
416,192,256847,6,0,P|464:224|368:288,1,193,4|8,0:0|0:0,0:0:0:0:
272,272,257424,2,0,L|384:272,1,96.5,4|0,0:0|0:0,0:0:0:0:
464,272,257808,1,4,0:0:0:0:
304,208,258001,2,0,P|256:240|352:304,1,193,8|4,0:0|0:0,0:0:0:0:
80,320,258770,6,0,L|64:224,1,96.5,8|0,0:0|0:0,0:0:0:0:
192,224,259154,2,0,L|208:128,1,96.5,0|4,0:0|0:0,0:0:0:0:
368,128,259539,2,0,L|352:224,1,96.5,8|0,0:0|0:0,0:0:0:0:
192,256,259924,6,0,P|128:240|208:176,3,193,4|8|4|8,0:0|0:0|0:0|0:0,0:0:0:0:
448,288,261462,6,0,L|256:288,1,193,4|8,0:0|0:0,0:0:0:0:
352,240,262039,2,0,P|416:240|416:128,1,193,4|4,0:0|0:0,0:0:0:0:
288,112,262616,2,0,L|384:112,1,96.5,8|4,0:0|0:0,0:0:0:0:
224,112,263001,5,8,0:0:0:0:
133,127,263193,1,8,0:0:0:0:
106,166,263289,1,8,0:0:0:0:
102,214,263385,1,4,0:0:0:0:
163,283,263577,1,8,0:0:0:0:
320,304,263770,2,0,P|384:288|416:176,1,193,4|0,0:0|0:0,0:0:0:0:
160,176,264539,5,4,0:1:0:0:
256,192,264635,12,2,278962,0:0:0:0:
