osu file format v14

[General]
AudioFilename: Believe.mp3
AudioLeadIn: 0
PreviewTime: 75092
Countdown: 0
SampleSet: Soft
StackLeniency: 0.7
Mode: 2
LetterboxInBreaks: 0
WidescreenStoryboard: 0

[Editor]
DistanceSpacing: 0.9
BeatDivisor: 4
GridSize: 16
TimelineZoom: 2

[Metadata]
Title:believe
TitleUnicode:believe
Artist:Kalafina
ArtistUnicode:Kalafina
Creator:CLSW
Version:Bless
Source:Fate/stay night [Unlimited Blade Works]
Tags:フェイト/ステイナイト Fsn F/sn UBW ufotable ending TYPE MOON 梶浦由記 Yuki Kajiura Progressive Rock Gothic Metal
BeatmapID:705527
BeatmapSetID:316647

[Difficulty]
HPDrainRate:6
CircleSize:4
OverallDifficulty:9
ApproachRate:9
SliderMultiplier:1.93
SliderTickRate:2

[Events]
//Background and Video events
0,0,"bg3.jpg",0,0
//Break Periods
2,27816,29708
2,161662,169708
//Storyboard Layer 0 (Background)
//Storyboard Layer 1 (Fail)
//Storyboard Layer 2 (Pass)
//Storyboard Layer 3 (Foreground)
//Storyboard Sound Samples

[TimingPoints]
3001,384.615384615385,4,2,0,30,1,0
3001,-200,4,2,0,30,0,0
15308,-133.333333333333,4,2,1,30,0,0
15404,-133.333333333333,4,2,2,30,0,0
15428,-133.333333333333,4,2,2,30,0,0
21462,-200,4,2,1,30,0,0
26077,-200,4,2,0,40,0,0
26101,-200,4,2,0,40,0,0
30308,-200,4,2,1,40,0,0
30693,-120.481927710843,4,2,1,40,0,0
30789,-120.481927710843,4,2,3,30,0,0
43001,-120.481927710843,4,2,1,40,0,0
43097,-120.481927710843,4,2,3,30,0,0
54347,-120.481927710843,4,2,1,40,0,0
75308,-100,4,2,1,50,0,1
103001,-120.481927710843,4,2,1,40,0,0
103097,-120.481927710843,4,2,3,30,0,0
115308,-120.481927710843,4,2,1,30,0,0
115404,-120.481927710843,4,2,3,30,0,0
127616,-120.481927710843,4,2,1,40,0,0
127712,-120.481927710843,4,2,3,40,0,0
139924,-120.481927710843,4,2,1,40,0,0
140020,-120.481927710843,4,2,3,40,0,0
152231,-120.481927710843,4,2,1,40,0,0
152327,-120.481927710843,4,2,3,40,0,0
161462,-120.481927710843,4,2,1,40,0,0
171077,-120.481927710843,4,2,3,30,0,0
183001,-120.481927710843,4,2,1,40,0,0
183097,-120.481927710843,4,2,3,30,0,0
194154,-120.481927710843,4,2,1,30,0,0
195308,-120.481927710843,4,2,1,40,0,0
215308,-100,4,2,1,50,0,1
242808,-100,4,2,1,50,0,0
243001,-100,4,2,1,50,0,1
264539,-100,4,2,1,50,0,0
264635,-100,4,2,1,30,0,0

[Colours]
Combo1 : 74,4,15
Combo2 : 234,0,0
Combo3 : 176,0,0

[HitObjects]
144,96,3001,6,0,P|80:128|112:192,2,144.75
368,96,4539,2,0,P|432:128|400:192,2,144.75
144,160,6077,6,0,L|304:160,2,144.75
368,160,7616,2,0,L|208:160,2,144.75
160,144,9154,6,0,P|224:176|256:240,1,144.75
80,240,10308,1,0,0:0:0:0:
351,144,10693,2,0,P|287:176|255:240,1,144.75
416,256,11847,1,0,0:0:0:0:
96,256,12231,6,0,P|48:224|64:144,1,144.75
256,112,13385,1,0,0:0:0:0:
416,256,13770,2,0,P|464:224|448:144,1,144.75
256,112,14924,1,0,0:0:0:0:
48,112,15308,6,0,L|32:144,3,36.1875013804436,2|0|0|0,0:3|0:0|0:0|0:0,0:0:0:0:
112,144,15693,1,0,0:0:0:0:
147,147,15789,1,0,0:0:0:0:
180,162,15885,1,0,0:0:0:0:
204,189,15981,1,0,0:0:0:0:
217,222,16077,5,0,0:0:0:0:
217,258,16173,1,0,0:0:0:0:
205,292,16269,1,0,0:0:0:0:
181,319,16366,1,0,0:0:0:0:
149,335,16462,1,0,0:0:0:0:
113,339,16558,1,0,0:0:0:0:
192,336,16654,2,0,L|240:336,1,36.1875013804436
144,304,16847,5,0,0:0:0:0:
127,271,16943,1,0,0:0:0:0:
121,236,17039,1,0,0:0:0:0:
124,200,17135,1,0,0:0:0:0:
136,166,17231,1,0,0:0:0:0:
157,137,17327,1,0,0:0:0:0:
224,112,17423,1,0,0:0:0:0:
257,98,17520,1,0,0:0:0:0:
293,93,17616,5,0,0:0:0:0:
329,98,17712,1,0,0:0:0:0:
362,113,17808,1,0,0:0:0:0:
390,136,17904,1,0,0:0:0:0:
304,160,18001,2,0,L|288:208,1,36.1875013804436
368,240,18193,2,0,L|384:288,1,36.1875013804436
272,288,18385,5,0,0:0:0:0:
239,272,18481,1,0,0:0:0:0:
217,244,18577,1,0,0:0:0:0:
212,209,18673,1,0,0:0:0:0:
223,175,18769,1,0,0:0:0:0:
249,150,18865,1,0,0:0:0:0:
336,144,18962,1,0,0:0:0:0:
363,166,19058,1,0,0:0:0:0:
370,201,19154,5,0,0:0:0:0:
355,233,19250,1,0,0:0:0:0:
322,248,19346,1,0,0:0:0:0:
288,240,19442,1,0,0:0:0:0:
208,224,19539,1,0,0:0:0:0:
173,224,19635,1,0,0:0:0:0:
157,255,19731,1,0,0:0:0:0:
175,284,19827,1,0,0:0:0:0:
336,288,19924,5,0,0:0:0:0:
351,255,20020,1,0,0:0:0:0:
349,220,20116,1,0,0:0:0:0:
329,190,20212,1,0,0:0:0:0:
296,175,20308,1,0,0:0:0:0:
261,179,20404,1,0,0:0:0:0:
192,176,20501,1,0,0:0:0:0:
176,143,20597,1,0,0:0:0:0:
178,108,20693,5,0,0:0:0:0:
198,78,20789,1,0,0:0:0:0:
231,63,20885,1,0,0:0:0:0:
266,67,20981,1,0,0:0:0:0:
432,64,21077,1,0,0:0:0:0:
460,83,21173,1,0,0:0:0:0:
457,117,21269,1,0,0:0:0:0:
425,130,21365,1,0,0:0:0:0:
240,128,21462,6,0,L|128:128,1,96.5,2|0,0:0|0:0,0:0:0:0:
272,128,22039,2,0,L|384:128,1,96.5,2|0,0:0|0:0,0:0:0:0:
256,96,22616,1,0,0:0:0:0:
336,144,23001,6,0,P|368:176|336:208,1,96.5,2|0,0:0|0:0,0:0:0:0:
176,144,23577,2,0,P|144:176|176:208,1,96.5,2|0,0:0|0:0,0:0:0:0:
336,208,24154,1,0,0:0:0:0:
112,224,24539,6,0,L|224:224,1,96.5,2|0,0:0|0:0,0:0:0:0:
400,224,25116,2,0,L|288:224,1,96.5,2|0,0:0|0:0,0:0:0:0:
112,224,25693,1,0,0:0:0:0:
400,272,26077,6,0,P|416:240|416:176,1,96.5,4|0,0:0|0:0,0:0:0:0:
112,272,26654,2,0,P|96:240|96:176,1,96.5,4|0,0:0|0:0,0:0:0:0:
400,272,27231,1,4,0:0:0:0:
256,192,27616,5,4,0:3:0:0:
384,192,30308,5,12,0:0:0:0:
96,192,30693,6,0,L|256:192,1,160.19000232209,2|0,0:3|0:0,0:0:0:0:
96,224,31270,2,0,P|64:272|144:320,1,160.19000232209,4|4,0:0|0:0,0:0:0:0:
208,304,31847,2,0,L|128:304,1,80.0950011610451,4|0,0:0|0:0,0:0:0:0:
256,304,32231,6,0,L|352:304,1,80.0950011610451,4|0,0:0|0:0,0:0:0:0:
176,304,32616,2,0,L|160:224,1,80.0950011610451,4|0,0:0|0:0,0:0:0:0:
352,224,33001,2,0,L|368:144,1,80.0950011610451,4|0,0:0|0:0,0:0:0:0:
208,144,33385,2,0,L|192:224,1,80.0950011610451
320,208,33770,6,0,P|384:208|432:304,2,160.19000232209,4|4|4,0:0|0:0|0:0,0:0:0:0:
192,160,34731,2,0,L|272:160,1,80.0950011610451,0|4,0:0|0:0,0:0:0:0:
432,128,35116,6,0,P|448:144|432:272,1,160.19000232209,4|4,0:0|0:0,0:0:0:0:
272,256,35693,2,0,L|176:256,1,80.0950011610451,4|0,0:0|0:0,0:0:0:0:
320,256,36077,2,0,L|336:336,1,80.0950011610451,4|0,0:0|0:0,0:0:0:0:
208,336,36462,2,0,L|304:336,1,80.0950011610451,4|0,0:3|0:0,0:0:0:0:
416,336,36847,6,0,P|464:304|400:240,1,160.19000232209,4|4,0:0|0:0,0:0:0:0:
256,208,37424,2,0,L|432:208,1,160.19000232209
256,208,38001,2,0,L|224:288,1,80.0950011610451,4|0,0:0|0:0,0:0:0:0:
384,272,38385,6,0,L|464:272,1,80.0950011610451,4|0,0:0|0:0,0:0:0:0:
304,272,38770,2,0,L|288:192,1,80.0950011610451,4|0,0:0|0:0,0:0:0:0:
464,192,39154,2,0,L|480:112,1,80.0950011610451,4|0,0:0|0:0,0:0:0:0:
288,112,39539,2,0,L|368:112,1,80.0950011610451,4|0,0:0|0:0,0:0:0:0:
224,112,39924,6,0,L|208:192,1,80.0950011610451,4|0,0:0|0:0,0:0:0:0:
400,208,40308,2,0,P|416:160|336:112,2,160.19000232209,4|4|4,0:0|0:0|0:0,0:0:0:0:
112,208,41462,6,0,L|208:208,1,80.0950011610451,4|0,0:0|0:0,0:0:0:0:
352,208,41847,2,0,L|192:208,2,160.19000232209,4|4|4,0:0|0:0|0:3,0:0:0:0:
112,96,43001,6,0,L|272:96,1,160.19000232209,2|4,0:3|0:0,0:0:0:0:
112,128,43577,2,0,L|80:288,1,160.19000232209
208,288,44154,2,0,L|288:288,2,80.0950011610451,4|0|4,0:0|0:0|0:0,0:0:0:0:
368,272,44731,6,0,P|384:224|288:176,1,160.19000232209
144,160,45308,2,0,L|240:160,1,80.0950011610451,4|0,0:0|0:0,0:0:0:0:
96,144,45693,2,0,L|192:144,1,80.0950011610451,4|0,0:0|0:0,0:0:0:0:
336,160,46077,6,0,P|384:192|320:256,1,160.19000232209,4|4,0:0|0:0,0:0:0:0:
176,240,46654,2,0,P|128:272|192:336,1,160.19000232209
304,336,47231,2,0,L|224:336,1,80.0950011610451,4|0,0:0|0:0,0:0:0:0:
96,336,47616,6,0,L|176:336,3,80.0950011610451,4|0|4|0,0:0|0:0|0:0|0:0,0:0:0:0:
304,336,48385,2,0,P|368:320|336:240,1,160.19000232209,4|4,0:0|0:3,0:0:0:0:
112,272,49154,6,0,P|96:224|96:96,1,160.19000232209,4|4,0:0|0:0,0:0:0:0:
256,128,49731,2,0,L|416:128,1,160.19000232209
240,144,50308,2,0,P|224:192|256:224,1,80.0950011610451,4|0,0:0|0:0,0:0:0:0:
400,208,50693,6,0,L|320:208,3,80.0950011610451,4|0|4|0,0:0|0:0|0:0|0:0,0:0:0:0:
128,208,51462,2,0,P|96:256|176:304,2,160.19000232209,4|4|4,0:0|0:0|0:0,0:0:0:0:
384,208,52616,6,0,P|416:256|336:304,2,160.19000232209,4|4|4,0:0|0:0|0:0,0:0:0:0:
176,144,53770,6,0,L|352:144,1,160.19000232209,4|4,0:0|0:0,0:0:0:0:
176,176,54347,2,0,L|144:336,1,160.19000232209,8|0,0:0|0:0,0:0:0:0:
336,176,54924,2,0,L|352:256,1,80.0950011610451,8|0,0:0|0:0,0:0:0:0:
80,256,55308,6,0,P|48:224|176:128,1,240.285003483135,6|4,0:3|0:0,0:0:0:0:
336,96,56077,2,0,L|80:96,1,240.285003483135,8|4,0:0|0:0,0:0:0:0:
224,144,56847,6,0,L|240:224,1,80.0950011610451,4|0,0:0|0:0,0:0:0:0:
80,224,57231,2,0,L|160:224,1,80.0950011610451,8|0,0:0|0:0,0:0:0:0:
288,224,57616,2,0,L|192:224,1,80.0950011610451,4|0,0:0|0:0,0:0:0:0:
368,224,58001,2,0,L|384:304,1,80.0950011610451,8|0,0:0|0:0,0:0:0:0:
192,304,58385,6,0,L|448:304,1,240.285003483135,4|4,0:0|0:0,0:0:0:0:
240,304,59154,2,0,P|192:272|288:160,1,240.285003483135,8|4,0:0|0:0,0:0:0:0:
144,144,59924,6,0,L|128:224,1,80.0950011610451
256,224,60308,2,0,L|272:304,1,80.0950011610451,8|0,0:0|0:0,0:0:0:0:
112,304,60693,2,0,L|192:304,1,80.0950011610451,4|0,0:0|0:0,0:0:0:0:
384,304,61077,2,0,L|304:304,1,80.0950011610451,8|0,0:0|0:0,0:0:0:0:
112,304,61462,6,0,P|64:288|112:208,1,160.19000232209,4|0,0:1|0:0,0:0:0:0:
288,208,62039,2,0,P|336:192|288:112,1,160.19000232209,4|0,0:0|0:0,0:0:0:0:
112,112,62616,2,0,L|208:112,1,80.0950011610451,8|0,0:0|0:0,0:0:0:0:
384,112,63001,6,0,L|368:192,1,80.0950011610451,4|0,0:0|0:0,0:0:0:0:
208,192,63385,2,0,L|112:192,1,80.0950011610451,8|0,0:0|0:0,0:0:0:0:
288,208,63770,2,0,L|320:288,1,80.0950011610451
192,288,64154,2,0,L|304:288,1,80.0950011610451,8|0,0:0|0:0,0:0:0:0:
432,288,64539,6,0,P|464:256|384:208,1,160.19000232209,4|0,0:1|0:0,0:0:0:0:
288,208,65116,1,4,0:0:0:0:
128,208,65308,2,0,P|96:176|176:128,1,160.19000232209,8|0,0:0|0:0,0:0:0:0:
240,112,65885,1,4,0:0:0:0:
112,112,66077,6,0,L|96:192,1,80.0950011610451,4|0,0:0|0:0,0:0:0:0:
288,192,66462,2,0,L|304:272,1,80.0950011610451,8|0,0:0|0:0,0:0:0:0:
144,272,66847,2,0,L|128:352,1,80.0950011610451,4|0,0:0|0:0,0:0:0:0:
288,349,67231,2,0,L|304:269,1,80.0950011610451,8|0,0:0|0:0,0:0:0:0:
48,304,67616,6,0,P|32:256|176:176,1,240.285003483135,4|4,0:1|0:0,0:0:0:0:
352,304,68385,2,0,P|368:256|224:176,1,240.285003483135,8|4,0:0|0:0,0:0:0:0:
112,144,69154,6,0,L|192:144,1,80.0950011610451,4|0,0:0|0:0,0:0:0:0:
64,144,69539,2,0,L|48:224,1,80.0950011610451
208,240,69924,2,0,L|128:240,1,80.0950011610451,8|0,0:0|0:0,0:0:0:0:
288,240,70308,2,0,L|304:160,1,80.0950011610451,4|0,0:0|0:0,0:0:0:0:
32,160,70693,6,0,P|32:112|128:48,1,160.19000232209,4|0,0:1|0:0,0:0:0:0:
272,48,71270,2,0,L|176:48,1,80.0950011610451,4|8,0:0|0:0,0:0:0:0:
352,112,71654,2,0,L|256:112,2,80.0950011610451,4|0|0,0:0|0:0|0:0,0:0:0:0:
192,192,72231,6,0,P|144:160|192:80,1,160.19000232209,4|0,0:0|0:0,0:0:0:0:
352,144,72808,2,0,P|400:144|432:96,1,80.0950011610451,4|8,0:0|0:0,0:0:0:0:
256,96,73193,2,0,L|176:96,2,80.0950011610451,0|4|8,0:0|0:0|0:0,0:0:0:0:
96,96,73770,6,0,L|80:176,1,80.0950011610451,4|8,0:0|0:0,0:0:0:0:
416,288,74154,2,0,L|432:208,1,80.0950011610451,8|4,0:0|0:0,0:0:0:0:
176,240,74539,1,8,0:0:0:0:
336,256,74731,1,0,0:0:0:0:
365,229,74827,1,8,0:0:0:0:
373,190,74923,1,4,0:0:0:0:
357,154,75019,1,8,0:0:0:0:
324,134,75115,1,8,0:0:0:0:
285,137,75211,1,8,0:0:0:0:
128,144,75308,6,0,P|48:160|48:272,1,193,6|8,0:3|0:0,0:0:0:0:
224,96,75885,2,0,L|320:96,2,96.5,4|0|0,0:0|0:0|0:0,0:0:0:0:
32,80,76462,2,0,L|128:80,1,96.5,8|0,0:0|0:0,0:0:0:0:
320,80,76847,6,0,P|368:112|288:192,1,193,4|8,0:0|0:0,0:0:0:0:
144,208,77424,2,0,L|240:208,1,96.5,4|0,0:0|0:0,0:0:0:0:
432,208,77808,2,0,L|336:208,2,96.5,4|8|0,0:0|0:0|0:0,0:0:0:0:
240,208,78385,6,0,P|160:192|96:96,1,193,4|8,0:0|0:0,0:0:0:0:
256,96,78962,2,0,L|352:96,2,96.5,0|0|4,0:0|0:0|0:0,0:0:0:0:
448,96,79539,2,0,L|480:192,1,96.5,8|0,0:0|0:0,0:0:0:0:
64,96,79924,6,0,L|32:192,1,96.5,4|0,0:0|0:0,0:0:0:0:
336,144,80308,2,0,L|368:240,1,96.5,8|4,0:0|0:0,0:0:0:0:
176,144,80693,2,0,L|144:240,1,96.5,0|4,0:0|0:0,0:0:0:0:
336,224,81077,2,0,L|368:320,1,96.5,8|0,0:0|0:0,0:0:0:0:
112,320,81462,6,0,P|64:272|160:224,1,193,4|8,0:0|0:0,0:0:0:0:
304,176,82039,2,0,L|192:176,2,96.5,4|0|4,0:0|0:0|0:0,0:0:0:0:
144,144,82616,2,0,L|240:144,1,96.5,8|0,0:0|0:0,0:0:0:0:
432,144,83001,6,0,L|240:144,1,193,4|8,0:0|0:0,0:0:0:0:
80,112,83577,2,0,L|176:112,2,96.5,4|0|4,0:0|0:0|0:0,0:0:0:0:
240,80,84154,2,0,L|144:80,1,96.5,8|0,0:0|0:0,0:0:0:0:
336,80,84539,6,0,L|432:80,2,96.5,4|0|8,0:0|0:0|0:0,0:0:0:0:
176,128,85116,2,0,L|368:128,1,193,4|4,0:0|0:0,0:0:0:0:
208,176,85693,2,0,L|96:176,1,96.5,8|0,0:0|0:0,0:0:0:0:
272,176,86077,6,0,L|288:272,1,96.5,4|0,0:0|0:0,0:0:0:0:
96,272,86462,2,0,L|208:272,1,96.5,8|0,0:0|0:0,0:0:0:0:
480,272,86847,2,0,L|384:272,1,96.5,12|0,0:0|0:0,0:0:0:0:
336,256,87135,1,8,0:0:0:0:
384,240,87231,1,8,0:0:0:0:
432,208,87327,1,8,0:0:0:0:
432,176,87423,1,0,0:0:0:0:
384,144,87519,1,0,0:0:0:0:
224,272,87616,6,0,L|128:272,2,96.5,6|0|8,0:3|0:0|0:0,0:0:0:0:
64,272,88193,2,0,P|32:224|128:144,1,193,4|0,0:0|0:0,0:0:0:0:
272,144,88770,2,0,L|176:144,1,96.5,8|0,0:0|0:0,0:0:0:0:
368,144,89154,6,0,L|464:144,2,96.5,4|0|8,0:0|0:0|0:0,0:0:0:0:
176,176,89731,2,0,L|368:176,1,193,4|4,0:0|0:0,0:0:0:0:
176,208,90308,2,0,L|160:304,1,96.5,8|0,0:0|0:0,0:0:0:0:
432,304,90693,6,0,L|448:208,1,96.5,4|0,0:0|0:0,0:0:0:0:
352,208,91077,1,8,0:0:0:0:
80,304,91270,2,0,P|32:256|128:224,1,193,0|4,0:0|0:0,0:0:0:0:
480,176,91847,2,0,L|384:176,1,96.5,8|0,0:0|0:0,0:0:0:0:
32,176,92231,6,0,L|128:176,1,96.5,4|0,0:0|0:0,0:0:0:0:
384,128,92616,2,0,L|288:128,1,96.5,8|0,0:0|0:0,0:0:0:0:
128,128,93001,2,0,L|224:128,1,96.5,4|0,0:0|0:0,0:0:0:0:
416,80,93385,2,0,L|304:80,1,96.5,8|0,0:0|0:0,0:0:0:0:
64,80,93770,6,0,P|32:128|127:231,1,193,4|8,0:0|0:0,0:0:0:0:
256,208,94347,2,0,P|288:256|196:360,1,193,4|4,0:0|0:0,0:0:0:0:
32,336,94924,2,0,L|160:336,1,96.5,8|0,0:0|0:0,0:0:0:0:
416,80,95308,6,0,P|448:128|352:208,1,193,4|8,0:0|0:0,0:0:0:0:
208,208,95885,2,0,P|176:256|272:336,1,193,4|4,0:0|0:0,0:0:0:0:
384,336,96462,2,0,L|256:336,1,96.5,8|0,0:0|0:0,0:0:0:0:
448,256,96847,6,0,L|352:256,1,96.5,4|0,0:0|0:0,0:0:0:0:
256,256,97231,1,8,0:0:0:0:
448,208,97424,2,0,L|352:208,1,96.5,4|0,0:0|0:0,0:0:0:0:
256,208,97808,1,4,0:0:0:0:
448,160,98001,1,8,0:0:0:0:
399,160,98097,1,0,0:0:0:0:
351,160,98193,1,4,0:0:0:0:
160,192,98385,6,0,L|256:192,1,96.5,0|4,0:0|0:0,0:0:0:0:
352,192,98769,1,8,0:0:0:0:
160,144,98962,2,0,L|256:144,1,96.5,4|0,0:0|0:0,0:0:0:0:
352,144,99346,1,4,0:0:0:0:
160,96,99539,1,8,0:0:0:0:
208,96,99635,1,0,0:0:0:0:
256,96,99731,1,4,0:0:0:0:
64,96,99924,6,0,L|32:192,1,96.5,0|4,0:0|0:0,0:0:0:0:
448,96,100308,2,0,L|480:192,1,96.5,8|4,0:0|0:0,0:0:0:0:
112,192,100693,2,0,L|224:192,1,96.5,0|4,0:0|0:0,0:0:0:0:
400,192,101077,2,0,L|288:192,1,96.5,8|0,0:0|0:0,0:0:0:0:
112,192,101462,6,0,L|208:192,2,96.5,4|8|8,0:0|0:0|0:0,0:0:0:0:
304,160,102039,2,0,L|352:160,1,48.25,4|4,0:0|0:0,0:0:0:0:
304,112,102231,1,8,0:0:0:0:
259,126,102327,1,8,0:0:0:0:
223,158,102423,1,0,0:0:0:0:
204,202,102519,1,0,0:0:0:0:
204,250,102615,1,8,0:0:0:0:
223,293,102711,1,0,0:0:0:0:
259,325,102807,1,8,0:0:0:0:
304,340,102904,1,8,0:0:0:0:
128,336,103001,6,0,P|80:288|160:240,1,160.19000232209,2|4,0:3|0:3,0:0:0:0:
208,208,103577,1,0,0:0:0:0:
368,176,103770,2,0,L|192:176,1,160.19000232209,4|4,0:0|0:0,0:0:0:0:
288,128,104347,1,0,0:0:0:0:
128,128,104539,6,0,P|80:160|144:224,1,160.19000232209,4|4,0:0|0:3,0:0:0:0:
288,224,105116,2,0,L|112:224,1,160.19000232209
256,272,105693,2,0,L|336:272,1,80.0950011610451,4|0,0:0|0:0,0:0:0:0:
176,272,106077,6,4,L|336:272,1,160.19000232209,4|4,0:0|0:3,0:0:0:0:
256,208,106654,1,0,0:0:0:0:
416,176,106847,2,0,L|224:176,1,160.19000232209,4|4,0:0|0:0,0:0:0:0:
336,128,107424,1,0,0:0:0:0:
176,128,107616,6,0,L|160:208,1,80.0950011610451,4|0,0:0|0:0,0:0:0:0:
288,208,108001,2,0,L|304:128,1,80.0950011610451,4|0,0:3|0:0,0:0:0:0:
144,128,108385,2,0,L|128:208,1,80.0950011610451,4|0,0:0|0:0,0:0:0:0:
321,206,108770,2,0,L|336:127,1,80.0950011610451,4|0,0:0|0:0,0:0:0:0:
208,96,109154,6,0,L|384:96,1,160.19000232209,4|4,0:0|0:3,0:0:0:0:
288,48,109731,1,0,0:0:0:0:
448,64,109924,2,0,L|288:64,1,160.19000232209,4|4,0:0|0:0,0:0:0:0:
368,96,110501,1,0,0:0:0:0:
208,96,110693,6,0,L|192:192,1,80.0950011610451,4|0,0:0|0:0,0:0:0:0:
384,176,111077,2,0,L|400:272,1,80.0950011610451,4|0,0:3|0:0,0:0:0:0:
240,256,111462,2,0,L|224:352,1,80.0950011610451,4|0,0:0|0:0,0:0:0:0:
416,272,111847,2,0,L|432:368,1,80.0950011610451,4|0,0:0|0:0,0:0:0:0:
144,352,112231,6,0,P|80:320|32:224,1,160.19000232209,4|4,0:0|0:3,0:0:0:0:
96,208,112808,1,0,0:0:0:0:
256,208,113001,2,0,P|320:176|368:80,1,160.19000232209,4|4,0:0|0:0,0:0:0:0:
304,80,113578,1,0,0:0:0:0:
176,48,113770,6,0,L|256:48,1,80.0950011610451,4|0,0:0|0:0,0:0:0:0:
96,80,114154,2,0,L|80:160,1,80.0950011610451,4|0,0:3|0:0,0:0:0:0:
272,160,114539,2,0,L|176:160,1,80.0950011610451,4|0,0:0|0:0,0:0:0:0:
448,160,114924,2,0,L|464:80,1,80.0950011610451,4|0,0:0|0:0,0:0:0:0:
192,80,115308,6,0,L|32:80,1,160.19000232209,2|4,0:3|0:3,0:0:0:0:
112,128,115885,1,0,0:0:0:0:
272,128,116077,2,0,L|448:128,1,160.19000232209,4|4,0:0|0:0,0:0:0:0:
352,160,116654,1,0,0:0:0:0:
192,160,116847,6,0,L|176:240,1,80.0950011610451,4|0,0:0|0:0,0:0:0:0:
368,240,117231,2,0,L|464:240,1,80.0950011610451,4|0,0:3|0:0,0:0:0:0:
288,240,117616,2,0,L|208:240,1,80.0950011610451,4|0,0:0|0:0,0:0:0:0:
80,240,118001,2,0,L|176:240,1,80.0950011610451,4|0,0:0|0:0,0:0:0:0:
288,192,118385,6,0,L|128:192,1,160.19000232209,4|4,0:0|0:3,0:0:0:0:
208,144,118962,1,0,0:0:0:0:
368,112,119154,2,0,L|192:112,1,160.19000232209,4|4,0:0|0:0,0:0:0:0:
288,80,119731,1,0,0:0:0:0:
160,80,119924,6,0,L|144:160,1,80.0950011610451,4|0,0:0|0:0,0:0:0:0:
304,160,120308,2,0,L|320:240,1,80.0950011610451,4|0,0:3|0:0,0:0:0:0:
192,224,120693,2,0,L|176:304,1,80.0950011610451,4|0,0:0|0:0,0:0:0:0:
368,288,121077,2,0,L|384:368,1,80.0950011610451,4|0,0:0|0:0,0:0:0:0:
32,352,121462,6,0,P|112:288|176:272,1,160.19000232209,4|4,0:0|0:3,0:0:0:0:
288,272,122039,1,0,0:0:0:0:
480,352,122231,2,0,P|400:288|336:272,1,160.19000232209,4|4,0:0|0:0,0:0:0:0:
224,272,122808,1,0,0:0:0:0:
32,176,123001,6,0,L|128:176,2,80.0950011610451,4|0|4,0:0|0:0|0:3,0:0:0:0:
192,144,123577,2,0,L|32:144,1,160.19000232209
192,176,124154,2,0,L|272:176,1,80.0950011610451,4|0,0:0|0:0,0:0:0:0:
480,176,124539,6,0,L|464:96,1,80.0950011610451,4|0,0:0|0:0,0:0:0:0:
304,96,124924,2,0,L|224:96,1,80.0950011610451,4|0,0:3|0:0,0:0:0:0:
96,96,125308,2,0,L|80:176,1,80.0950011610451,4|0,0:0|0:0,0:0:0:0:
208,192,125693,2,0,L|304:192,1,80.0950011610451,4|0,0:0|0:0,0:0:0:0:
160,208,126077,6,0,P|112:192|160:112,1,160.19000232209,4|4,0:0|0:3,0:0:0:0:
224,80,126654,1,0,0:0:0:0:
64,80,126847,1,4,0:0:0:0:
256,80,127039,1,0,0:0:0:0:
304,80,127135,1,0,0:0:0:0:
256,112,127231,1,0,0:0:0:0:
208,128,127327,1,0,0:0:0:0:
208,160,127423,1,0,0:0:0:0:
256,176,127519,1,0,0:0:0:0:
416,208,127616,6,0,P|448:240|368:304,1,160.19000232209,2|4,0:3|0:3,0:0:0:0:
240,224,128193,2,0,P|192:256|256:320,1,160.19000232209
400,336,128770,2,0,L|288:336,1,80.0950011610451,4|0,0:0|0:0,0:0:0:0:
161,336,129154,6,0,L|241:336,2,80.0950011610451,4|0|4,0:0|0:0|0:3,0:0:0:0:
320,336,129731,2,0,P|388:299|402:223,1,160.19000232209
240,208,130308,2,0,L|144:208,1,80.0950011610451,4|0,0:0|0:0,0:0:0:0:
352,208,130693,6,0,L|336:128,1,80.0950011610451,4|0,0:0|0:0,0:0:0:0:
176,128,131077,2,0,L|96:128,1,80.0950011610451,4|0,0:3|0:0,0:0:0:0:
224,144,131462,2,0,L|240:224,1,80.0950011610451,4|0,0:0|0:0,0:0:0:0:
80,224,131847,2,0,L|160:224,1,80.0950011610451,4|0,0:0|0:0,0:0:0:0:
32,224,132231,6,0,L|48:304,1,80.0950011610451,4|0,0:0|0:0,0:0:0:0:
240,304,132616,2,0,L|336:304,1,80.0950011610451,4|0,0:3|0:0,0:0:0:0:
160,304,133001,2,0,L|80:304,1,80.0950011610451,4|0,0:0|0:0,0:0:0:0:
272,272,133385,2,0,L|352:272,1,80.0950011610451,4|0,0:3|0:0,0:0:0:0:
80,272,133770,6,0,P|48:224|128:176,1,160.19000232209,4|4,0:0|0:3,0:0:0:0:
208,176,134347,1,0,0:0:0:0:
480,128,134539,2,0,L|320:128,1,160.19000232209,4|4,0:0|0:0,0:0:0:0:
192,128,135116,1,0,0:0:0:0:
32,128,135308,6,0,L|48:208,1,80.0950011610451,4|0,0:0|0:0,0:0:0:0:
336,224,135693,2,0,L|320:304,1,80.0950011610451,4|0,0:3|0:0,0:0:0:0:
160,304,136077,2,0,L|256:304,1,80.0950011610451,4|0,0:0|0:0,0:0:0:0:
112,272,136462,2,0,L|96:352,1,80.0950011610451,4|0,0:0|0:0,0:0:0:0:
352,336,136847,6,0,P|400:304|336:240,1,160.19000232209,4|4,0:0|0:3,0:0:0:0:
256,208,137424,1,0,0:0:0:0:
80,208,137616,2,0,P|32:176|96:112,1,160.19000232209,4|4,0:0|0:0,0:0:0:0:
176,96,138193,1,0,0:0:0:0:
352,96,138385,6,0,L|432:96,1,80.0950011610451,4|0,0:0|0:0,0:0:0:0:
272,112,138770,2,0,L|256:192,1,80.0950011610451,4|0,0:3|0:0,0:0:0:0:
128,192,139154,2,0,L|48:192,1,80.0950011610451,4|0,0:0|0:0,0:0:0:0:
208,208,139539,2,0,L|224:288,1,80.0950011610451,4|0,0:0|0:0,0:0:0:0:
480,288,139924,6,0,L|304:288,1,160.19000232209,2|4,0:3|0:3,0:0:0:0:
480,224,140501,2,0,L|304:224,1,160.19000232209
480,160,141077,2,0,L|400:160,1,80.0950011610451,4|0,0:0|0:0,0:0:0:0:
208,192,141462,6,0,L|384:192,1,160.19000232209,4|4,0:0|0:3,0:0:0:0:
208,144,142039,2,0,L|384:144,1,160.19000232209
208,96,142615,2,0,L|288:96,1,80.0950011610451,4|0,0:0|0:0,0:0:0:0:
112,96,143001,6,0,L|96:176,1,80.0950011610451,4|0,0:0|0:0,0:0:0:0:
256,176,143385,2,0,L|160:176,1,80.0950011610451,4|0,0:3|0:0,0:0:0:0:
368,176,143770,2,0,L|384:256,1,80.0950011610451,4|0,0:0|0:0,0:0:0:0:
224,256,144154,2,0,L|304:256,1,80.0950011610451,4|0,0:0|0:0,0:0:0:0:
144,256,144539,6,0,L|128:176,1,80.0950011610451,4|0,0:0|0:0,0:0:0:0:
320,176,144924,2,0,L|336:96,1,80.0950011610451,4|0,0:3|0:0,0:0:0:0:
192,176,145308,2,0,L|176:96,1,80.0950011610451,4|0,0:0|0:0,0:0:0:0:
368,256,145693,2,0,L|384:176,1,80.0950011610451,4|0,0:0|0:0,0:0:0:0:
112,176,146077,6,0,P|64:192|112:272,1,160.19000232209,4|4,0:0|0:3,0:0:0:0:
256,288,146654,1,0,0:0:0:0:
416,256,146847,2,0,P|464:272|416:352,1,160.19000232209,4|4,0:0|0:0,0:0:0:0:
272,352,147424,1,0,0:0:0:0:
112,352,147616,6,0,L|32:352,1,80.0950011610451,4|0,0:0|0:0,0:0:0:0:
192,304,148001,2,0,L|112:304,3,80.0950011610451,4|0|4|0,0:3|0:0|0:0|0:0,0:0:0:0:
304,256,148770,2,0,L|224:256,1,80.0950011610451,4|0,0:0|0:0,0:0:0:0:
416,208,149154,6,0,P|416:160|336:64,1,160.19000232209,4|4,0:0|0:3,0:0:0:0:
256,64,149731,1,0,0:0:0:0:
96,208,149924,2,0,P|96:160|176:64,1,160.19000232209,4|4,0:0|0:0,0:0:0:0:
256,64,150501,1,0,0:0:0:0:
416,96,150693,6,0,L|400:176,1,80.0950011610451,4|0,0:0|0:0,0:0:0:0:
272,192,151077,2,0,L|176:192,1,80.0950011610451,4|0,0:3|0:0,0:0:0:0:
32,192,151462,2,0,L|48:112,1,80.0950011610451,4|0,0:0|0:0,0:0:0:0:
240,112,151847,1,4,0:3:0:0:
280,112,151943,1,0,0:3:0:0:
320,112,152039,1,0,0:0:0:0:
64,112,152231,6,0,P|32:160|112:224,1,160.19000232209,2|4,0:3|0:3,0:0:0:0:
176,224,152808,1,0,0:0:0:0:
48,272,153001,2,0,L|144:272,1,80.0950011610451,4|0,0:0|0:0,0:0:0:0:
288,272,153385,2,0,L|176:272,1,80.0950011610451,4|0,0:3|0:0,0:0:0:0:
336,272,153770,6,0,P|393:224|363:156,1,160.19000232209,4|4,0:0|0:3,0:0:0:0:
288,144,154347,1,0,0:0:0:0:
160,128,154539,2,0,L|240:128,1,80.0950011610451,4|0,0:0|0:0,0:0:0:0:
400,128,154924,2,0,L|320:128,1,80.0950011610451,4|0,0:3|0:0,0:0:0:0:
128,128,155308,6,0,P|96:160|176:224,1,160.19000232209,4|4,0:0|0:3,0:0:0:0:
240,224,155885,1,0,0:0:0:0:
80,256,156077,2,0,L|176:256,1,80.0950011610451,4|0,0:0|0:0,0:0:0:0:
352,256,156462,2,0,L|256:256,1,80.0950011610451,4|0,0:3|0:0,0:0:0:0:
464,256,156847,6,0,P|480:208|384:160,1,160.19000232209,4|4,0:0|0:3,0:0:0:0:
320,160,157424,1,0,0:0:0:0:
480,112,157616,2,0,L|384:112,1,80.0950011610451,4|0,0:0|0:0,0:0:0:0:
208,112,158001,2,0,L|288:112,1,80.0950011610451,4|0,0:3|0:0,0:0:0:0:
32,128,158385,6,0,L|16:208,1,80.0950011610451,4|0,0:0|0:0,0:0:0:0:
144,192,158770,2,0,L|160:272,1,80.0950011610451,4|0,0:3|0:0,0:0:0:0:
320,272,159154,2,0,L|304:352,1,80.0950011610451,4|0,0:0|0:0,0:0:0:0:
464,272,159539,2,0,L|480:352,1,80.0950011610451,4|0,0:3|0:0,0:0:0:0:
48,272,159924,6,0,L|32:352,1,80.0950011610451,4|0,0:3|0:0,0:0:0:0:
464,272,160308,2,0,L|480:352,1,80.0950011610451,4|0,0:3|0:0,0:0:0:0:
288,352,160693,1,4,0:3:0:0:
248,351,160789,1,4,0:3:0:0:
217,327,160885,1,0,0:0:0:0:
205,290,160981,1,0,0:0:0:0:
217,252,161077,1,4,0:3:0:0:
249,229,161173,1,0,0:0:0:0:
289,230,161269,1,4,0:3:0:0:
32,224,161462,5,2,0:3:0:0:
160,176,170308,5,4,0:3:0:0:
448,176,170693,5,2,0:3:0:0:
352,176,171077,1,4,0:0:0:0:
256,176,171462,1,4,0:0:0:0:
160,176,171847,1,4,0:0:0:0:
64,176,172231,5,4,0:0:0:0:
160,176,172616,1,4,0:0:0:0:
256,176,173001,1,4,0:0:0:0:
352,176,173385,1,4,0:0:0:0:
64,176,173770,5,4,0:0:0:0:
160,176,174154,1,4,0:0:0:0:
256,176,174539,1,4,0:0:0:0:
352,176,174924,1,4,0:0:0:0:
448,176,175308,5,4,0:0:0:0:
352,176,175693,1,4,0:0:0:0:
256,176,176078,1,4,0:0:0:0:
160,176,176462,1,4,0:0:0:0:
480,176,176847,6,0,L|464:336,1,160.19000232209,4|4,0:0|0:0,0:0:0:0:
128,176,177616,2,0,L|144:336,1,160.19000232209,4|4,0:0|0:0,0:0:0:0:
384,336,178385,5,4,0:0:0:0:
128,176,178770,1,4,0:0:0:0:
464,336,179154,2,0,L|480:176,1,160.19000232209,4|4,0:0|0:0,0:0:0:0:
128,176,179924,5,4,0:0:0:0:
384,192,180308,2,0,L|240:80,2,160.19000232209,4|4|4,0:0|0:0|0:0,0:0:0:0:
32,336,181462,6,0,L|48:176,1,160.19000232209,4|4,0:0|0:0,0:0:0:0:
384,336,182231,2,0,L|368:176,1,160.19000232209,4|4,0:0|0:3,0:0:0:0:
144,176,183001,6,0,L|160:256,1,80.0950011610451,2|0,0:3|0:0,0:0:0:0:
320,240,183385,2,0,L|336:320,1,80.0950011610451,4|0,0:0|0:0,0:0:0:0:
208,272,183770,2,0,L|224:352,1,80.0950011610451,4|0,0:0|0:0,0:0:0:0:
384,272,184154,2,0,L|400:352,1,80.0950011610451,4|0,0:0|0:0,0:0:0:0:
256,352,184539,6,0,L|336:352,1,80.0950011610451,4|0,0:0|0:0,0:0:0:0:
480,336,184924,2,0,L|400:336,1,80.0950011610451,4|0,0:0|0:0,0:0:0:0:
256,304,185308,2,0,L|176:304,1,80.0950011610451,4|0,0:0|0:0,0:0:0:0:
32,224,185693,2,0,L|112:224,1,80.0950011610451,4|0,0:0|0:0,0:0:0:0:
256,128,186077,6,0,L|240:208,1,80.0950011610451,4|0,0:0|0:0,0:0:0:0:
112,208,186461,2,0,L|96:288,1,80.0950011610451,4|0,0:0|0:0,0:0:0:0:
256,272,186847,2,0,L|240:352,1,80.0950011610451,4|0,0:0|0:0,0:0:0:0:
112,272,187231,2,0,L|96:352,1,80.0950011610451,4|0,0:0|0:0,0:0:0:0:
256,352,187616,6,0,L|176:352,1,80.0950011610451,4|0,0:0|0:0,0:0:0:0:
32,336,188001,2,0,L|112:336,1,80.0950011610451,4|0,0:0|0:0,0:0:0:0:
256,320,188385,2,0,L|176:320,1,80.0950011610451,4|0,0:0|0:0,0:0:0:0:
480,224,188770,2,0,L|400:224,1,80.0950011610451,4|0,0:3|0:0,0:0:0:0:
256,224,189154,6,0,L|336:224,1,80.0950011610451,4|0,0:0|0:0,0:0:0:0:
176,224,189539,2,0,L|160:144,1,80.0950011610451,4|0,0:0|0:0,0:0:0:0:
320,145,189924,2,0,L|336:225,1,80.0950011610451,4|0,0:0|0:0,0:0:0:0:
208,224,190308,2,0,L|192:144,1,80.0950011610451,4|0,0:0|0:0,0:0:0:0:
320,128,190693,6,0,L|416:128,1,80.0950011610451,4|0,0:0|0:0,0:0:0:0:
272,128,191077,2,0,L|256:208,1,80.0950011610451,4|0,0:0|0:0,0:0:0:0:
128,256,191462,2,0,L|304:256,2,160.19000232209,4|4|4,0:0|0:0|0:0,0:0:0:0:
384,256,192616,6,0,L|208:256,2,160.19000232209,4|4|4,0:0|0:0|0:0,0:0:0:0:
128,256,193770,6,0,P|144:192|240:160,1,160.19000232209,4|8,0:0|0:0,0:0:0:0:
384,256,194347,2,0,P|368:192|272:160,1,160.19000232209,4|4,0:0|0:0,0:0:0:0:
240,128,194827,1,12,0:0:0:0:
288,128,194924,1,8,0:0:0:0:
336,144,195020,1,8,0:0:0:0:
337,182,195116,1,4,0:0:0:0:
288,192,195212,1,4,0:0:0:0:
128,160,195308,6,0,P|48:240|32:368,1,240.285003483135,2|4,0:3|0:0,0:0:0:0:
192,192,196077,2,0,L|432:192,1,240.285003483135,8|4,0:0|0:0,0:0:0:0:
272,192,196847,6,0,L|256:272,1,80.0950011610451,4|0,0:0|0:0,0:0:0:0:
416,272,197231,2,0,L|432:352,1,80.0950011610451,8|0,0:0|0:0,0:0:0:0:
176,192,197616,2,0,L|160:272,1,80.0950011610451,0|4,0:0|0:0,0:0:0:0:
320,272,198000,2,0,L|336:352,1,80.0950011610451,8|0,0:0|0:0,0:0:0:0:
80,352,198385,6,0,P|48:320|128:272,1,160.19000232209,4|0,0:0|0:0,0:0:0:0:
208,256,198962,1,4,0:0:0:0:
464,224,199154,2,0,L|304:224,1,160.19000232209,8|0,0:0|0:0,0:0:0:0:
208,224,199731,1,4,0:0:0:0:
32,160,199924,6,0,L|48:240,1,80.0950011610451,4|0,0:0|0:0,0:0:0:0:
176,240,200308,2,0,L|160:320,1,80.0950011610451,8|0,0:0|0:0,0:0:0:0:
320,272,200693,2,0,L|336:352,1,80.0950011610451,4|0,0:0|0:0,0:0:0:0:
496,272,201077,2,0,L|480:352,1,80.0950011610451,8|0,0:0|0:0,0:0:0:0:
208,352,201462,6,0,L|32:352,1,160.19000232209,4|0,0:1|0:0,0:0:0:0:
304,352,202039,2,0,L|480:352,1,160.19000232209,4|0,0:0|0:0,0:0:0:0:
208,320,202616,2,0,L|112:320,1,80.0950011610451,8|0,0:0|0:0,0:0:0:0:
464,320,203001,6,0,L|480:240,1,80.0950011610451,4|0,0:0|0:0,0:0:0:0:
288,208,203385,2,0,L|208:208,1,80.0950011610451,8|0,0:0|0:0,0:0:0:0:
48,208,203770,2,0,L|64:128,1,80.0950011610451,4|0,0:0|0:0,0:0:0:0:
192,128,204154,2,0,L|288:128,1,80.0950011610451,8|0,0:0|0:0,0:0:0:0:
464,160,204539,6,0,L|288:160,1,160.19000232209,4|0,0:0|0:0,0:0:0:0:
208,160,205116,1,4,0:0:0:0:
64,160,205308,2,0,L|240:160,1,160.19000232209,8|0,0:0|0:0,0:0:0:0:
303,160,205885,1,4,0:0:0:0:
144,192,206077,6,0,L|128:272,1,80.0950011610451,4|0,0:0|0:0,0:0:0:0:
320,256,206462,2,0,L|336:336,1,80.0950011610451,8|0,0:0|0:0,0:0:0:0:
176,256,206847,2,0,L|160:336,1,80.0950011610451,4|0,0:0|0:0,0:0:0:0:
288,272,207231,2,0,L|304:352,1,80.0950011610451,8|0,0:0|0:0,0:0:0:0:
33,246,207616,6,0,P|74:314|144:352,1,160.19000232209,4|0,0:1|0:0,0:0:0:0:
240,352,208193,1,4,0:0:0:0:
400,240,208385,2,0,P|359:307|289:345,1,160.19000232209,8|0,0:0|0:0,0:0:0:0:
192,336,208962,1,4,0:0:0:0:
48,224,209154,6,0,L|32:304,1,80.0950011610451,4|0,0:0|0:0,0:0:0:0:
112,256,209539,2,0,L|128:336,1,80.0950011610451
256,256,209924,2,0,L|176:256,1,80.0950011610451,12|0,0:0|0:0,0:0:0:0:
48,256,210308,2,0,L|128:256,1,80.0950011610451,4|0,0:0|0:0,0:0:0:0:
400,256,210693,6,0,P|464:256|448:176,1,160.19000232209,4|4,0:1|0:0,0:0:0:0:
320,176,211270,2,0,L|224:176,1,80.0950011610451,4|8,0:0|0:0,0:0:0:0:
400,112,211654,2,0,L|320:112,2,80.0950011610451,4|0|0,0:0|0:0|0:0,0:0:0:0:
240,112,212231,6,0,P|192:144|224:240,1,160.19000232209,4|4,0:0|0:0,0:0:0:0:
368,256,212808,2,0,L|272:256,1,80.0950011610451,0|8,0:0|0:0,0:0:0:0:
128,256,213193,1,0,0:0:0:0:
288,304,213385,2,0,L|384:304,1,80.0950011610451
208,320,213770,6,0,P|160:336|112:272,1,120.142501741568,8|4,0:0|0:0,0:0:0:0:
192,240,214154,2,0,L|272:240,1,80.0950011610451,8|4,0:0|0:0,0:0:0:0:
80,240,214539,1,8,0:0:0:0:
49,214,214635,1,8,0:0:0:0:
32,178,214731,1,4,0:0:0:0:
33,139,214827,1,4,0:0:0:0:
50,103,214923,1,8,0:0:0:0:
82,79,215019,1,4,0:0:0:0:
120,70,215115,1,8,0:0:0:0:
159,79,215212,1,8,0:0:0:0:
336,160,215308,6,0,L|448:160,1,96.5,6|0,0:3|0:0,0:0:0:0:
496,240,215693,1,8,0:0:0:0:
304,240,215885,2,0,L|192:240,1,96.5,4|0,0:0|0:0,0:0:0:0:
144,336,216270,1,4,0:0:0:0:
336,336,216462,2,0,L|432:336,1,96.5,8|0,0:0|0:0,0:0:0:0:
240,160,216847,6,0,L|128:160,1,96.5,4|0,0:0|0:0,0:0:0:0:
80,240,217232,1,8,0:0:0:0:
272,240,217424,2,0,L|384:240,1,96.5,4|0,0:0|0:0,0:0:0:0:
432,336,217809,1,4,0:0:0:0:
240,320,218001,2,0,L|128:320,1,96.5,8|0,0:0|0:0,0:0:0:0:
336,320,218385,6,0,L|448:320,2,96.5,4|0|8,0:0|0:0|0:0,0:0:0:0:
143,320,218962,2,0,L|31:320,2,96.5,4|0|4,0:0|0:0|0:0,0:0:0:0:
432,272,219539,2,0,L|448:176,1,96.5,8|0,0:0|0:0,0:0:0:0:
80,272,219924,6,0,L|64:176,1,96.5,4|0,0:0|0:0,0:0:0:0:
336,208,220308,2,0,L|352:112,1,96.5,8|0,0:0|0:0,0:0:0:0:
176,208,220693,2,0,L|160:112,1,96.5,4|0,0:0|0:0,0:0:0:0:
336,208,221077,2,0,L|352:112,1,96.5,8|0,0:0|0:0,0:0:0:0:
96,128,221462,6,0,P|48:192|135:266,1,193,4|8,0:0|0:0,0:0:0:0:
272,288,222039,2,0,L|384:288,2,96.5,4|0|0,0:0|0:0|0:0,0:0:0:0:
80,304,222616,2,0,L|176:304,1,96.5,8|0,0:0|0:0,0:0:0:0:
368,288,223001,6,0,L|176:288,1,193,4|8,0:0|0:0,0:0:0:0:
368,240,223577,2,0,L|480:240,2,96.5,4|0|4,0:0|0:0|0:0,0:0:0:0:
208,240,224154,2,0,L|320:240,1,96.5,8|0,0:0|0:0,0:0:0:0:
112,240,224539,6,0,L|96:144,1,96.5,4|0,0:0|0:0,0:0:0:0:
192,144,224924,1,8,0:0:0:0:
352,144,225116,2,0,L|160:144,1,193,4|4,0:0|0:0,0:0:0:0:
320,224,225693,2,0,L|224:224,1,96.5,8|0,0:0|0:0,0:0:0:0:
64,224,226077,6,0,L|176:224,1,96.5,4|0,0:0|0:0,0:0:0:0:
320,208,226462,2,0,L|208:208,1,96.5,8|0,0:0|0:0,0:0:0:0:
384,272,226847,1,12,0:0:0:0:
426,252,226943,1,8,0:0:0:0:
431,206,227039,1,4,0:0:0:0:
395,177,227135,1,4,0:0:0:0:
304,160,227231,2,0,L|192:160,1,96.5,8|0,0:0|0:0,0:0:0:0:
480,160,227616,6,0,L|464:256,1,96.5,6|0,0:3|0:0,0:0:0:0:
368,256,228001,1,8,0:0:0:0:
208,224,228193,2,0,L|224:320,1,96.5,4|0,0:0|0:0,0:0:0:0:
320,320,228578,1,4,0:0:0:0:
480,352,228770,2,0,L|368:352,1,96.5,8|0,0:0|0:0,0:0:0:0:
32,352,229154,6,0,L|48:256,1,96.5,4|0,0:0|0:0,0:0:0:0:
144,256,229539,1,8,0:0:0:0:
304,288,229731,2,0,L|288:192,1,96.5,4|0,0:0|0:0,0:0:0:0:
192,192,230116,1,0,0:0:0:0:
32,160,230308,2,0,L|144:160,1,96.5,8|0,0:0|0:0,0:0:0:0:
464,192,230693,6,0,L|368:192,1,96.5,4|0,0:0|0:0,0:0:0:0:
208,192,231077,1,8,0:0:0:0:
48,192,231270,2,0,L|160:192,1,96.5
304,192,231654,1,4,0:0:0:0:
464,144,231847,2,0,L|368:144,1,96.5,8|0,0:0|0:0,0:0:0:0:
48,144,232231,6,0,L|144:144,1,96.5,4|0,0:0|0:0,0:0:0:0:
400,112,232616,2,0,L|288:112,1,96.5,8|0,0:0|0:0,0:0:0:0:
112,112,233001,2,0,L|224:112,1,96.5,4|0,0:0|0:0,0:0:0:0:
480,112,233385,2,0,L|368:112,1,96.5,8|0,0:0|0:0,0:0:0:0:
64,112,233770,6,0,L|256:112,1,193,4|8,0:0|0:0,0:0:0:0:
96,160,234347,2,0,L|64:256,1,96.5,4|0,0:0|0:0,0:0:0:0:
160,256,234731,1,4,0:0:0:0:
320,256,234924,2,0,L|224:256,1,96.5,8|0,0:0|0:0,0:0:0:0:
416,256,235308,6,0,P|464:208|368:160,1,193,4|8,0:0|0:0,0:0:0:0:
224,144,235885,2,0,L|320:144,2,96.5,4|0|4,0:0|0:0|0:0,0:0:0:0:
64,144,236462,2,0,L|160:144,1,96.5,8|0,0:0|0:0,0:0:0:0:
320,144,236847,6,0,L|304:240,1,96.5,4|0,0:0|0:0,0:0:0:0:
144,240,237231,2,0,L|32:240,1,96.5,8|4,0:0|0:0,0:0:0:0:
208,240,237616,2,0,L|320:240,1,96.5,0|4,0:0|0:0,0:0:0:0:
144,272,238001,2,0,L|48:272,1,96.5,8|0,0:0|0:0,0:0:0:0:
368,272,238385,6,0,L|384:176,1,96.5,4|0,0:0|0:0,0:0:0:0:
224,176,238769,2,0,L|112:176,1,96.5,8|4,0:0|0:0,0:0:0:0:
288,128,239154,2,0,L|400:128,1,96.5,0|4,0:0|0:0,0:0:0:0:
224,128,239539,2,0,L|128:128,1,96.5,8|0,0:0|0:0,0:0:0:0:
464,288,239924,6,0,L|480:192,1,96.5,4|0,0:0|0:0,0:0:0:0:
48,288,240308,2,0,L|32:192,1,96.5,8|4,0:0|0:0,0:0:0:0:
304,224,240693,2,0,L|416:224,1,96.5,0|4,0:0|0:0,0:0:0:0:
208,224,241077,2,0,L|96:224,1,96.5,8|0,0:0|0:0,0:0:0:0:
304,176,241462,5,4,0:0:0:0:
112,176,241654,1,8,0:0:0:0:
66,162,241750,1,0,0:0:0:0:
43,121,241846,1,8,0:0:0:0:
55,75,241942,1,8,0:0:0:0:
95,51,242038,1,4,0:0:0:0:
141,60,242134,1,4,0:0:0:0:
224,64,242231,6,0,L|208:112,1,48.25,8|8,0:0|0:0,0:0:0:0:
144,112,242424,2,0,L|128:160,1,48.25,4|4,0:0|0:0,0:0:0:0:
208,160,242616,2,0,L|304:160,1,96.5,8|0,0:0|0:0,0:0:0:0:
32,224,243001,6,0,L|128:224,1,96.5,6|0,0:3|0:0,0:0:0:0:
304,224,243385,1,8,0:0:0:0:
480,192,243577,2,0,L|368:192,1,96.5,4|0,0:0|0:0,0:0:0:0:
208,192,243962,1,0,0:0:0:0:
32,288,244154,2,0,L|128:288,1,96.5,8|0,0:0|0:0,0:0:0:0:
480,224,244539,6,0,L|384:224,1,96.5,4|0,0:0|0:0,0:0:0:0:
208,224,244923,1,8,0:0:0:0:
32,192,245115,2,0,L|144:192,1,96.5,4|0,0:0|0:0,0:0:0:0:
304,192,245500,1,4,0:0:0:0:
480,160,245692,2,0,L|384:160,1,96.5,8|0,0:0|0:0,0:0:0:0:
128,176,246077,6,0,L|32:176,1,96.5,4|0,0:0|0:0,0:0:0:0:
208,176,246462,1,8,0:0:0:0:
384,176,246654,2,0,L|480:176,1,96.5
304,160,247039,1,4,0:0:0:0:
128,160,247231,2,0,L|32:160,1,96.5,8|0,0:0|0:0,0:0:0:0:
383,160,247616,6,0,L|479:160,1,96.5,4|0,0:0|0:0,0:0:0:0:
144,208,248001,2,0,L|64:288,1,96.5,8|0,0:0|0:0,0:0:0:0:
352,208,248385,2,0,L|432:288,1,96.5,4|0,0:0|0:0,0:0:0:0:
160,256,248770,2,0,L|144:352,1,96.5,8|0,0:0|0:0,0:0:0:0:
400,96,249154,6,0,L|416:192,1,96.5,4|0,0:0|0:0,0:0:0:0:
240,192,249539,1,8,0:0:0:0:
64,176,249731,2,0,P|90:265|176:300,1,193,4|4,0:0|0:0,0:0:0:0:
368,304,250308,2,0,L|256:304,1,96.5,8|0,0:0|0:0,0:0:0:0:
464,240,250693,6,0,L|480:336,1,96.5,4|0,0:0|0:0,0:0:0:0:
304,352,251077,1,8,0:0:0:0:
128,320,251270,2,0,L|320:320,1,193,4|4,0:0|0:0,0:0:0:0:
160,320,251847,2,0,L|144:224,1,96.5,8|0,0:0|0:0,0:0:0:0:
336,224,252231,6,0,L|240:224,2,96.5,4|0|8,0:0|0:0|0:0,0:0:0:0:
144,192,252808,2,0,L|336:192,1,193,4|4,0:0|0:0,0:0:0:0:
176,176,253385,2,0,L|160:272,1,96.5,8|0,0:0|0:0,0:0:0:0:
304,256,253770,6,0,L|416:256,1,96.5,4|0,0:0|0:0,0:0:0:0:
208,256,254154,2,0,L|96:256,1,96.5,8|0,0:0|0:0,0:0:0:0:
384,144,254539,2,0,L|496:144,1,96.5,12|0,0:0|0:0,0:0:0:0:
224,144,254924,2,0,P|128:176|80:256,1,193,8|6,0:0|0:3,0:0:0:0:
432,192,255693,6,0,L|336:192,2,96.5,8|4|0,0:0|0:0|0:0,0:0:0:0:
272,192,256270,2,0,L|176:192,2,96.5,0|8|0,0:0|0:0|0:0,0:0:0:0:
80,192,256847,6,0,L|272:192,1,193,4|8,0:0|0:0,0:0:0:0:
432,192,257424,2,0,L|336:192,1,96.5,4|0,0:0|0:0,0:0:0:0:
176,192,257808,2,0,L|288:192,2,96.5,4|8|0,0:0|0:0|0:0,0:0:0:0:
432,160,258385,6,0,P|480:208|384:256,1,193,4|8,0:0|0:0,0:0:0:0:
240,256,258962,2,0,L|368:256,2,96.5,0|0|4,0:0|0:0|0:0,0:0:0:0:
48,256,259539,2,0,L|144:256,1,96.5,8|0,0:0|0:0,0:0:0:0:
400,192,259924,6,0,L|304:192,1,96.5,4|0,0:0|0:0,0:0:0:0:
32,192,260308,2,0,L|48:288,1,96.5,8|0,0:0|0:0,0:0:0:0:
240,288,260693,2,0,L|144:288,1,96.5,4|4,0:0|0:0,0:0:0:0:
304,272,261077,2,0,L|320:368,1,96.5,8|0,0:0|0:0,0:0:0:0:
127,352,261462,6,0,P|41:328|45:239,1,193,4|8,0:0|0:0,0:0:0:0:
368,336,262039,2,0,P|454:313|451:224,1,193,4|4,0:0|0:0,0:0:0:0:
192,192,262616,1,8,0:0:0:0:
352,192,262808,6,0,L|368:240,2,48.25,4|4|8,0:0|0:0|0:0,0:0:0:0:
224,240,263193,2,0,L|208:288,2,48.25,8|8|4,0:0|0:0|0:0,0:0:0:0:
384,256,263577,1,8,0:0:0:0:
128,256,263770,2,0,L|320:256,1,193,4|0,0:0|0:0,0:0:0:0:
64,256,264539,5,4,0:1:0:0:
256,192,264635,12,2,278962,0:0:0:0:
