osu file format v12

[General]
AudioFilename: Kalafina - Oblivious.mp3
AudioLeadIn: 0
PreviewTime: 205593
Countdown: 0
SampleSet: Soft
StackLeniency: 0.3
Mode: 0
LetterboxInBreaks: 1
WidescreenStoryboard: 0

[Editor]
DistanceSpacing: 1.8
BeatDivisor: 4
GridSize: 8

[Metadata]
Title:Oblivious
TitleUnicode:Oblivious
Artist:Kalafina
ArtistUnicode:Kalafina
Creator:Melt
Version:Hard
Source:Kara no Kyoukai
Tags:ufotable ANIPLEX Ryougi_Shiki shiki tsukihime Evil_Twilight Wakana Keiko Seventh Heaven type moon
BeatmapID:298251
BeatmapSetID:114188

[Difficulty]
HPDrainRate:6
CircleSize:4
OverallDifficulty:6
ApproachRate:7
SliderMultiplier:1.3
SliderTickRate:1

[Events]
//Background and Video events
0,0,"shiki.jpg",0,0
//Break Periods
2,124193,137493
//Storyboard Layer 0 (Background)
//Storyboard Layer 1 (Fail)
//Storyboard Layer 2 (Pass)
//Storyboard Layer 3 (Foreground)
//Storyboard Sound Samples
//Background Colour Transformations
3,100,163,162,255

[TimingPoints]
1113,480,4,2,1,10,1,0
1113,-200,4,2,1,10,0,0
12873,-200,4,2,1,15,0,0
16473,-133.333333333333,4,2,5,25,0,0
16953,-133.333333333333,4,2,1,25,0,0
18873,-133.333333333333,4,2,1,20,0,0
19113,-133.333333333333,4,2,1,25,0,0
19833,-133.333333333333,4,2,1,15,0,0
21273,-133.333333333333,4,2,1,20,0,0
22233,-133.333333333333,4,2,1,25,0,0
23193,-133.333333333333,4,2,1,30,0,0
24153,-133.333333333333,4,2,5,25,0,0
24633,-133.333333333333,4,2,1,25,0,0
25833,-133.333333333333,4,2,1,15,0,0
26553,-133.333333333333,4,2,1,20,0,0
26793,-133.333333333333,4,2,1,25,0,0
27993,-133.333333333333,4,2,1,20,0,0
29913,-133.333333333333,4,2,1,25,0,0
31833,-100,4,2,5,35,0,0
32073,-100,4,2,2,28,0,0
33033,-100,4,2,2,35,0,0
39513,-100,4,2,5,35,0,0
39753,-100,4,2,2,35,0,0
43353,-100,4,2,0,35,0,0
47193,-100,4,2,0,40,0,0
47673,-100,4,2,2,45,0,0
60633,-100,4,2,2,40,0,0
61113,-100,4,2,2,30,0,0
61593,-100,4,2,2,25,0,0
62073,-100,4,2,2,35,0,0
62553,-86.9565217391304,4,2,5,60,0,1
62793,-86.9565217391304,4,2,3,55,0,1
77913,-100,4,2,5,45,0,0
78153,-100,4,2,2,45,0,0
78633,-100,4,2,2,32,0,0
79593,-100,4,2,2,40,0,0
92793,-100,4,2,2,35,0,0
93273,-100,4,2,2,40,0,0
107673,-100,4,2,2,20,0,0
108153,-100,4,2,2,30,0,0
108633,-86.9565217391304,4,2,5,60,0,1
108873,-86.9565217391304,4,2,3,55,0,1
123993,-100,4,2,5,60,0,0
138393,-133.333333333333,4,2,2,20,0,0
139353,-133.333333333333,4,2,5,30,0,0
140313,-133.333333333333,4,2,2,20,0,0
142233,-133.333333333333,4,2,2,25,0,0
146073,-133.333333333333,4,2,2,30,0,0
149913,-133.333333333333,4,2,2,35,0,0
153753,-100,4,2,2,45,0,0
170073,-100,4,2,5,50,0,0
170313,-100,4,2,2,50,0,0
173913,-100,4,2,2,40,0,0
174273,-100,4,2,2,45,0,0
174633,-100,4,2,2,50,0,0
177753,-100,4,2,5,50,0,0
177993,-100,4,2,2,50,0,0
181593,-100,4,2,2,40,0,0
181953,-100,4,2,2,45,0,0
182313,-100,4,2,2,50,0,0
184473,-100,4,2,2,46,0,0
184953,-100,4,2,2,42,0,0
185433,-100,4,2,2,40,0,0
196953,-100,4,2,6,40,0,0
197433,-100,4,2,2,40,0,0
198513,-100,4,2,2,30,0,0
204633,-100,4,2,2,5,0,0
205593,-100,4,2,2,20,0,0
206073,-100,4,2,2,30,0,0
206553,-86.9565217391304,4,2,6,60,0,1
206793,-86.9565217391304,4,2,4,60,0,1
207993,-86.9565217391304,4,2,4,45,0,1
208233,-86.9565217391304,4,2,4,60,0,1
210393,-86.9565217391304,4,2,6,60,0,1
210633,-86.9565217391304,4,2,4,60,0,1
212313,-86.9565217391304,4,2,4,55,0,1
212793,-86.9565217391304,4,2,4,50,0,1
213273,-86.9565217391304,4,2,4,45,0,1
213753,-86.9565217391304,4,2,4,60,0,1
214233,-86.9565217391304,4,2,6,60,0,1
214473,-86.9565217391304,4,2,4,60,0,1
215673,-86.9565217391304,4,2,4,45,0,1
215913,-86.9565217391304,4,2,4,60,0,1
218073,-86.9565217391304,4,2,6,60,0,1
218313,-86.9565217391304,4,2,4,60,0,1
219993,-86.9565217391304,4,2,4,50,0,1
220473,-86.9565217391304,4,2,4,40,0,1
220953,-86.9565217391304,4,2,4,20,0,1
221433,-86.9565217391304,4,2,4,30,0,1
221793,-100,4,2,1,10,0,0
221913,-86.9565217391304,4,2,6,60,0,1
222153,-86.9565217391304,4,2,4,60,0,1
223353,-86.9565217391304,4,2,4,45,0,1
223593,-86.9565217391304,4,2,4,60,0,1
225753,-86.9565217391304,4,2,6,60,0,1
225993,-86.9565217391304,4,2,4,60,0,1
227673,-86.9565217391304,4,2,4,55,0,1
228153,-86.9565217391304,4,2,4,50,0,1
228633,-86.9565217391304,4,2,4,45,0,1
229113,-86.9565217391304,4,2,4,60,0,1
229593,-86.9565217391304,4,2,6,60,0,1
229833,-86.9565217391304,4,2,4,60,0,1
233433,-86.9565217391304,4,2,6,60,0,1
233673,-86.9565217391304,4,2,4,60,0,1
235353,-86.9565217391304,4,2,4,40,0,1
237273,-100,4,2,5,50,0,0
237513,-100,4,2,3,50,0,0
239913,-100,4,2,3,60,0,0
240153,-100,4,2,3,50,0,0
244953,-100,4,2,5,50,0,0
245193,-100,4,2,3,50,0,0
252633,-100,4,2,5,50,0,0
252753,-100,4,2,3,30,0,0
254553,-100,4,2,3,28,0,0
255513,-100,4,2,3,26,0,0
256473,-100,4,2,3,24,0,0
256953,-100,4,2,3,22,0,0
257433,-100,4,2,3,20,0,0
257673,-100,4,2,3,18,0,0
257913,-100,4,2,3,16,0,0
258033,-100,4,2,3,14,0,0
258153,-100,4,2,3,12,0,0
258273,-100,4,2,3,10,0,0
258393,-100,4,2,3,5,0,0

[Colours]
Combo1 : 255,149,255
Combo2 : 230,230,230
Combo3 : 165,165,165
Combo4 : 90,90,90
Combo5 : 255,98,98

[HitObjects]
133,133,1113,2,0,P|185:106|262:119,1,130,2|0,0:0|0:0,0:0:0:0:
461,133,3033,2,0,P|409:160|332:147,1,130,2|0,0:0|0:0,0:0:0:0:
169,32,4953,6,0,P|142:84|155:161,1,130,0|0,0:0|0:0,0:0:0:0:
150,360,6873,2,0,P|177:308|164:231,1,130,2|0,0:0|0:0,0:0:0:0:
1,115,8793,5,2,0:0:0:0:
190,28,9753,1,0,0:0:0:0:
383,105,10713,2,0,P|437:110|481:91,2,97.5,2|0|0,0:0|0:0|0:0,0:0:0:0:
298,44,12633,37,0,0:0:0:0:
258,113,12873,2,0,L|253:190,1,65,2|0,0:0|0:0,0:0:0:0:
305,237,13593,2,0,L|300:314,1,65,2|0,0:0|0:0,0:0:0:0:
220,367,14553,2,0,P|146:384|90:362,1,130,2|0,0:0|0:0,0:0:0:0:
158,283,15993,1,0,0:0:0:0:
7,249,16473,6,0,L|25:140,1,97.50000371933,2|0,0:0|0:0,0:0:0:0:
105,183,17193,2,0,L|123:74,1,97.50000371933
391,86,18153,2,0,L|407:183,1,97.50000371933
430,267,18873,2,0,L|481:244,2,48.750001859665
306,350,19833,1,0,0:0:0:0:
157,301,20313,6,0,P|173:256|152:197,1,97.50000371933
9,248,21273,2,0,P|54:264|113:243,1,97.50000371933
62,100,22233,2,0,P|46:145|67:204,1,97.50000371933
209,152,23193,2,0,P|164:136|105:157,1,97.50000371933
305,198,24153,38,0,P|350:214|409:193,1,97.50000371933,2|0,0:0|0:0,0:0:0:0:
467,168,24873,2,0,L|454:58,1,97.50000371933,2|0,0:0|0:0,0:0:0:0:
283,20,25833,2,0,L|296:130,1,97.50000371933,2|0,0:0|0:0,0:0:0:0:
279,193,26553,1,0,0:0:0:0:
337,244,26793,1,0,0:0:0:0:
291,307,27033,2,0,P|337:320|397:296,1,97.50000371933,2|0,0:0|0:0,0:0:0:0:
417,236,27753,1,0,0:0:0:0:
457,169,27993,6,0,P|486:198|493:246,2,73.1250027894975,2|0|0,0:0|0:0|0:0,0:0:0:0:
371,88,29073,1,0,0:0:0:0:
256,114,29433,1,0,0:0:0:0:
256,114,29673,1,0,0:0:0:0:
202,57,29913,2,0,P|160:47|114:67,2,73.1250027894975,2|0|0,0:0|0:0|0:0,0:0:0:0:
166,126,30873,1,2,0:0:0:0:
166,126,30993,1,0,0:0:0:0:
166,126,31113,1,2,0:0:0:0:
166,203,31353,2,0,L|165:265,1,48.750001859665
70,295,31833,6,0,L|72:159,1,130,4|0,0:0|0:0,0:0:0:0:
0,103,32553,2,0,B|23:71|63:67|63:67|143:70,1,130,10|8,0:0|0:0,0:0:0:0:
323,32,33513,2,0,P|383:53|469:24,1,130,10|8,0:0|0:0,0:0:0:0:
486,135,34233,1,0,0:0:0:0:
440,228,34473,1,8,0:0:0:0:
508,306,34713,2,0,P|446:327|370:306,1,130,2|0,0:0|0:0,0:0:0:0:
280,321,35433,1,0,0:0:0:0:
280,321,35673,38,0,L|280:210,2,97.5,2|0|2,0:0|0:0|0:0,0:0:0:0:
184,280,36633,2,0,L|184:207,1,65,0|10,0:0|0:0,0:0:0:0:
90,261,37113,2,0,L|90:326,1,65,2|8,0:0|0:0,0:0:0:0:
1,380,37593,1,2,0:0:0:0:
90,261,37953,1,0,0:0:0:0:
37,123,38313,1,2,0:0:0:0:
133,161,38553,1,2,0:0:0:0:
133,161,38673,1,0,0:0:0:0:
133,161,38793,1,10,0:0:0:0:
236,154,39033,2,0,L|268:93,1,65,0|10,0:0|0:0,0:0:0:0:
181,34,39513,6,0,P|117:49|42:24,1,130,2|0,0:0|0:0,0:0:0:0:
0,114,40233,2,0,P|-18:174|9:244,2,130,10|0|10,0:0|0:0|0:0,0:0:0:0:
190,29,41673,1,8,0:0:0:0:
94,70,41913,1,0,0:0:0:0:
81,173,42153,1,8,0:0:0:0:
159,241,42393,2,0,P|216:268|285:261,1,130,2|0,0:0|0:0,0:0:0:0:
348,182,43113,1,8,0:0:0:0:
433,240,43353,1,4,0:0:0:0:
256,192,43473,12,4,47193,0:0:0:0:
256,62,47673,21,0,0:0:0:0:
142,169,48153,2,0,L|104:248,1,65,2|8,0:0|0:0,0:0:0:0:
238,199,48633,2,0,L|228:285,1,65,0|8,0:0|0:0,0:0:0:0:
341,185,49113,2,0,L|363:322,2,130,2|0|2,0:0|0:0|0:0,0:0:0:0:
512,23,50553,21,0,0:0:0:0:
398,44,50793,1,10,0:0:0:0:
282,24,51033,2,0,P|214:40|141:15,1,130,2|0,0:0|0:0,0:0:0:0:
43,0,51753,2,0,P|31:60|66:141,1,130,10|8,0:0|0:0,0:0:0:0:
102,230,52473,2,0,P|123:290|111:353,2,130,2|0|0,0:0|0:0|0:0,0:0:0:0:
102,230,53913,1,0,0:0:0:0:
0,299,54393,53,2,0:0:0:0:
0,299,54633,1,8,0:0:0:0:
0,299,54873,2,0,P|61:320|128:300,1,130,2|0,0:0|0:0,0:0:0:0:
360,341,55833,1,2,0:0:0:0:
471,300,56073,1,8,0:0:0:0:
360,341,56313,1,2,0:0:0:0:
249,300,56553,1,8,0:0:0:0:
249,300,56793,2,0,P|225:235|250:160,2,130,2|0|2,0:0|0:0|0:0,0:0:0:0:
337,231,58233,37,0,0:0:0:0:
337,231,58473,1,10,0:0:0:0:
337,231,58713,2,0,P|349:168|326:108,1,130,2|0,0:0|0:0,0:0:0:0:
228,55,59433,2,0,P|215:118|239:178,1,130,10|8,0:0|0:0,0:0:0:0:
338,231,60153,2,0,P|395:248|479:218,2,130,2|0|0,0:0|0:0|0:0,0:0:0:0:
375,86,61593,2,0,L|392:23,1,65
137,86,62073,2,0,L|119:23,1,65
256,0,62553,6,0,L|256:82,1,74.7500014257431,4|0,0:0|0:0,0:0:0:0:
189,192,63033,1,4,0:0:0:0:
323,192,63273,1,10,0:0:0:0:
323,192,63513,2,0,P|306:226|306:280,2,74.7500014257431,2|10|2,0:0|0:0|0:0,0:0:0:0:
381,71,64233,2,0,P|313:113|225:89,1,149.500002851486,10|8,0:0|0:0,0:0:0:0:
128,39,64953,1,0,0:0:0:0:
15,112,65193,1,8,0:0:0:0:
149,108,65433,6,0,L|173:182,1,74.7500014257431,2|8,0:0|0:0,0:0:0:0:
62,252,65913,2,0,L|38:178,1,74.7500014257431,0|8,0:0|0:0,0:0:0:0:
149,108,66393,2,0,L|201:275,1,149.500002851486,2|4,0:0|0:0,0:0:0:0:
194,251,67113,1,8,0:0:0:0:
62,252,67353,2,0,L|38:178,1,74.7500014257431,2|8,0:0|0:0,0:0:0:0:
194,251,67833,2,0,L|217:322,1,74.7500014257431,2|8,0:0|0:0,0:0:0:0:
383,331,68313,53,2,0:0:0:0:
507,272,68553,1,8,0:0:0:0:
383,331,68793,1,2,0:0:0:0:
400,194,69033,1,8,0:0:0:0:
400,194,69273,2,0,P|356:200|298:179,1,74.7500014257431,2|8,0:0|0:0,0:0:0:0:
200,146,69753,2,0,P|182:92|208:33,1,112.125002138615,2|0,0:0|0:0,0:0:0:0:
264,94,70233,6,0,P|344:102|405:50,1,149.500002851486,2|4,0:0|0:0,0:0:0:0:
312,2,70953,1,8,0:0:0:0:
473,28,71193,2,0,P|480:76|454:124,2,74.7500014257431,2|10|2,0:0|0:0|0:0,0:0:0:0:
362,101,71913,2,0,P|349:175|385:248,1,149.500002851486,10|8,0:0|0:0,0:0:0:0:
379,241,72873,53,0,0:0:0:0:
263,311,73113,2,0,P|197:341|96:310,1,149.500002851486,2|0,0:0|0:0,0:0:0:0:
91,70,74073,2,0,P|157:40|258:71,1,149.500002851486,2|4,0:0|0:0,0:0:0:0:
176,168,74793,1,0,0:0:0:0:
176,168,75033,2,0,P|110:198|9:167,2,149.500002851486,2|0|0,0:0|0:0|0:0,0:0:0:0:
512,346,76713,1,0,0:0:0:0:
499,211,76953,2,0,L|492:136,1,74.7500014257431
391,47,77433,2,0,L|397:121,1,74.7500014257431
313,202,77913,38,0,P|246:219|183:197,1,130,4|4,0:0|0:0,0:0:0:0:
251,118,78633,1,10,0:0:0:0:
60,35,79113,1,8,0:0:0:0:
9,236,79593,2,0,P|-4:295|32:374,1,130,10|8,0:0|0:0,0:0:0:0:
97,291,80313,2,0,L|164:291,1,65,0|10,0:0|0:0,0:0:0:0:
234,216,80793,2,0,L|96:216,1,130,2|0,0:0|0:0,0:0:0:0:
27,145,81513,1,8,0:0:0:0:
101,72,81753,54,0,L|88:9,3,65,2|8|4|8,0:0|0:0|0:0|0:0,0:0:0:0:
263,123,82713,2,0,L|276:186,3,65,2|8|0|8,0:0|0:0|0:0|0:0,0:0:0:0:
41,209,83673,2,0,L|28:146,3,65,2|8|0|8,0:0|0:0|0:0|0:0,0:0:0:0:
203,260,84633,2,0,L|216:323,3,65,2|8|0|8,0:0|0:0|0:0|0:0,0:0:0:0:
317,366,85593,38,0,P|376:384|460:354,1,130,2|4,0:0|0:0,0:0:0:0:
398,267,86313,2,0,P|378:207|404:135,2,130,10|8|10,0:0|0:0|0:0,0:0:0:0:
398,267,87753,1,8,0:0:0:0:
482,207,87993,1,0,0:0:0:0:
396,145,88233,1,10,0:0:0:0:
458,60,88473,2,0,P|391:41|332:61,1,130,2|0,0:0|0:0,0:0:0:0:
232,42,89193,1,8,0:0:0:0:
128,35,89433,54,0,L|44:27,1,65,2|8,0:0|0:0,0:0:0:0:
7,117,89913,2,0,L|91:125,1,65,4|8,0:0|0:0,0:0:0:0:
116,218,90393,2,0,L|32:210,1,65,2|8,0:0|0:0,0:0:0:0:
1,303,90873,2,0,L|65:309,1,65,0|8,0:0|0:0,0:0:0:0:
175,318,91353,1,2,0:0:0:0:
175,318,91593,1,8,0:0:0:0:
337,318,91833,1,0,0:0:0:0:
337,318,92073,1,8,0:0:0:0:
256,256,92313,1,2,0:0:0:0:
256,240,92433,1,0,0:0:0:0:
256,224,92553,1,10,0:0:0:0:
256,128,92793,2,0,L|256:37,1,65,0|8,0:0|0:0,0:0:0:0:
355,47,93273,22,0,P|416:29|483:52,1,130,2|0,0:0|0:0,0:0:0:0:
460,282,94233,2,0,L|480:206,1,65,2|8,0:0|0:0,0:0:0:0:
416,116,94713,2,0,L|396:192,1,65,0|10,0:0|0:0,0:0:0:0:
314,250,95193,2,0,P|306:324|361:384,2,130,2|0|2,0:0|0:0|0:0,0:0:0:0:
300,28,96633,5,0,0:0:0:0:
338,137,96873,1,10,0:0:0:0:
314,250,97113,2,0,P|251:272|171:252,1,130,2|0,0:0|0:0,0:0:0:0:
98,187,97833,2,0,P|70:244|81:307,1,130,10|8,0:0|0:0,0:0:0:0:
197,325,98553,2,0,P|224:267|213:204,2,130,2|0|0,0:0|0:0|0:0,0:0:0:0:
197,325,99993,1,0,0:0:0:0:
0,243,100473,37,0,0:0:0:0:
26,90,100713,1,8,0:0:0:0:
85,180,100953,2,0,P|140:203|215:186,1,130,2|0,0:0|0:0,0:0:0:0:
319,156,101673,1,8,0:0:0:0:
398,69,101913,1,2,0:0:0:0:
492,233,102153,1,8,0:0:0:0:
319,156,102393,1,2,0:0:0:0:
505,117,102633,1,8,0:0:0:0:
378,258,102873,2,0,P|363:322|394:382,2,130,2|0|2,0:0|0:0|0:0,0:0:0:0:
398,69,104313,53,0,0:0:0:0:
505,22,104553,1,10,0:0:0:0:
282,23,104793,2,0,B|264:52|230:65|196:58|196:58|156:46,1,130,2|0,0:0|0:0,0:0:0:0:
52,21,105513,2,0,P|37:79|67:156,1,130,10|8,0:0|0:0,0:0:0:0:
0,246,106233,2,0,P|20:306|5:369,2,130,2|0|0,0:0|0:0|0:0,0:0:0:0:
205,132,107673,2,0,L|280:145,1,65
123,278,108153,2,0,L|198:291,1,65
357,243,108633,22,0,L|437:259,1,74.7500014257431,4|8,0:0|0:0,0:0:0:0:
270,227,109113,1,4,0:0:0:0:
137,201,109353,1,10,0:0:0:0:
225,99,109593,2,0,P|231:63|214:13,2,74.7500014257431,2|10|2,0:0|0:0|0:0,0:0:0:0:
270,227,110313,2,0,P|335:257|420:231,1,149.500002851486,10|8,0:0|0:0,0:0:0:0:
350,118,111033,1,0,0:0:0:0:
350,118,111273,53,8,0:0:0:0:
499,93,111513,2,0,L|516:-1,1,74.7500014257431,2|8,0:0|0:0,0:0:0:0:
263,93,111993,2,0,L|246:-1,1,74.7500014257431,0|8,0:0|0:0,0:0:0:0:
350,118,112473,2,0,P|360:190|320:251,1,149.500002851486,2|4,0:0|0:0,0:0:0:0:
191,211,113193,1,8,0:0:0:0:
73,276,113433,2,0,L|-13:287,1,74.7500014257431,2|8,0:0|0:0,0:0:0:0:
34,89,113913,2,0,L|120:78,1,74.7500014257431,2|8,0:0|0:0,0:0:0:0:
238,43,114393,5,2,0:0:0:0:
355,134,114633,1,8,0:0:0:0:
237,51,114873,1,2,0:0:0:0:
451,74,115113,1,8,0:0:0:0:
236,58,115353,2,0,L|248:153,1,74.7500014257431,2|8,0:0|0:0,0:0:0:0:
143,222,115833,54,0,P|125:263|154:332,1,112.125002138615,2|0,0:0|0:0,0:0:0:0:
199,272,116313,2,0,P|276:258|347:299,1,149.500002851486,2|4,0:0|0:0,0:0:0:0:
446,368,117033,1,10,0:0:0:0:
477,238,117273,2,0,L|501:136,2,74.7500014257431,2|10|2,0:0|0:0|0:0,0:0:0:0:
337,288,117993,2,0,P|270:257|199:272,1,149.500002851486,10|8,0:0|0:0,0:0:0:0:
199,272,118953,5,8,0:0:0:0:
117,378,119193,2,0,L|22:367,1,74.7500014257431,2|8,0:0|0:0,0:0:0:0:
0,241,119673,2,0,L|74:232,1,74.7500014257431,0|8,0:0|0:0,0:0:0:0:
121,106,120153,2,0,P|186:136|281:107,1,149.500002851486,2|4,0:0|0:0,0:0:0:0:
260,122,120873,1,0,0:0:0:0:
393,136,121113,2,0,P|385:62|337:7,1,149.500002851486,2|0,0:0|0:0,0:0:0:0:
337,7,121833,1,0,0:0:0:0:
260,122,122073,54,0,P|267:195|315:250,1,149.500002851486,2|0,0:0|0:0,0:0:0:0:
316,250,122793,1,0,0:0:0:0:
393,136,123033,2,0,L|474:111,1,74.7500014257431,2|0,0:0|0:0,0:0:0:0:
260,122,123513,2,0,L|179:147,1,74.7500014257431,2|0,0:0|0:0,0:0:0:0:
71,138,123993,1,4,0:0:0:0:
199,235,138393,38,0,L|222:344,2,97.50000371933,2|0|4,0:0|0:0|0:0,0:0:0:0:
313,149,140313,2,0,L|290:40,2,97.50000371933,2|0|0,0:0|0:0|0:0,0:0:0:0:
175,241,142233,6,0,L|178:352,2,97.50000371933,2|0|0,0:0|0:0|0:0,0:0:0:0:
337,143,144153,2,0,L|333:31,2,97.50000371933,2|0|0,0:0|0:0|0:0,0:0:0:0:
143,239,146073,38,0,L|127:349,2,97.50000371933,2|0|0,0:0|0:0|0:0,0:0:0:0:
369,145,147993,2,0,L|384:34,2,97.50000371933,2|0|0,0:0|0:0|0:0,0:0:0:0:
103,244,149913,6,0,L|68:349,2,97.50000371933,2|0|0,0:0|0:0|0:0,0:0:0:0:
409,140,151833,2,0,L|443:34,2,97.50000371933,2|0|0,0:0|0:0|0:0,0:0:0:0:
256,192,153273,1,0,0:0:0:0:
77,299,153753,38,0,L|173:305,1,65,2|0,0:0|0:0,0:0:0:0:
239,340,154233,2,0,L|335:346,1,65,2|0,0:0|0:0,0:0:0:0:
403,312,154713,1,2,0:0:0:0:
506,131,155193,1,4,0:0:0:0:
299,153,155673,6,0,P|352:173|428:154,2,130,2|0|2,0:0|0:0|0:0,0:0:0:0:
117,50,157113,1,4,0:0:0:0:
77,254,157593,22,0,P|54:190|88:115,1,130,2|0,0:0|0:0,0:0:0:0:
251,20,158553,1,2,0:0:0:0:
163,191,159033,1,4,0:0:0:0:
370,208,159513,6,0,P|309:228|246:215,2,130,2|0|2,0:0|0:0|0:0,0:0:0:0:
509,53,160953,1,4,0:0:0:0:
488,260,161433,22,0,P|466:188|496:113,1,130,2|0,0:0|0:0,0:0:0:0:
285,62,162393,1,2,0:0:0:0:
209,255,162873,1,4,0:0:0:0:
4,293,163353,6,0,P|70:312|139:279,1,130,2|0,0:0|0:0,0:0:0:0:
333,298,164313,1,2,0:0:0:0:
220,123,164793,1,4,0:0:0:0:
19,67,165273,22,0,P|81:53|141:76,1,130,2|0,0:0|0:0,0:0:0:0:
342,129,166233,1,2,0:0:0:0:
190,271,166713,1,4,0:0:0:0:
315,212,167193,38,0,P|333:287|309:341,1,130,2|0,0:0|0:0,0:0:0:0:
105,333,168153,2,0,P|87:258|111:204,1,130,2|4,0:0|0:0,0:0:0:0:
0,91,169113,1,0,0:0:0:0:
0,91,169353,2,0,P|50:76|132:98,1,130,2|0,0:0|0:0,0:0:0:0:
196,167,170073,38,0,P|257:183|332:157,1,130,2|6,0:0|0:0,0:0:0:0:
387,93,170793,2,0,P|449:75|512:91,1,130,2|0,0:0|0:0,0:0:0:0:
320,165,171753,2,0,P|259:182|197:167,1,130,2|0,0:0|0:0,0:0:0:0:
95,132,172473,2,0,L|105:209,1,65,0|2,0:0|0:0,0:0:0:0:
14,141,172953,2,0,L|31:277,1,130,2|0,0:0|0:0,0:0:0:0:
46,372,173673,1,0,0:0:0:0:
132,313,173913,37,2,0:0:0:0:
256,112,174273,1,2,0:0:0:0:
380,313,174633,1,2,0:0:0:0:
453,232,174873,2,0,L|525:266,1,65,0|10,0:0|0:0,0:0:0:0:
338,214,175353,2,0,L|266:180,1,65,0|10,0:0|0:0,0:0:0:0:
432,124,175833,2,0,L|504:158,3,65,0|10|0|10,0:0|0:0|0:0|0:0,0:0:0:0:
317,106,176793,2,0,L|245:72,3,65,0|10|0|10,0:0|0:0|0:0|0:0,0:0:0:0:
155,57,177753,6,0,P|88:41|25:65,1,130,0|4,0:0|0:0,0:0:0:0:
34,165,178473,2,0,P|101:181|163:156,1,130,2|0,0:0|0:0,0:0:0:0:
474,87,179433,2,0,P|420:62|337:84,1,130,2|0,0:0|0:0,0:0:0:0:
254,123,180153,1,0,0:0:0:0:
241,226,180393,1,2,0:0:0:0:
338,188,180633,2,0,P|392:213|475:191,1,130,2|0,0:0|0:0,0:0:0:0:
410,109,181353,1,0,0:0:0:0:
460,201,181593,37,2,0:0:0:0:
256,320,181953,1,2,0:0:0:0:
52,201,182313,1,10,0:0:0:0:
58,304,182553,2,0,P|54:344|70:382,3,65,0|10|0|10,0:0|0:0|0:0|0:0,0:0:0:0:
157,329,183513,1,0,0:0:0:0:
157,329,183753,1,10,0:0:0:0:
355,329,183993,1,0,0:0:0:0:
355,329,184233,1,10,0:0:0:0:
256,288,184473,1,0,0:0:0:0:
256,288,184713,1,10,0:0:0:0:
256,184,184953,2,0,L|256:93,1,65,0|8,0:0|0:0,0:0:0:0:
334,50,185433,54,0,B|346:91|390:102|390:102|443:102,1,130,2|4,0:0|0:0,0:0:0:0:
440,102,186393,2,0,L|524:102,1,65,2|8,0:0|0:0,0:0:0:0:
506,206,186873,2,0,L|441:206,1,65,0|2,0:0|0:0,0:0:0:0:
357,148,187353,2,0,P|337:215|376:286,2,130,2|0|2,0:0|0:0|0:0,0:0:0:0:
177,82,188793,21,0,0:0:0:0:
280,70,189033,1,10,0:0:0:0:
357,148,189273,2,0,P|419:128|491:150,1,130,2|0,0:0|0:0,0:0:0:0:
484,247,189993,2,0,P|422:267|350:245,1,130,10|8,0:0|0:0,0:0:0:0:
357,148,190713,2,0,P|419:128|491:150,3,130,2|0|0|0,0:0|0:0|0:0|0:0,0:0:0:0:
428,345,192633,53,0,0:0:0:0:
335,297,192873,1,8,0:0:0:0:
238,335,193113,2,0,P|166:346|98:310,1,130,2|4,0:0|0:0,0:0:0:0:
13,348,193833,1,8,0:0:0:0:
35,246,194073,2,0,L|47:182,1,65,2|8,0:0|0:0,0:0:0:0:
149,205,194553,2,0,L|161:141,1,65,0|10,0:0|0:0,0:0:0:0:
232,64,195033,2,0,P|295:81|359:62,2,130,2|0|2,0:0|0:0|0:0,0:0:0:0:
160,259,196473,53,0,0:0:0:0:
256,216,196713,1,10,0:0:0:0:
348,168,196953,2,0,P|366:103|340:33,1,130,4|0,0:0|0:0,0:0:0:0:
163,44,197673,2,0,P|145:106|164:168,1,130,8|8,0:0|0:0,0:0:0:0:
256,107,198393,1,0,0:0:0:0:
256,192,198513,12,0,204633,0:0:0:0:
170,82,205593,22,0,L|146:153,1,65
342,82,206073,2,0,L|366:153,1,65
256,303,206553,6,0,L|256:226,1,74.7500014257431,4|0,0:0|0:0,0:0:0:0:
256,96,207033,1,4,0:0:0:0:
135,36,207273,1,10,0:0:0:0:
22,109,207513,2,0,L|30:187,2,74.7500014257431,2|10|2,0:0|0:0|0:0,0:0:0:0:
135,36,208233,2,0,L|143:114,1,74.7500014257431,10|0,0:0|0:0,0:0:0:0:
257,265,208713,2,0,L|250:191,1,74.7500014257431,8|0,0:0|0:0,0:0:0:0:
250,191,209193,5,8,0:0:0:0:
354,106,209433,2,0,L|428:98,1,74.7500014257431,2|8,0:0|0:0,0:0:0:0:
510,204,209913,2,0,L|435:211,1,74.7500014257431,0|8,0:0|0:0,0:0:0:0:
314,272,210393,2,0,P|242:293|168:255,1,149.500002851486,6|4,0:0|0:0,0:0:0:0:
68,344,211113,1,8,0:0:0:0:
0,227,211353,54,0,L|38:163,1,74.7500014257431,2|8,0:0|0:0,0:0:0:0:
154,183,211833,2,0,L|192:119,1,74.7500014257431,2|8,0:0|0:0,0:0:0:0:
345,43,212313,1,2,0:0:0:0:
436,197,212553,1,8,0:0:0:0:
304,112,212793,1,2,0:0:0:0:
477,128,213033,1,8,0:0:0:0:
304,112,213273,2,0,P|264:119|223:108,1,74.7500014257431,2|8,0:0|0:0,0:0:0:0:
100,76,213753,6,0,P|46:60|-20:86,1,112.125002138615,2|0,0:0|0:0,0:0:0:0:
46,138,214233,2,0,P|31:207|81:280,1,149.500002851486,6|4,0:0|0:0,0:0:0:0:
265,323,214953,1,8,0:0:0:0:
190,181,215193,2,0,P|155:194|118:193,2,74.7500014257431,2|10|2,0:0|0:0|0:0,0:0:0:0:
317,139,215913,2,0,L|413:144,1,74.7500014257431,10|0,0:0|0:0,0:0:0:0:
494,229,216393,2,0,L|398:224,1,74.7500014257431,8|0,0:0|0:0,0:0:0:0:
300,289,216873,53,8,0:0:0:0:
171,248,217113,2,0,L|75:243,1,74.7500014257431,2|8,0:0|0:0,0:0:0:0:
2,341,217593,2,0,L|98:346,1,74.7500014257431,0|8,0:0|0:0,0:0:0:0:
211,339,218073,2,0,P|264:282|249:191,1,149.500002851486,6|4,0:0|0:0,0:0:0:0:
135,243,218793,1,8,0:0:0:0:
66,142,219033,2,0,P|13:199|28:290,1,149.500002851486,2|0,0:0|0:0,0:0:0:0:
66,142,219753,5,8,0:0:0:0:
163,49,219993,1,2,0:0:0:0:
350,41,220233,1,8,0:0:0:0:
257,108,220473,1,2,0:0:0:0:
444,100,220713,1,8,0:0:0:0:
322,158,220953,2,0,L|299:255,1,74.7500014257431,0|0,0:0|0:0,0:0:0:0:
502,158,221433,2,0,L|479:255,1,74.7500014257431
410,181,221913,54,0,L|387:278,1,74.7500014257431,4|0,0:0|0:0,0:0:0:0:
329,373,222393,1,4,0:0:0:0:
204,322,222633,1,10,0:0:0:0:
74,357,222873,2,0,P|34:366|-15:349,2,74.7500014257431,2|10|2,0:0|0:0|0:0,0:0:0:0:
37,242,223593,2,0,P|80:182|62:100,1,149.500002851486,10|8,0:0|0:0,0:0:0:0:
156,7,224313,1,0,0:0:0:0:
281,56,224553,5,8,0:0:0:0:
368,158,224793,2,0,L|379:244,1,74.7500014257431,2|8,0:0|0:0,0:0:0:0:
144,158,225273,2,0,L|133:244,1,74.7500014257431,0|8,0:0|0:0,0:0:0:0:
256,174,225753,2,0,P|235:240|272:333,1,149.500002851486,6|4,0:0|0:0,0:0:0:0:
385,362,226473,1,8,0:0:0:0:
436,237,226713,54,0,L|510:227,1,74.7500014257431,2|8,0:0|0:0,0:0:0:0:
430,119,227193,2,0,L|355:128,1,74.7500014257431,2|8,0:0|0:0,0:0:0:0:
220,120,227673,1,2,0:0:0:0:
62,55,227913,1,8,0:0:0:0:
161,38,228153,1,2,0:0:0:0:
39,149,228393,1,8,0:0:0:0:
144,232,228633,2,0,L|233:244,1,74.7500014257431,2|8,0:0|0:0,0:0:0:0:
101,309,229113,6,0,L|190:321,1,74.7500014257431,0|0,0:0|0:0,0:0:0:0:
310,324,229593,2,0,P|344:254|306:168,1,149.500002851486,6|4,0:0|0:0,0:0:0:0:
349,55,230313,1,10,0:0:0:0:
478,91,230553,2,0,P|486:55|464:-5,2,74.7500014257431,2|10|0,0:0|0:0|0:0,0:0:0:0:
471,225,231273,2,0,P|463:261|485:321,2,74.7500014257431,10|0|10,0:0|0:0|0:0,0:0:0:0:
355,154,231993,1,0,0:0:0:0:
254,243,232233,53,8,0:0:0:0:
129,192,232473,2,0,L|33:192,1,74.7500014257431,2|8,0:0|0:0,0:0:0:0:
81,324,232953,2,0,L|177:324,1,74.7500014257431,0|8,0:0|0:0,0:0:0:0:
290,334,233433,2,0,P|357:355|441:325,1,149.500002851486,6|4,0:0|0:0,0:0:0:0:
358,218,234153,1,8,0:0:0:0:
358,218,234393,2,0,P|428:195|498:216,2,149.500002851486,2|0|0,0:0|0:0|0:0,0:0:0:0:
358,218,235833,5,0,0:0:0:0:
256,288,236073,1,8,0:0:0:0:
252,154,236313,2,0,L|238:63,1,74.7500014257431,2|8,0:0|0:0,0:0:0:0:
174,198,236793,2,0,L|104:137,1,74.7500014257431,2|8,0:0|0:0,0:0:0:0:
129,276,237273,6,0,P|56:289|-11:257,1,130,4|2,0:0|0:0,0:0:0:0:
16,153,237993,2,0,P|89:140|156:172,2,130,10|8|10,0:0|0:0|0:0,0:0:0:0:
205,290,239433,1,8,0:0:0:0:
316,326,239673,2,0,L|381:329,1,65,0|10,0:0|0:0,0:0:0:0:
492,363,240153,2,0,P|516:305|490:232,1,130,2|0,0:0|0:0,0:0:0:0:
405,171,240873,1,8,0:0:0:0:
330,80,241113,5,2,0:0:0:0:
330,80,241353,1,8,0:0:0:0:
182,80,241593,1,4,0:0:0:0:
182,80,241833,1,8,0:0:0:0:
255,170,242073,2,0,L|255:243,2,65,2|8|0,0:0|0:0|0:0,0:0:0:0:
256,56,242793,1,8,0:0:0:0:
127,138,243033,2,0,L|108:212,1,65,2|8,0:0|0:0,0:0:0:0:
48,101,243513,2,0,L|29:175,1,65,0|8,0:0|0:0,0:0:0:0:
65,276,243993,1,2,0:0:0:0:
164,337,244233,1,8,0:0:0:0:
280,337,244473,1,0,0:0:0:0:
380,276,244713,1,8,0:0:0:0:
380,276,244953,38,0,P|445:295|514:265,1,130,4|6,0:0|0:0,0:0:0:0:
441,175,245673,2,0,P|462:107|431:42,2,130,2|0|10,0:0|0:0|0:0,0:0:0:0:
218,100,247113,1,8,0:0:0:0:
112,50,247353,1,0,0:0:0:0:
15,115,247593,1,2,0:0:0:0:
34,230,247833,2,0,P|45:289|4:351,1,130,2|0,0:0|0:0,0:0:0:0:
11,347,248553,1,8,0:0:0:0:
127,343,248793,38,0,L|215:341,1,65,2|8,0:0|0:0,0:0:0:0:
166,226,249273,2,0,L|254:224,1,65,4|8,0:0|0:0,0:0:0:0:
205,109,249753,2,0,L|293:107,3,65,2|8|0|8,0:0|0:0|0:0|0:0,0:0:0:0:
378,62,250713,1,2,0:0:0:0:
492,86,250953,1,8,0:0:0:0:
466,199,251193,1,0,0:0:0:0:
352,176,251433,1,8,0:0:0:0:
335,291,251673,1,2,0:0:0:0:
322,290,251793,1,0,0:0:0:0:
309,289,251913,1,10,0:0:0:0:
199,247,252153,2,0,L|125:260,1,65,0|8,0:0|0:0,0:0:0:0:
20,282,252633,37,4,0:0:0:0:
256,192,252753,12,0,258393,0:0:0:0:
