osu file format v12

[General]
AudioFilename: Kalafina - Mirai.mp3
AudioLeadIn: 0
PreviewTime: 183901
Countdown: 1
SampleSet: Normal
StackLeniency: 0.7
Mode: 0
LetterboxInBreaks: 1
WidescreenStoryboard: 0

[Editor]
Bookmarks: 26636,161636,182261
DistanceSpacing: 1
BeatDivisor: 4
GridSize: 8

[Metadata]
Title:Mirai
TitleUnicode:未来
Artist:Kalafina
ArtistUnicode:Kalafina
Creator:kyuten
Version:Insane
Source:Consolation
Tags:Kajiura Yuki Credens justitiam
BeatmapID:295832
BeatmapSetID:114178

[Difficulty]
HPDrainRate:6
CircleSize:6
OverallDifficulty:6
ApproachRate:8
SliderMultiplier:1.6
SliderTickRate:1

[Events]
//Background and Video events
0,0,"bg.png",0,0
//Break Periods
2,11366,25886
2,34336,40886
2,49336,50261
2,53086,93386
2,101367,160886
2,161836,181511
2,184336,247136
//Storyboard Layer 0 (Background)
//Storyboard Layer 1 (Fail)
//Storyboard Layer 2 (Pass)
//Storyboard Layer 3 (Foreground)
//Storyboard Sound Samples
//Background Colour Transformations
3,100,163,162,255

[TimingPoints]
4136,468.75,4,1,0,100,1,0

[Colours]
Combo1 : 247,187,9
Combo2 : 128,128,255
Combo3 : 255,128,64

[HitObjects]
256,192,386,12,0,3667,0:0:0:0:
312,288,4136,6,0,P|424:272|448:160,1,240
200,96,5073,2,0,P|88:112|64:224,1,240
312,288,6011,1,0,0:0:0:0:
256,80,6479,1,0,0:0:0:0:
200,288,6948,1,0,0:0:0:0:
256,192,7417,1,0,0:0:0:0:
256,192,7651,1,0,0:0:0:0:
256,192,7768,1,0,0:0:0:0:
256,192,7886,1,0,0:0:0:0:
344,56,8354,5,0,0:3:0:0:
344,56,8589,2,0,L|413:94,1,80
400,176,9057,1,0,0:0:0:0:
416,96,9292,1,0,0:0:0:0:
472,152,9526,1,0,0:0:0:0:
456,232,9761,2,0,B|400:296|400:296|328:320,1,160
256,352,10464,1,0,0:0:0:0:
56,232,10698,2,0,B|112:296|112:296|184:320,1,160
104,96,26636,5,0,0:0:0:0:
104,96,27104,1,0,0:0:0:0:
104,96,27339,1,0,0:0:0:0:
104,96,27807,1,0,0:0:0:0:
104,96,28042,1,0,0:0:0:0:
104,96,28276,1,0,0:0:0:0:
104,96,28511,1,0,0:0:0:0:
104,96,28979,1,0,0:0:0:0:
104,96,29214,1,0,0:0:0:0:
104,96,29682,1,0,0:0:0:0:
104,96,29917,1,0,0:0:0:0:
104,96,30151,1,0,0:0:0:0:
104,96,30268,1,0,0:0:0:0:
104,96,30386,1,0,0:0:0:0:
104,96,30620,1,0,0:0:0:0:
104,96,30854,1,0,0:0:0:0:
104,96,31089,1,0,0:0:0:0:
104,96,31557,1,0,0:0:0:0:
104,96,31792,1,0,0:0:0:0:
104,96,32026,1,0,0:0:0:0:
104,96,32495,1,0,0:0:0:0:
104,96,32729,1,0,0:0:0:0:
104,96,32964,1,0,0:0:0:0:
104,96,33198,1,0,0:0:0:0:
104,96,33432,1,0,0:0:0:0:
104,96,33667,1,0,0:0:0:0:
104,96,33901,1,0,0:0:0:0:
104,96,34018,1,0,0:0:0:0:
104,96,34136,1,0,0:0:0:0:
96,128,41636,6,0,L|136:200,1,80
152,224,41987,2,0,B|248:232|248:232|256:232,1,80
256,216,42339,2,0,L|320:168,1,80
256,128,42807,1,0,0:0:0:0:
256,128,43042,1,0,0:0:0:0:
256,128,43159,1,0,0:0:0:0:
256,128,43276,1,0,0:0:0:0:
416,128,43511,6,0,L|376:200,1,80
360,224,43862,2,0,B|264:232|264:232|256:232,1,80
256,216,44214,2,0,L|192:168,1,80
256,128,44682,1,0,0:0:0:0:
256,128,44917,1,0,0:0:0:0:
256,128,45034,1,0,0:0:0:0:
256,128,45151,1,0,0:0:0:0:
256,192,45386,12,0,49136,0:0:0:0:
104,128,51011,5,0,0:0:0:0:
104,128,51245,1,0,0:0:0:0:
104,128,51479,1,0,0:0:0:0:
104,128,51596,1,0,0:0:0:0:
104,128,51714,1,0,0:0:0:0:
104,128,51948,1,0,0:0:0:0:
104,128,52182,1,0,0:0:0:0:
104,128,52417,1,0,0:0:0:0:
104,128,52886,1,0,0:0:0:0:
256,192,94136,12,0,97886,0:0:0:0:
256,192,99761,12,0,101167,0:0:0:0:
248,192,161636,5,0,0:0:0:0:
256,192,182261,12,0,183081,0:0:0:0:
256,192,183198,12,0,184136,0:0:0:0:
256,192,247886,12,0,251167,0:0:0:0:
256,192,251636,12,0,255386,0:0:0:0:
