osu file format v12

[General]
AudioFilename: kalafina - Magia.mp3
AudioLeadIn: 0
PreviewTime: 50900
Countdown: 1
SampleSet: None
StackLeniency: 0.2
Mode: 0
LetterboxInBreaks: 1

[Editor]
Bookmarks: 18500,33380,50900,58580,66260,73940,91220,106580,114260,123860,139220,154580
DistanceSpacing: 1.7
BeatDivisor: 4
GridSize: 8

[Metadata]
Title:Magia
TitleUnicode:Magia
Artist:Kalafina
ArtistUnicode:Kalafina
Creator:xSiRix
Version:Collab
Source:Puella Magi Madoka Magica
Tags:serobor
BeatmapID:233085
BeatmapSetID:84653

[Difficulty]
HPDrainRate:5
CircleSize:5
OverallDifficulty:6
ApproachRate:8
SliderMultiplier:2
SliderTickRate:1

[Events]
//Background and Video events
//Break Periods
2,89500,90470
//Storyboard Layer 0 (Background)
//Storyboard Layer 1 (Fail)
//Storyboard Layer 2 (Pass)
//Storyboard Layer 3 (Foreground)
//Storyboard Sound Samples
//Background Colour Transformations
3,100,163,162,255

[TimingPoints]
2900,480,4,1,0,100,1,0
18500,-100,4,1,0,40,0,0
33020,-100,4,1,0,5,0,0
33260,-100,4,1,0,40,0,0
117500,-100,4,1,0,20,0,0
118220,-100,4,1,0,40,0,0
119660,-100,4,1,0,20,0,0
120140,-100,4,1,0,40,0,0
142580,-133.333333333333,4,1,0,30,0,0
142820,-100,4,1,0,40,0,0

[HitObjects]
168,104,2900,1,0,0:0:0:0:
256,144,3140,1,0,0:0:0:0:
344,104,3380,2,0,L|384:176,1,50
320,232,3740,2,0,L|352:288,1,50
192,232,4100,2,0,L|160:288,1,50
256,144,4460,2,0,L|256:80,1,50
256,192,4820,6,0,L|256:304,1,100
344,240,5300,1,0,0:0:0:0:
344,240,5420,1,0,0:0:0:0:
256,192,5660,1,0,0:0:0:0:
256,192,5780,1,0,0:0:0:0:
256,288,6020,2,0,L|256:352,2,50
256,240,6380,1,0,0:0:0:0:
256,192,6500,1,0,0:0:0:0:
160,224,6740,6,0,P|176:152|160:80,1,100
337,126,7220,2,0,P|336:152|336:208,1,50
256,240,7580,2,0,L|224:192,1,50
280,280,7940,2,0,L|328:352,1,50
328,224,8300,1,0,0:0:0:0:
328,224,8420,1,0,0:0:0:0:
304,128,8660,6,0,P|256:136|200:128,1,100
144,56,9140,2,0,P|112:144|128:192,1,100
176,224,9620,1,0,0:0:0:0:
256,288,9860,2,0,L|304:264,1,50
256,288,10100,2,0,L|208:264,1,50
256,240,10340,2,0,L|256:128,1,100
296,104,10700,5,0,0:0:0:0:
336,136,10820,2,0,P|336:192|416:272,2,150
176,248,11900,2,0,P|176:192|96:112,1,150
304,80,12740,6,0,P|304:160|384:224,2,150
392,120,13820,2,0,P|288:192|232:176,1,150
304,96,14420,1,0,0:0:0:0:
304,96,14540,1,0,0:0:0:0:
304,96,14660,1,0,0:0:0:0:
216,40,14900,6,0,P|192:96|208:144,1,100
288,184,15380,2,0,P|312:128|303:91,1,100,0|0,0:0|0:0,0:0:0:0:
231,292,15860,2,0,P|207:236|216:200,1,100,0|0,0:0|0:0,0:0:0:0:
256,168,16220,1,0,0:0:0:0:
296,200,16340,1,0,0:0:0:0:
216,136,16580,6,0,L|176:96,1,50
280,96,16940,2,0,L|320:136,1,50
328,232,17300,2,0,L|280:184,1,50
256,288,17660,1,0,0:0:0:0:
256,288,17780,2,0,L|256:72,1,200
168,56,18500,6,0,P|120:96|104:176,1,100
144,168,18860,1,0,0:0:0:0:
128,216,18980,2,0,P|168:264|208:280,1,100
312,240,19460,1,0,0:0:0:0:
336,288,19580,2,0,L|360:240,1,50
328,96,19940,2,0,P|288:56|216:56,1,100
160,72,20420,6,0,P|88:96|56:128,1,100
368,176,20900,2,0,P|432:184|488:144,1,100
176,272,21380,2,0,P|96:320|64:320,1,100
256,192,21860,1,0,0:0:0:0:
200,104,22100,6,0,P|312:88|400:128,1,200
408,160,22700,1,0,0:0:0:0:
296,304,23060,1,0,0:0:0:0:
256,328,23300,2,0,P|200:304|136:256,1,100
144,240,23660,1,0,0:0:0:0:
160,192,23780,1,0,0:0:0:0:
256,192,24020,12,0,25700,0:0:0:0:
104,104,25940,5,0,0:0:0:0:
136,200,26180,2,0,P|176:240|232:240,1,100
240,272,26540,1,0,0:0:0:0:
280,256,26660,1,0,0:0:0:0:
368,264,26900,1,0,0:0:0:0:
456,184,27140,2,0,P|384:96|360:96,1,100
368,72,27500,1,0,0:0:0:0:
328,88,27620,1,0,0:0:0:0:
128,112,27860,6,0,L|80:208,1,100
152,288,28340,1,0,0:0:0:0:
200,256,28460,1,0,0:0:0:0:
288,168,28820,2,0,P|328:96|360:72,1,100
416,128,29300,2,0,P|440:248|440:256,1,100
432,264,29660,1,0,0:0:0:0:
392,296,29780,1,0,0:0:0:0:
312,312,30020,6,0,B|272:352|224:352|176:328,1,100
112,264,30500,1,0,0:0:0:0:
56,160,30740,1,0,0:0:0:0:
184,104,30980,1,0,0:0:0:0:
224,80,31100,1,0,0:0:0:0:
272,88,31220,2,0,P|336:96|376:112,1,100
256,192,31700,12,0,33140,0:0:0:0:
312,152,33620,5,0,0:0:0:0:
216,128,33860,1,0,0:0:0:0:
136,184,34100,1,0,0:0:0:0:
136,80,34340,1,0,0:0:0:0:
216,128,34580,1,0,0:0:0:0:
328,296,35060,6,0,P|344:240|384:216,1,100
296,64,35540,2,0,P|288:112|224:144,1,100
248,144,36020,1,0,0:0:0:0:
216,312,36500,6,0,P|256:288|296:352,1,100
328,216,36980,1,0,0:0:0:0:
256,144,37220,1,0,0:0:0:0:
184,216,37460,2,0,P|160:160|112:128,1,100
256,144,37940,1,0,0:0:0:0:
256,144,38180,1,0,0:0:0:0:
328,216,38420,2,0,P|352:160|381:136,2,100
400,288,39140,2,0,P|344:336|240:272,2,200
320,232,40340,5,0,0:0:0:0:
320,232,40580,1,0,0:0:0:0:
320,232,40820,1,0,0:0:0:0:
176,96,41300,2,0,P|120:160|128:208,1,100
216,192,41780,2,0,P|256:176|264:96,3,100
376,136,42740,1,0,0:0:0:0:
336,232,42980,1,0,0:0:0:0:
376,320,43220,1,0,0:0:0:0:
336,232,43460,1,0,0:0:0:0:
296,320,43700,1,0,0:0:0:0:
152,248,44180,6,0,B|240:168|240:168|216:128|240:56,2,200
88,56,45620,2,0,P|112:152|96:192,1,100
176,224,46100,2,0,P|184:160|288:72,1,200
268,172,46820,1,0,0:0:0:0:
256,272,47060,1,0,0:0:0:0:
184,136,47420,1,0,0:0:0:0:
328,136,47780,1,0,0:0:0:0:
256,192,48020,2,0,P|160:240|88:232,2,150
256,192,48980,12,0,50660,0:0:0:0:
40,200,50900,6,0,P|120:136|224:128,1,200
280,192,51620,1,8,0:0:0:0:
320,160,51740,1,0,0:0:0:0:
360,168,51860,1,0,0:0:0:0:
424,104,52100,2,0,P|432:200|416:240,1,100,0|0,0:0|0:0,0:0:0:0:
368,280,52580,1,8,0:0:0:0:
328,312,52700,1,0,0:0:0:0:
280,304,52820,1,0,0:0:0:0:
184,288,53060,6,0,P|120:224|112:176,1,100
240,216,53540,2,0,P|288:192|352:64,1,200
184,112,54260,2,0,P|88:152|72:184,1,100
72,192,54620,1,0,0:0:0:0:
112,312,54740,6,0,P|240:304|376:192,1,300
416,296,55700,2,0,P|328:240|248:128,1,200
208,80,56420,1,8,0:0:0:0:
176,88,56540,1,0,0:0:0:0:
152,112,56660,1,0,0:0:0:0:
128,216,56900,2,0,P|184:256|256:248,1,100
312,200,57380,2,0,P|360:184|384:136,1,100
224,96,57860,2,0,P|152:80|104:104,1,100
200,272,58580,6,0,P|160:224|96:200,2,100
256,192,59300,1,0,0:0:0:0:
296,224,59420,1,0,0:0:0:0:
344,224,59540,1,0,0:0:0:0:
184,112,59780,1,0,0:0:0:0:
152,144,59900,1,0,0:0:0:0:
152,192,60020,1,0,0:0:0:0:
304,120,60260,6,0,P|336:176|328:240,1,100
152,272,60740,2,0,P|88:256|56:216,1,100
368,64,61220,2,0,P|424:80|472:112,1,100
296,144,61700,1,0,0:0:0:0:
216,144,61940,1,0,0:0:0:0:
256,248,62180,1,0,0:0:0:0:
144,208,62420,6,0,B|120:160|120:160|128:128|104:80,2,100
216,144,63140,1,0,0:0:0:0:
216,240,63380,2,0,B|280:208|280:208|344:232|440:192,1,200
288,304,64100,2,0,B|240:272|240:272|256:176|256:176|208:136,2,200
168,224,65300,1,0,0:0:0:0:
336,192,65540,5,0,0:0:0:0:
168,160,65780,1,0,0:0:0:0:
176,280,66260,6,0,P|120:256|64:120,1,200
224,184,66980,2,0,B|280:136|320:136|368:136|400:152|400:152|408:168|408:168,1,200
440,272,67700,1,0,0:0:0:0:
280,296,67940,1,0,0:0:0:0:
240,304,68060,1,0,0:0:0:0:
200,304,68180,1,4,0:0:0:0:
264,200,68420,2,0,P|176:184|72:120,1,200
160,224,69140,2,0,P|240:160|336:136,1,200
232,272,70100,6,0,P|192:216|184:88,1,200
280,112,70820,1,0,0:0:0:0:
360,176,71060,1,0,0:0:0:0:
368,272,71300,1,0,0:0:0:0:
456,216,71540,2,0,P|424:152|376:128,1,100
384,104,71900,1,0,0:0:0:0:
352,88,72020,1,0,0:0:0:0:
256,80,72260,2,0,L|160:128,1,100
192,224,72740,2,0,L|296:168,1,100
184,152,73220,6,0,P|152:88|176:48,1,100
256,56,73700,1,0,0:0:0:0:
280,72,73820,1,0,0:0:0:0:
296,88,73940,1,0,0:0:0:0:
344,176,74180,6,0,P|304:240|296:304,1,100
200,232,74660,2,0,P|192:176|152:128,1,100
256,96,75140,1,0,0:0:0:0:
256,192,75380,1,0,0:0:0:0:
64,240,75860,1,0,0:0:0:0:
120,320,76100,1,0,0:0:0:0:
216,336,76340,1,0,0:0:0:0:
256,136,76820,1,0,0:0:0:0:
336,72,77060,1,0,0:0:0:0:
432,72,77300,1,0,0:0:0:0:
320,240,77780,6,0,P|256:264|176:232,2,150
256,168,78740,1,0,0:0:0:0:
160,176,78980,1,0,0:0:0:0:
128,208,79100,1,0,0:0:0:0:
112,256,79220,1,0,0:0:0:0:
192,312,79460,1,0,0:0:0:0:
232,288,79580,1,0,0:0:0:0:
272,312,79700,2,0,P|360:304|392:232,2,150
256,216,80660,1,0,0:0:0:0:
256,216,81140,5,0,0:0:0:0:
424,328,81620,1,0,0:0:0:0:
256,192,82100,12,0,89300,0:0:0:0:
32,152,91220,6,0,P|184:192|256:176,1,200
296,288,91940,1,0,0:0:0:0:
408,224,92180,2,0,P|424:120|368:48,1,200
272,64,92900,1,0,0:0:0:0:
240,80,93020,1,0,0:0:0:0:
224,112,93140,1,0,0:0:0:0:
128,176,93380,6,0,P|176:208|240:208,1,100
232,256,93740,1,0,0:0:0:0:
256,296,93860,2,0,P|344:216|344:208,1,100
392,160,94340,1,0,0:0:0:0:
296,72,94580,1,0,0:0:0:0:
192,96,94820,1,0,0:0:0:0:
160,112,94940,1,0,0:0:0:0:
144,144,95060,1,0,0:0:0:0:
128,280,95300,5,0,0:0:0:0:
320,264,95540,2,0,P|384:256|416:208,1,100
216,136,96020,2,0,P|184:64|144:56,1,100
360,96,96500,1,0,0:0:0:0:
424,224,96740,1,0,0:0:0:0:
400,256,96860,1,0,0:0:0:0:
360,280,96980,1,0,0:0:0:0:
256,192,97220,12,0,98660,0:0:0:0:
248,88,98900,5,0,0:0:0:0:
176,136,99140,1,0,0:0:0:0:
224,240,99380,2,0,L|344:280,1,100
312,336,99860,2,0,L|400:272,1,100
368,200,100340,2,0,L|272:104,1,100
264,112,100700,1,0,0:0:0:0:
224,120,100820,1,0,0:0:0:0:
64,256,101060,6,0,P|112:304|176:288,1,100
192,296,101420,1,0,0:0:0:0:
224,264,101540,1,0,0:0:0:0:
352,152,101780,1,0,0:0:0:0:
168,72,102020,1,0,0:0:0:0:
96,184,102260,2,0,P|96:240|160:296,1,100
288,320,102740,1,0,0:0:0:0:
352,152,102980,1,0,0:0:0:0:
160,176,103220,6,0,P|136:240|152:304,1,100
408,288,103940,1,0,0:0:0:0:
424,184,104180,2,0,P|392:112|344:80,1,100
344,96,104540,1,0,0:0:0:0:
320,80,104660,1,0,0:0:0:0:
256,192,104900,12,0,106340,0:0:0:0:
112,192,106580,6,0,B|144:152|144:152|216:152,1,100
319,232,107060,6,0,B|368:232|368:232|400:192,1,100
312,144,107540,2,0,B|256:192|256:192|208:192|208:192|136:248,1,200
136,144,108260,1,0,0:0:0:0:
240,280,108500,1,0,0:0:0:0:
256,112,108740,1,0,0:0:0:0:
408,192,108980,1,0,0:0:0:0:
256,112,109220,1,0,0:0:0:0:
104,192,109460,6,0,P|144:240|144:296,1,100
363,275,109940,2,0,P|368:240|408:192,1,100
256,120,110420,2,0,L|256:232,2,100
168,264,111140,2,0,B|152:224|152:224|112:224|96:176,2,100
344,264,111860,2,0,B|360:224|360:224|400:224|416:176,1,100
256,160,112340,1,0,0:0:0:0:
256,112,112460,1,0,0:0:0:0:
256,64,112580,1,0,0:0:0:0:
112,192,112820,1,0,0:0:0:0:
256,264,113060,1,0,0:0:0:0:
344,104,113300,1,0,0:0:0:0:
184,32,113540,1,0,0:0:0:0:
192,224,113780,1,0,0:0:0:0:
48,104,114260,6,0,B|104:112|152:144|184:144,1,100
192,224,114740,1,0,0:0:0:0:
240,200,114860,1,0,0:0:0:0:
288,176,114980,2,0,P|296:88|264:64,1,100
80,184,115700,6,0,P|72:256|120:296,1,100
192,312,116180,1,0,0:0:0:0:
328,272,116420,1,0,0:0:0:0:
384,144,116660,1,0,0:0:0:0:
240,88,117140,6,0,P|168:136|160:176,1,100
160,192,117500,1,0,0:0:0:0:
192,224,117620,1,0,0:0:0:0:
216,264,117740,1,0,0:0:0:0:
256,264,117860,1,0,0:0:0:0:
288,288,117980,1,0,0:0:0:0:
328,288,118100,1,0,0:0:0:0:
408,160,118580,6,0,P|448:112|440:40,1,100
328,80,119060,1,0,0:0:0:0:
208,32,119300,2,0,P|160:112|168:152,1,100
168,200,119660,1,0,0:0:0:0:
208,208,119780,1,0,0:0:0:0:
232,232,119900,1,0,0:0:0:0:
264,232,120020,1,0,0:0:0:0:
376,288,120260,6,0,P|408:224|408:168,1,100
384,152,120620,1,0,0:0:0:0:
344,160,120740,1,0,0:0:0:0:
256,192,120980,12,0,123620,0:0:0:0:
152,192,123860,6,0,B|184:160|184:160|184:120|208:104,1,100
360,192,124340,1,0,0:0:0:0:
256,328,124580,2,0,L|200:280,2,50
256,240,124940,2,0,L|256:160,1,50
88,192,125300,2,0,P|120:184|144:160,1,50
88,104,125540,2,0,P|120:80|152:80,1,50
212,96,125780,6,0,P|260:116|308:88,1,100
440,192,126260,2,0,P|376:256|368:288,1,100
256,136,126740,1,0,0:0:0:0:
96,192,126980,1,0,0:0:0:0:
256,136,127220,1,0,0:0:0:0:
96,192,127460,1,0,0:0:0:0:
256,248,127700,6,0,L|256:312,1,50
256,216,127940,2,0,L|256:160,1,50
256,136,128180,2,0,L|256:32,1,100
400,128,128660,2,0,B|368:176|368:176|368:240|328:312,1,200
208,192,129380,1,0,0:0:0:0:
160,192,129500,1,0,0:0:0:0:
112,192,129620,1,0,0:0:0:0:
256,88,129860,5,0,0:0:0:0:
288,128,129980,1,0,0:0:0:0:
320,168,130100,1,0,0:0:0:0:
256,240,130340,2,0,L|256:304,2,50
400,336,130820,2,0,L|328:304,2,50
88,192,131540,6,0,P|136:176|192:200,1,100
352,192,132020,2,0,P|312:136|304:80,1,100
256,272,132500,2,0,P|192:296|168:328,1,100
136,152,132980,2,0,L|176:96,1,50
216,176,133220,2,0,L|272:160,1,50
240,80,133460,2,0,B|312:56|336:104|336:104|392:120|376:216,1,200
256,296,134180,6,0,L|256:240,1,50
192,192,134420,2,0,L|192:256,1,50
128,296,134660,2,0,L|128:224,1,50
64,192,134900,2,0,B|96:136|96:136|96:72,1,100
256,56,135380,5,0,0:0:0:0:
256,224,135620,1,0,0:0:0:0:
328,200,135860,5,0,0:0:0:0:
176,72,136100,1,0,0:0:0:0:
128,136,136340,2,0,B|160:200|160:200|128:280|216:320,1,200
256,152,137060,1,0,0:0:0:0:
256,152,137300,1,0,0:0:0:0:
256,320,137540,1,0,0:0:0:0:
256,320,137780,1,0,0:0:0:0:
408,240,138020,5,0,0:0:0:0:
192,192,138260,1,0,0:0:0:0:
192,80,138500,1,0,0:0:0:0:
96,48,138740,2,0,L|120:128,1,50
48,128,138980,2,0,L|56:192,1,50
80,208,139220,6,0,P|144:248|272:240,1,200
360,176,139940,1,0,0:0:0:0:
264,112,140180,2,0,P|336:72|384:80,1,100
200,136,140660,2,0,B|144:112|88:128|80:168,1,100
72,168,141020,1,0,0:0:0:0:
88,208,141140,1,0,0:0:0:0:
152,304,141380,2,0,P|232:296|336:192,1,200
432,184,142100,2,0,L|328:144,1,100
288,136,142460,1,0,0:0:0:0:
248,168,142580,2,0,P|216:208|160:216,1,75.0000028610231
80,176,143060,6,0,P|96:112|152:64,1,100
256,64,143540,1,0,0:0:0:0:
352,184,143780,2,0,P|344:264|304:304,1,100
288,296,144140,1,0,0:0:0:0:
248,272,144260,1,0,0:0:0:0:
144,248,144500,2,0,P|144:192|176:136,1,100
200,112,144860,1,0,0:0:0:0:
168,80,144980,1,0,0:0:0:0:
256,192,145220,12,0,145700,0:0:0:0:
232,288,145940,6,0,P|296:232|336:112,1,200
216,88,146660,1,0,0:0:0:0:
168,88,146780,1,0,0:0:0:0:
144,120,146900,6,0,L|112:232,1,100
288,344,147380,2,0,B|344:288|360:224|352:152,1,200
384,128,147980,1,0,0:0:0:0:
400,88,148100,1,0,0:0:0:0:
384,56,148220,1,0,0:0:0:0:
344,48,148340,1,0,0:0:0:0:
208,96,148580,5,0,0:0:0:0:
88,184,148820,2,0,P|144:256|360:272,1,300
416,208,149780,2,0,P|360:176|288:168,1,100
256,104,150260,1,0,0:0:0:0:
160,120,150500,1,0,0:0:0:0:
128,160,150620,1,0,0:0:0:0:
128,216,150740,6,0,P|248:232|312:176,1,200
384,256,151460,2,0,B|424:208|440:128|384:56,1,200
288,64,152180,1,0,0:0:0:0:
240,160,152420,1,0,0:0:0:0:
216,200,152540,1,0,0:0:0:0:
184,240,152660,2,0,B|136:272|80:256|48:136,1,200
128,80,153380,1,0,0:0:0:0:
288,88,153740,1,0,0:0:0:0:
336,104,153860,1,0,0:0:0:0:
368,144,153980,1,0,0:0:0:0:
416,160,154100,1,0,0:0:0:0:
256,192,154340,12,0,156500,0:0:0:0:
