osu file format v9

[General]
AudioFilename: magia.mp3
AudioLeadIn: 1000
PreviewTime: 9600
Countdown: 0
SampleSet: Soft
StackLeniency: 0.5
Mode: 0
LetterboxInBreaks: 0

[Editor]
Bookmarks: 22920,26400,32280,60000,69120
DistanceSpacing: 0.8
BeatDivisor: 4
GridSize: 4

[Metadata]
Title:Magia (TV Size)
Artist:Kalafina
Creator:lolcubes
Version:Normal
Source:Puella Magi Madoka Magica
Tags:Pheon Yuki Kajiura Mahou Shoujo

[Difficulty]
HPDrainRate:4
CircleSize:4
OverallDifficulty:4
ApproachRate:4
SliderMultiplier:1.5
SliderTickRate:2

[Events]
//Background and Video events
Video,0,"magia.flv"
0,0,"magica.jpg"
//Break Periods
//Storyboard Layer 0 (Background)
//Storyboard Layer 1 (Fail)
//Storyboard Layer 2 (Pass)
//Storyboard Layer 3 (Foreground)
//Storyboard Sound Samples
//Background Colour Transformations
3,100,35,35,35

[TimingPoints]
1944,480,4,2,0,70,1,0
74424,-100,4,2,0,0,0,0
74544,-100,4,2,0,70,0,0
78744,-100,4,2,0,0,0,0
78864,-100,4,2,0,70,0,0

[Colours]
Combo1 : 128,64,244
Combo2 : 255,6,144
Combo3 : 255,32,32
SliderBorder : 224,224,224

[HitObjects]
256,328,1944,1,2
256,268,2184,1,0
256,208,2424,2,0,B|272:128|344:92,1,150,0|2
348,212,3384,5,0
448,152,3864,1,2
344,92,4344,1,0
304,204,4824,6,0,B|268:220|232:204,1,75,2|0
200,152,5304,2,0,B|184:116|200:80,1,75,2|0
256,56,5784,5,2
256,116,6024,1,0
256,176,6264,2,0,B|240:256|168:292,1,150,0|2
140,176,7224,5,0
236,252,7704,1,2
336,316,8184,1,0
452,288,8664,6,0,B|452:248|416:228,1,75,2|0
356,236,9144,2,0,B|318:215|318:175,1,75,2|0
289,124,9624,6,0,B|249:163|187:159|152:120,1,150,4|0
224,24,10584,1,2
224,80,10824,1,0
224,136,11064,2,0,B|224:236,1,75,2|0
136,128,11784,5,0
80,128,12024,1,2
32,160,12264,1,0
8,216,12504,2,0,B|8:264|56:296,1,75,2|0
96,288,12984,2,0,B|176:288,1,75,2|0
288,288,13704,6,0,B|288:368,2,75,0|2|0
344,312,14424,1,2
400,288,14664,1,0
456,312,14904,1,2
512,288,15144,1,0
512,232,15384,5,4
504,144,15744,2,0,B|442:143|402:183,1,112.5,2|2
360,224,16344,1,4
280,264,16704,2,0,B|216:272|192:208,1,112.5,2|2
192,152,17304,6,0,B|240:168|296:112|280:64,1,150,4|0
160,32,18264,1,2
104,32,18504,1,0
48,32,18744,2,0,B|24:56|24:56|24:96,1,75,2|0
24,216,19464,5,0
56,264,19704,1,2
24,312,19944,1,0
56,360,20184,2,0,B|136:360,1,75,2|0
192,360,20664,2,0,B|232:360|232:360|256:336,1,75,2|0
344,248,21384,5,0
384,288,21624,1,2
440,288,21864,1,0
496,288,22104,2,0,B|496:208,1,75,2|0
496,152,22584,2,0,B|464:119|416:120,1,75,2|0
368,120,23064,5,4
368,208,23424,2,0,B|376:248|344:288|304:280,1,112.5,2|2
248,280,24024,1,4
160,280,24384,2,0,B|128:264|128:200|160:184,1,112.5,2|2
196,136,24984,6,0,B|148:120|140:80,4,75,4|0|0|0|2
316,136,26424,2,0,B|364:120|372:80,4,75,0|0|2|0|2
196,156,27864,6,0,B|188:192|188:192|196:228,1,75,2|0
256,229,28344,2,0,B|264:193|264:193|256:157,1,75,2|0
256,96,28824,2,0,B|280:72|280:72|396:72,1,150,2|0
436,116,29544,1,0
436,176,29784,2,0,B|472:212|472:212|472:312,1,150,2|0
412,312,30504,2,0,B|388:348|412:384,2,75,0|2|0
292,312,31464,6,0,B|272:276|291:239,1,75,0|2
232,136,32184,1,2
196,252,32664,6,0,B|196:300|132:316,4,75,4|0|0|0|2
316,252,34104,2,0,B|316:300|380:316,4,75,0|0|2|0|2
196,252,35544,6,0,B|204:214|204:214|196:178,1,75,2|0
136,178,36024,2,0,B|127:215|127:215|135:251,1,75,2|0
136,312,36504,1,2
52,228,36984,2,0,B|0:176,2,75,0|0|2
140,72,38184,5,2
140,132,38424,2,0,B|104:152|104:208|140:224,1,112.5,2|2
140,316,39144,1,2
200,316,39384,2,0,B|220:352|276:352|292:316,1,112.5,2|2
248,240,40104,1,2
256,192,40344,12,4,42264
360,44,42744,5,0
480,44,43224,1,2
480,164,43704,2,0,B|496:196|496:196|480:232,2,75,0|0|2
360,164,44664,1,0
360,224,44904,2,0,B|324:244|288:224,3,75,0|2|2|2
208,136,46104,6,0,B|208:88|208:88|188:68,1,75,2|0
128,68,46584,2,0,B|100:64|40:76|36:132|40:164,1,150,0|2
36,280,47544,1,0
80,324,47784,1,0
140,324,48024,2,0,B|248:324|248:324|280:292,1,150,2|0
312,244,48744,2,0,B|256:192,3,75,0|2|2|2
136,192,49944,6,0,B|112:208|88:160|56:200,2,75,6|0|0
256,192,50904,1,2
336,280,51384,2,0,B|376:304|416:288,2,75,0|0|2
256,120,52584,2,0,B|280:80|320:80,3,75,0|2|2|2
436,80,53784,6,0,B|436:160,1,75,2|0
436,216,54264,2,0,B|416:244|372:268|328:244|308:216,1,150,0|2
308,96,55224,1,0
308,36,55464,1,0
248,36,55704,1,2
68,36,56424,2,0,B|28:36|8:72,3,75,0|2|2|2
124,36,57624,6,0,B|124:112,1,75,6|0
124,172,58104,2,0,B|140:200|184:220|232:200|252:172,1,150,0|2
188,68,59064,1,0
188,128,59304,1,0
188,188,59544,2,0,B|188:296|188:296|220:328,1,150,2|0
276,328,60264,2,0,B|316:328|348:308,3,75,0|2|2|2
376,192,61464,6,0,B|392:168|448:216|464:176,2,75,2|0|0
256,192,62424,1,2
176,280,62904,2,0,B|136:304|96:288,2,75,0|0|2
256,120,64104,2,0,B|232:80|192:80,3,75,0|2|2|2
76,80,65304,6,0,B|56:76|40:88|32:108|36:128,1,75,2|0
36,188,65784,2,0,B|28:228|40:268|84:284|124:276,1,150,2|2
184,276,66504,1,2
244,276,66744,1,2
328,360,67224,6,0,B|360:336|360:336|360:300,1,75,2|0
360,240,67704,2,0,B|360:68,1,150,2|2
308,56,68424,1,2
256,88,68664,1,2
256,208,69144,5,2
192,144,69504,2,0,B|112:64,1,112.5,2|2
52,64,70104,1,2
52,304,71064,5,2
140,304,71424,2,0,B|203:304|228:246,1,112.5,2|2
256,192,72024,1,2
256,192,72504,1,2
256,192,72984,12,0,74424
376,312,75264,6,0,B|363:279|322:252|285:257,1,112.5
228,272,75864,2,0,B|189:276|148:249|137:217,1,112.5
220,188,76584,1,2
256,140,76824,1,2
256,192,77064,12,0,78744
184,280,79704,5,0
332,280,80184,1,0
256,152,80664,6,0,B|224:128|288:72|256:48,2,112.5,2|2|2
256,228,81624,2,0,B|287:251|223:308|255:332,2,112.5,2|2|2
208,168,82584,2,0,B|224:148|256:140|288:148|308:168,1,112.5,2|2
256,192,83304,12,4,84504
