osu file format v9

[General]
AudioFilename: magia.mp3
AudioLeadIn: 1000
PreviewTime: 9600
Countdown: 0
SampleSet: Soft
StackLeniency: 0.5
Mode: 0
LetterboxInBreaks: 0

[Editor]
Bookmarks: 22920,26400,32280,60000,69120
DistanceSpacing: 2
BeatDivisor: 4
GridSize: 4

[Metadata]
Title:Magia (TV Size)
Artist:Kalafina
Creator:lolcubes
Version:Magica
Source:Puella Magi Madoka Magica
Tags:Pheon Yuki Kajiura Mahou Shoujo

[Difficulty]
HPDrainRate:8
CircleSize:4
OverallDifficulty:7
ApproachRate:8
SliderMultiplier:2
SliderTickRate:2

[Events]
//Background and Video events
Video,0,"magia.flv"
0,0,"magica.jpg"
//Break Periods
//Storyboard Layer 0 (Background)
//Storyboard Layer 1 (Fail)
//Storyboard Layer 2 (Pass)
//Storyboard Layer 3 (Foreground)
//Storyboard Sound Samples
//Background Colour Transformations
3,100,35,35,35

[TimingPoints]
1944,480,4,2,0,70,1,0
9624,-100,4,1,0,70,0,0
9744,-100,4,2,0,70,0,0
17304,-100,4,1,0,70,0,0
17424,-100,4,2,0,70,0,0
24984,-100,4,1,0,70,0,0
25104,-100,4,2,0,70,0,0
32664,-100,4,1,0,70,0,0
32784,-100,4,2,0,70,0,0
42264,-100,4,1,0,70,0,0
42384,-100,4,2,0,70,0,0
42984,-100,4,1,0,70,0,0
43104,-100,4,2,0,70,0,0
44904,-100,4,1,0,70,0,0
45024,-100,4,2,0,70,0,0
46824,-100,4,1,0,70,0,0
46944,-100,4,2,0,70,0,0
48744,-100,4,1,0,70,0,0
48864,-100,4,2,0,70,0,0
49944,-100,4,1,0,70,0,0
50064,-100,4,2,0,70,0,0
50664,-100,4,1,0,70,0,0
50784,-100,4,2,0,70,0,0
52584,-100,4,1,0,70,0,0
52704,-100,4,2,0,70,0,0
54504,-100,4,1,0,70,0,0
54624,-100,4,2,0,70,0,0
56424,-100,4,1,0,70,0,0
56544,-100,4,2,0,70,0,0
57624,-100,4,1,0,70,0,0
57744,-100,4,2,0,70,0,0
58344,-100,4,1,0,70,0,0
58464,-100,4,2,0,70,0,0
60264,-100,4,1,0,70,0,0
60384,-100,4,2,0,70,0,0
61464,-100,4,1,0,70,0,0
61584,-100,4,2,0,70,0,0
62184,-100,4,1,0,70,0,0
62304,-100,4,2,0,70,0,0
64104,-100,4,1,0,70,0,0
64224,-100,4,2,0,70,0,0
66024,-100,4,1,0,70,0,0
66144,-100,4,2,0,70,0,0
67944,-100,4,1,0,70,0,0
68064,-100,4,2,0,70,0,0
69864,-100,4,1,0,70,0,0
69984,-100,4,2,0,70,0,0
71784,-100,4,1,0,70,0,0
72264,-100,4,1,0,57,0,0
72504,-100,4,1,0,48,0,0
72744,-100,4,1,0,42,0,0
72984,-100,4,2,0,70,0,0
74904,-100,4,2,0,0,0,0
75024,-100,4,2,0,70,0,0
78744,-100,4,2,0,0,0,0
78864,-100,4,2,0,70,0,0
83544,-100,4,1,0,70,0,0
83784,-100,4,1,0,58,0,0
84024,-100,4,1,0,49,0,0
84264,-100,4,1,0,41,0,0
84384,-100,4,2,0,70,0,0

[Colours]
Combo1 : 128,64,244
Combo2 : 255,6,144
Combo3 : 255,32,32
SliderBorder : 224,224,224

[HitObjects]
416,48,1944,1,2
296,56,2184,1,0
200,128,2424,1,0
192,184,2544,1,0
296,296,2784,6,0,B|312:344,1,50,0|2
368,168,3144,2,0,B|401:130,1,50,0|2
224,168,3504,2,0,B|174:157,1,50,0|2
40,136,3864,5,2
8,248,4104,1,0
128,216,4344,2,0,B|160:264,1,50
248,336,4704,5,0
296,304,4824,1,2
200,152,5064,1,0
144,136,5184,1,2
312,80,5424,1,0
368,72,5544,1,2
424,96,5664,1,0
456,144,5784,5,2
336,152,6024,1,0
408,320,6264,5,0
352,304,6384,1,0
176,320,6624,1,0
128,352,6744,1,2
256,224,6984,1,0
248,168,7104,1,2
360,32,7344,2,0,B|312:40,1,50,0|2
128,40,7704,5,2
80,152,7944,2,0,B|72:208|112:248,1,100
152,288,8304,1,0
152,112,8544,6,0,B|176:160,1,50,0|2
352,200,8904,1,2
408,224,9024,1,0
424,280,9144,1,0
400,336,9264,1,0
344,352,9384,1,2
288,336,9504,1,2
232,312,9624,6,0,B|88:312|88:312|48:272,1,200,4|2
16,224,10224,1,2
32,104,10464,1,0
88,88,10584,1,2
176,176,10824,1,0
232,200,10944,1,2
288,192,11064,1,0
336,72,11304,1,2
224,32,11544,5,2
136,112,11784,2,0,B|96:144,1,50,2|0
152,168,12024,2,0,B|188:208,1,50,2|2
224,248,12264,1,0
320,176,12504,1,2
368,288,12744,1,2
424,272,12864,1,2
456,224,12984,1,0
472,104,13224,1,0
360,144,13464,5,2
280,232,13704,2,0,B|264:280,1,50,2|0
216,248,13944,2,0,B|168:256,1,50,2|2
256,104,14424,1,2
144,48,14664,1,0
152,104,14784,1,2
40,152,15024,1,0
80,192,15144,1,0
88,312,15384,5,6
88,72,15744,1,2
296,192,16104,1,2
216,192,16344,5,6
424,312,16704,1,2
424,312,16824,1,0
424,72,17064,1,2
512,152,17304,6,0,B|368:152|368:152|312:124,1,200,4|2
264,104,17904,1,2
208,104,18024,1,0
88,128,18264,1,2
40,240,18504,1,0
72,288,18624,1,2
128,304,18744,1,0
200,208,18984,1,0
248,320,19224,5,2
368,352,19464,1,2
336,232,19704,1,2
368,184,19824,1,2
424,168,19944,1,0
312,120,20184,1,2
216,192,20424,2,0,B|168:216,1,50,0|2
160,152,20664,2,0,B|128:112,2,50,0|2|0
216,256,21144,5,2
144,352,21384,1,0
96,240,21624,1,2
104,184,21744,1,2
136,136,21864,1,0
232,208,22104,1,2
328,280,22344,1,0
360,232,22464,1,2
368,176,22584,1,0
304,72,22824,1,2
424,72,23064,5,6
424,312,23424,1,2
216,192,23784,1,2
296,192,24024,5,6
88,72,24384,1,2
88,72,24504,1,0
88,312,24744,1,2
208,328,24984,5,4
324,304,25224,1,0
392,204,25464,1,2
376,152,25584,1,2
328,120,25704,1,0
208,120,25944,1,2
148,224,26184,2,0,B|104:244,1,50,2|2
152,280,26424,2,0,B|188:312,1,50,0|2
240,344,26664,1,0
360,336,26904,5,2
208,208,27144,1,0
400,144,27384,1,2
400,144,27504,1,2
120,32,27864,5,2
304,120,28104,1,0
216,296,28344,1,2
32,208,28584,1,2
104,312,28824,6,0,B|152:328|216:320|256:280|264:232,1,200,2|0
148,200,29544,1,0
263,234,29784,2,0,B|273:184|264:126|215:86|166:83,1,200,2|0
148,200,30504,5,0
112,352,30744,1,2
264,304,30984,1,2
296,144,31224,1,2
272,96,31344,1,2
232,56,31464,1,0
88,128,31704,2,0,B|80:168|104:240|168:256|208:256,1,200,2|2
344,56,32664,5,4
336,176,32904,1,0
448,128,33144,1,2
456,184,33264,1,2
424,232,33384,1,0
304,248,33624,1,2
212,172,33864,1,0
152,180,33984,1,2
112,224,34104,5,0
256,332,34344,1,2
400,224,34584,1,0
348,52,34824,1,0
168,52,35064,1,2
256,332,35544,5,2
112,224,35784,1,0
168,52,36024,1,2
348,52,36264,1,0
404,224,36504,5,2
408,104,36744,1,0
296,152,36984,2,0,B|248:160,1,50,2|2
184,152,37224,1,0
72,112,37464,1,2
92,232,37704,2,0,B|160:244,1,50,0|2
200,248,37944,1,0
304,192,38184,5,0
296,72,38424,1,6
424,312,38784,1,2
144,296,39144,1,2
216,72,39384,5,6
88,312,39744,1,2
368,296,39984,1,0
368,296,40104,1,2
320,184,40344,1,2
320,184,41304,5,2
384,352,41664,1,2
504,216,42024,1,2
440,112,42264,5,4
344,40,42504,1,0
224,24,42744,2,0,B|176:28|136:68,1,100,2|0
92,180,43224,1,0
112,236,43344,1,2
160,272,43464,1,0
256,200,43704,1,2
276,320,43944,2,0,B|256:272,1,50,2|2
256,273,44184,5,2
320,84,44424,1,0
156,200,44664,1,2
356,200,44904,1,0
192,84,45144,1,2
256,272,45384,1,2
320,84,45624,1,2
176,276,46104,5,2
156,156,46344,1,0
128,40,46584,2,0,B|172:80|224:56,1,100,2|0
340,36,47064,1,2
328,96,47184,1,2
340,156,47304,1,0
440,88,47544,5,0
384,196,47784,1,0
332,224,47904,1,2
272,224,48024,5,2
184,308,48264,1,0
300,340,48504,1,2
420,344,48744,1,0
368,236,48984,2,0,B|336:196|344:140,2,100,2|2|2
152,336,49944,5,4
92,232,50184,1,0
28,132,50424,2,0,B|84:144|120:104,1,100,2|0
236,128,50904,1,0
268,180,51024,1,2
324,204,51144,1,0
416,128,51384,1,0
304,80,51624,2,0,B|256:100,1,50
257,99,51864,5,2
193,288,52104,1,0
357,172,52344,1,2
157,172,52584,1,0
321,288,52824,1,2
257,100,53064,1,2
193,288,53304,1,2
416,328,53784,6,0,B|400:272|440:232,1,100,2|0
464,120,54264,1,0
364,188,54504,1,0
252,144,54744,1,2
204,180,54864,1,2
144,172,54984,1,0
176,56,55224,1,2
256,144,55464,2,0,B|268:192,1,50,2|2
256,252,55704,5,2
200,356,55944,1,0
92,308,56184,1,2
148,200,56424,1,0
92,92,56664,2,0,B|76:44|12:36,2,100,2|2|2
224,320,57624,5,4
164,216,57864,1,0
284,212,58104,2,0,B|340:220|372:176,1,100,2|0
416,64,58584,2,0,B|420:156,1,50,2|2
420,172,58824,1,0
464,288,59064,1,2
344,268,59304,1,2
296,304,59424,1,2
256,348,59544,5,2
168,264,59784,1,0
224,156,60024,6,0,B|270:122|272:72,1,100,2|0
160,116,60504,2,0,B|161:56|208:32,2,100,2|2|2
288,320,61464,5,4
348,216,61704,1,0
228,212,61944,2,0,B|172:220|140:176,1,100,2|0
96,64,62424,2,0,B|92:156,1,50,2|2
92,172,62664,1,0
48,288,62904,1,2
168,268,63144,1,2
216,304,63264,1,2
256,348,63384,5,2
344,264,63624,1,0
288,156,63864,6,0,B|241:122|239:72,1,100,2|0
352,116,64344,2,0,B|350:56|304:32,2,100,2|2|2
164,216,65304,5,4
200,100,65544,1,0
288,184,65784,1,2
296,240,65904,1,0
344,272,66024,1,0
440,200,66264,2,0,B|464:152|440:104,2,100,2|2|2
256,360,67224,5,4
368,312,67464,1,0
368,192,67704,1,2
312,208,67824,1,0
256,184,67944,1,0
160,104,68184,2,0,B|128:56|144:8,2,100,2|2|2
88,336,69144,5,4
424,336,69504,1,2
256,48,69864,1,0
256,168,70104,2,0,B|288:216|256:264|216:312|256:360,1,200,2|0
328,264,70824,1,0
424,336,71064,5,4
256,48,71424,1,2
88,336,71784,1,0
176,248,72024,5,0
216,208,72144,1,0
272,200,72264,1,0
320,232,72384,1,0
376,240,72504,1,0
424,208,72624,1,0
440,152,72744,1,0
256,192,72984,12,0,74904
192,120,75264,5,0
132,112,75384,1,0
88,264,75624,1,0
272,344,75864,5,2
464,120,76224,1,2
168,64,76584,1,2
292,192,76824,5,2
256,192,77064,12,0,78744
456,168,79464,5,0
400,272,79704,1,2
288,312,79944,1,0
168,296,80184,1,0
128,256,80304,1,0
120,200,80424,1,2
216,128,80664,5,2
296,128,81024,1,2
256,200,81384,1,2
152,88,81624,5,2
360,88,81984,1,2
256,268,82344,1,2
88,48,82584,5,4
424,48,82944,1,4
256,336,83304,1,4
368,288,83544,5,0
352,232,83664,1,0
296,216,83784,1,0
240,232,83904,1,0
184,216,84024,1,0
168,160,84144,1,0
200,112,84264,1,0
320,88,84504,1,4
256,192,84744,12,2,88344
