osu file format v9

[General]
AudioFilename: magia.mp3
AudioLeadIn: 1000
PreviewTime: 9600
Countdown: 0
SampleSet: Soft
StackLeniency: 0.5
Mode: 0
LetterboxInBreaks: 0

[Editor]
Bookmarks: 22920,26400,32280,54720,60000,69120
DistanceSpacing: 1.1
BeatDivisor: 4
GridSize: 8

[Metadata]
Title:Magia (TV Size)
Artist:Kalafina
Creator:lolcubes
Version:Easy
Source:Puella Magi Madoka Magica
Tags:Pheon Yuki Kajiura Mahou Shoujo

[Difficulty]
HPDrainRate:3
CircleSize:3
OverallDifficulty:2
ApproachRate:3
SliderMultiplier:1
SliderTickRate:2

[Events]
//Background and Video events
Video,0,"magia.flv"
0,0,"magica.jpg"
//Break Periods
//Storyboard Layer 0 (Background)
//Storyboard Layer 1 (Fail)
//Storyboard Layer 2 (Pass)
//Storyboard Layer 3 (Foreground)
//Storyboard Sound Samples
//Background Colour Transformations
3,100,0,0,0

[TimingPoints]
1944,480,4,2,0,70,1,0
11064,-100,4,2,2,70,0,0
11184,-100,4,2,1,70,0,0
12504,-100,4,2,2,70,0,0
12624,-100,4,2,1,70,0,0
14424,-100,4,2,2,70,0,0
14544,-100,4,2,1,70,0,0
20184,-100,4,2,2,70,0,0
20304,-100,4,2,1,70,0,0
22104,-100,4,2,2,70,0,0
22224,-100,4,2,1,70,0,0
28344,-100,4,2,2,70,0,0
28484,-100,4,2,1,70,0,0
34584,-100,4,2,2,70,0,0
34704,-100,4,2,1,70,0,0
74424,-100,4,2,1,0,0,0
74544,-100,4,2,1,70,0,0

[Colours]
Combo1 : 128,64,244
Combo2 : 255,6,144
Combo3 : 255,32,32
SliderBorder : 224,224,224

[HitObjects]
256,80,1944,2,0,B|240:40|200:32|176:16|128:32|96:80|112:112,1,200,2|0
112,208,3384,1,0
112,320,3864,1,2
184,112,4824,1,2
360,248,5784,6,0,B|320:200|320:136|352:80|400:72,1,200,2|0
456,160,7224,1,0
440,272,7704,2,0,B|424:320|368:352|296:328|272:304,1,200,2|2
440,160,9624,5,4
360,88,10104,1,0
336,192,10584,2,0,B|296:208|256:184|232:136|264:88,1,150,2|0
312,16,11784,5,0
256,0,12024,2,0,B|176:24|152:96|160:176|192:216|200:224,1,250,2|0
80,208,13704,1,0
112,256,13944,2,0,B|128:288|192:336|296:288|288:208|264:168,1,250,2|0
312,144,15384,6,0,B|360:128|416:184|392:240,1,150,4|2
440,264,16344,2,0,B|456:296|392:344|328:296|344:264,1,150,4|2
320,216,17304,5,4
272,312,17784,1,0
160,312,18264,1,0
176,256,18504,2,0,B|112:240,2,50
200,152,19464,5,0
216,96,19704,2,0,B|184:64|64:56|48:160|72:208,1,250,2|0
72,320,21384,1,0
128,320,21624,2,0,B|384:320,1,250,2|0
432,320,23064,6,0,B|480:296|480:216|432:192,1,150,4|2
384,192,24024,2,0,B|232:192,1,150,4|2
208,240,24984,5,4
304,296,25464,1,0
392,224,25944,1,0
344,120,26424,1,0
232,136,26904,1,2
208,240,27384,1,0
304,296,27864,2,0,B|288:144,1,150,2|0
280,96,28824,6,0,B|280:64|216:32|168:80|176:112,1,150,2|0
120,112,29784,2,0,B|80:136|64:200|80:248,1,150,2|0
80,304,30744,2,0,B|128:304,1,50,2|0
240,304,31464,1,0
296,304,31704,1,2
296,192,32184,1,2
216,112,32664,5,4
320,80,33144,2,0,B|440:80,1,100
432,192,34104,2,0,B|464:240|448:304|384:328|336:304,1,200,0|0
232,304,35544,1,2
176,304,35784,2,0,B|176:256,2,50,0|2|0
120,304,36504,6,0,B|81:309|57:285|57:245,1,100,2|0
56,192,37224,1,0
56,136,37464,1,2
208,72,38184,5,2
208,128,38424,2,0,B|176:128|144:184|176:240|208:240,1,150,2|2
240,280,39384,2,0,B|240:312|296:344|352:312|352:280,1,150,2|2
256,248,42264,6,0,B|240:296,2,50,6|0|0
352,192,43224,1,2
256,136,43704,2,0,B|272:72,2,50,0|0|2
160,192,44664,1,2
256,248,45144,2,0,B|320:264,2,50,2|2|2
224,144,46104,5,2
128,96,46584,1,0
72,192,47064,1,2
168,240,47544,2,0,B|208:288|264:240,1,100,0|2
224,144,48504,1,2
128,96,48984,2,0,B|64:64,2,50,2|2|2
72,192,49944,6,0,B|72:304,1,100,4|0
176,248,50904,1,2
276,293,51384,2,0,B|380:293,1,100,0|2
456,152,52584,1,0
408,168,52824,2,0,B|360:184,2,50,2|2|2
320,104,53784,6,0,B|376:88,2,50,2|0|0
216,144,54744,1,2
264,248,55224,2,0,B|160:288,1,100,0|2
8,280,56424,1,0
8,224,56664,2,0,B|8:168,2,50,2|2|2
112,192,57624,6,0,B|112:144,2,50,6|0|0
112,304,58584,1,2
206,359,59064,2,0,B|310:359,1,100,0|2
400,304,60024,1,0
400,192,60504,2,0,B|400:128,2,50,2|2|2
288,192,61464,5,2
288,80,61944,1,0
400,80,62424,1,2
400,192,62904,2,0,B|432:192|464:224|464:256,1,100,0|2
320,344,64104,1,0
264,344,64344,2,0,B|216:344,2,50,2|2|2
320,248,65304,6,0,B|320:128,1,100,4|0
256,64,66264,2,0,B|256:0,2,50,2|2|2
192,152,67224,2,0,B|192:252,1,100,2|0
96,200,68184,2,0,B|48:200,2,50,2|2|2
96,88,69144,6,0,B|104:48|144:24|184:24|224:40,1,150,2|2
256,80,70104,1,2
472,112,71064,2,0,B|472:200|472:200|424:240,1,150,2|2
368,240,72024,1,2
256,240,72504,1,2
256,192,72984,12,4,74424
156,132,75264,6,0,B|156:208,1,75
188,252,75864,2,0,B|256:292|332:252,1,150
364,208,76824,1,2
256,192,77064,12,0,79704
128,192,80664,6,0,B|160:144|216:136,1,100,2|2
240,240,81624,2,0,B|272:272|336:272,1,100,2|2
256,192,82584,12,4,84504
