osu file format v9

[General]
AudioFilename: Magia.mp3
AudioLeadIn: 1000
PreviewTime: 41890
Countdown: 0
SampleSet: Normal
StackLeniency: 0.6
Mode: 0
LetterboxInBreaks: 1

[Editor]
DistanceSpacing: 1
BeatDivisor: 4
GridSize: 8

[Metadata]
Title:Magia (TV Size)
Artist:Kalafina
Creator:NatsumeRin
Version:Normal
Source:Puella Magi Madoka Magica
Tags:Disoy ignorethis climbb65588 SamiPale Nitroplus Nitro+ mahou shoujo Kajiura Yuki

[Difficulty]
HPDrainRate:3
CircleSize:3
OverallDifficulty:3
ApproachRate:5
SliderMultiplier:1.28
SliderTickRate:1

[Events]
//Background and Video events
0,0,"BG233.jpg"
Video,-233,"ED.flv"
//Break Periods
//Storyboard Layer 0 (Background)
//Storyboard Layer 1 (Fail)
//Storyboard Layer 2 (Pass)
//Storyboard Layer 3 (Foreground)
//Storyboard Sound Samples
//Background Colour Transformations
3,100,163,162,255

[TimingPoints]
1690,480,4,1,1,65,1,0
9370,-100,4,1,1,55,0,0
15130,-100,4,1,1,40,0,0
17050,-100,4,1,1,55,0,0
22810,-100,4,1,1,40,0,0
24730,-100,4,1,1,65,0,0
32410,-100,4,1,1,65,0,0
38170,-100,4,1,1,75,0,0
40090,-133.333333333333,4,1,1,50,0,0
41050,-100,4,1,0,30,0,0
42010,-100,4,1,1,70,0,1
57250,-100,4,1,1,70,0,0
57370,-100,4,1,1,70,0,1
72730,-100,4,1,1,70,0,0
72970,-100,4,1,1,10,0,0

[Colours]
Combo1 : 132,79,0
Combo2 : 3,133,3
Combo3 : 3,3,158
Combo4 : 152,3,3

[HitObjects]
92,95,1690,2,0,B|148:61|236:79,1,128,0|8
272,105,2410,2,0,B|317:126|388:111,2,96,0|0|8
211,217,3610,2,0,B|262:249|352:242,1,128,0|8
388,208,4330,2,0,B|437:188|505:196,2,96,0|0|8
377,335,5530,6,0,B|308:347,1,64
259,312,6010,2,0,B|192:325,1,64,8|0
110,229,6730,2,0,B|47:216,2,64,0|8|0
173,216,7450,2,0,B|232:216|274:154|273:154,1,96
210,89,8170,2,0,B|246:48|305:41,1,96
385,67,8890,1,8
385,67,9370,6,0,B|440:113|414:200,1,128,4|2
293,156,10330,1,0
287,219,10570,2,0,B|278:268|312:292,1,64,0|2
336,331,11050,1,0
411,227,11530,1,0
348,240,11770,2,0,B|201:266,1,128,2|0
96,286,12730,1,2
96,286,12970,1,0
57,163,13450,6,0,B|94:147|144:164,1,64,2|2
245,181,14170,2,0,B|279:193|307:175,1,64,0|2
357,136,14650,1,2
475,187,15130,6,0,B|492:226|466:264|427:274,2,96
416,213,16090,2,0,B|382:223|372:260|384:292,2,96
443,267,17050,6,0,B|319:216,1,128,0|2
280,98,18010,2,0,B|242:79|178:80|136:109,1,128,0|2
98,127,18730,1,0
207,193,19210,1,0
152,227,19450,2,0,B|120:250|64:239,1,64,2|0
61,299,19930,2,0,B|104:316|162:294|162:294|202:324,1,128,0|2
225,355,20650,1,0
352,354,21130,5,2
399,311,21370,2,0,B|399:225,1,64,2|0
441,199,21850,2,0,B|468:163|467:107|435:65,1,128,0|2
401,29,22570,1,0
341,53,22810,6,0,B|233:92|232:91,2,96
343,116,23770,2,0,B|235:155|234:154,2,96,0|0|0
344,179,24730,6,0,B|219:225,1,128,4|8
165,249,25450,1,0
106,275,25690,1,0
39,165,26170,1,8
108,57,26650,2,0,B|186:57,1,64
235,57,27130,1,8
362,56,27610,2,0,B|411:71|420:133|379:178,1,128,0|8
361,218,28330,1,0
330,274,28570,6,0,B|299:317|327:377|365:382,2,128,0|8|0
201,273,30010,1,8
201,273,30250,2,0,B|71:273,1,128
32,223,30970,1,8
74,102,31450,2,0,B|137:80|211:106,1,128,0|8
324,74,32410,6,0,B|410:57,2,64,0|0|8
370,193,33370,1,0
420,310,33850,2,0,B|506:327,2,64,8|0|0
357,294,34570,1,0
295,281,34810,1,8
178,333,35290,2,0,B|111:308|108:227,1,128,0|8
108,170,36010,1,0
124,108,36250,6,0,B|164:81|226:144|270:93,1,128,0|8
301,72,36970,1,0
353,34,37210,2,0,B|398:13|462:40|475:97,1,128,0|8
439,196,38170,6,0,B|414:312,1,96
331,331,38890,1,0
278,294,39130,2,0,B|303:178,1,96,0|0
218,146,39850,1,0
154,157,40090,6,0,B|105:353,1,191.999994277954
34,97,42010,5,4
140,25,42490,1,8
229,116,42970,2,0,B|252:146|325:160|372:141,1,128,0|8
403,179,43690,1,0
437,232,43930,2,0,B|386:279|300:268,1,128,0|8
202,325,44890,2,0,B|120:320|80:251,1,128,0|8
195,192,45850,5,4
82,130,46330,1,8
190,62,46810,2,0,B|261:51|309:118,1,128,0|8
351,227,47770,1,0
257,314,48250,2,0,B|166:314,2,64,8|0|0
384,312,49210,1,8
479,227,49690,5,4
443,103,50170,2,0,B|380:132|312:102,1,128,8|0
211,35,51130,1,8
211,35,51370,1,0
211,35,51610,2,0,B|196:110|119:128,1,128,0|8
68,143,52330,1,0
113,187,52570,2,0,B|186:196|240:135,1,128,0|8
353,177,53530,5,4
259,264,54010,1,8
211,374,54490,2,0,B|139:352|132:284,1,128,0|8
160,226,55210,2,0,B|235:219,1,64
340,273,55930,1,8
407,164,56410,1,0
323,66,56890,2,0,B|248:73,1,64,8|8
195,78,57370,6,0,B|116:87|81:161,1,128,4|8
203,205,58330,1,0
173,329,58810,2,0,B|101:366,2,64,8|0|0
299,348,59770,1,8
394,263,60250,2,0,B|436:212|415:130,1,128,0|8
307,76,61210,6,0,B|265:127|286:209,1,128,4|8
177,269,62170,1,0
69,199,62650,1,8
112,78,63130,2,0,B|256:78,1,128,0|8
303,79,63850,1,0
366,79,64090,2,0,B|395:124|446:124|446:124|481:165,1,128,0|8
427,270,65050,6,0,B|290:316,1,128,4|8
186,264,66010,6,0,B|323:218,1,128,0|8
374,114,66970,6,0,B|237:160,1,128,0|8
133,108,67930,6,0,B|270:62,1,128,0|8
324,174,68890,6,0,B|296:231|328:303,1,128,4|8
325,297,69610,1,0
325,297,69850,2,0,B|284:346|183:343,1,128,0|8
114,257,70810,6,0,B|176:269|254:248,1,128,0|8
297,220,71530,1,0
338,171,71770,1,0
256,72,72250,1,8
256,72,72730,5,4
256,192,72970,12,0,80410
