osu file format v5

[General]
AudioFilename: Kuroshitsuji ED 2 -Lacrimosa.mp3
AudioLeadIn: 0
PreviewTime: -1
Countdown: 0
SampleSet: Soft
StackLeniency: 0.7
Mode: 0
LetterboxInBreaks: 1

[Metadata]
Title:Lacrimosa
Artist:Kalafina
Creator:Yumiko
Version:Normal
Source:
Tags:

[Difficulty]
HPDrainRate:8
CircleSize:4
OverallDifficulty:6
SliderMultiplier:0.9
SliderTickRate:2

[Events]
//Background and Video events
0,0,"vlcsnap-72082.png"
//Break Periods
2,31373,33505
2,85218,98656
2,114063,115842
2,139906,146156
//Storyboard Layer 0 (Background)
//Storyboard Layer 1 (Failing)
//Storyboard Layer 2 (Passing)
//Storyboard Layer 3 (Foreground)
//Storyboard Sound Samples
//Background Colour Transformations
3,100,0,0,0

[TimingPoints]
956,625,4,2,0,76,1,0
30441,-100,4,2,0,57,0,0
31018,-100,4,2,0,31,0,0
34481,-100,4,2,0,85,0,0
49086,-50,4,2,0,74,0,0
61811,-100,4,2,0,48,0,0
62206,-50,4,2,0,84,0,0
97901,-100,4,2,0,82,0,0
112845,-100,4,2,0,62,0,0
113550,-100,4,2,0,37,0,0
117105,-100,4,2,0,83,0,0
131413,-50,4,2,0,59,0,0
131434,-50,4,2,0,96,0,0
131434,-100,4,2,0,80,0,0
140880,-100,4,2,0,92,0,0
155042,-100,4,2,0,56,0,0
155565,-100,4,2,0,95,0,0
156188,-100,4,2,0,54,0,0
156535,-100,4,2,0,95,0,0

[Colours]
Combo1 : 37,52,184
Combo2 : 155,177,255
Combo3 : 88,113,231

[HitObjects]
72,64,17206,1,0
144,64,17518,1,0
216,64,17831,1,2
384,64,18456,1,0
384,136,18768,1,0
456,136,19081,1,0
456,208,19393,1,0
384,208,19706,2,0,B|336:232|296:184|248:208|248:208,1,135,0|2
176,208,20956,5,0
176,136,21268,1,0
248,136,21581,2,0,B|312:120|280:80|320:56|352:56,1,135
424,56,22831,1,0
424,128,23143,1,0
424,200,23456,1,2
328,288,24706,5,0
256,288,25018,1,0
256,216,25331,1,0
256,88,25956,1,0
184,96,26268,1,0
144,160,26581,2,0,B|112:208|64:176|56:112|0:160|8:160,1,135
24,224,27987,1,0
24,224,28143,1,2
144,224,28768,5,0
216,224,29081,2,0,B|280:192|336:224|360:184|384:152,1,180
381,88,30643,1,0
256,88,31268,1,0
72,40,34706,5,0
72,144,35331,2,0,B|128:144,1,45
240,40,36581,1,0
240,144,37206,1,0
312,144,37518,1,0
448,192,38456,6,0,B|400:208|408:256|360:248|376:248,1,90
376,248,39393,1,0
304,248,39706,1,0
304,176,40018,1,0
232,176,40331,1,0
120,176,40956,2,0,B|120:272,1,90
264,272,42206,6,0,B|328:264|328:312|400:296|392:264,1,135
384,184,44081,2,0,B|416:136|368:96|376:88,1,90
304,96,45018,1,2
256,192,45956,12,0,48456
104,72,49081,5,0
184,72,49393,1,0
184,152,49706,2,0,B|216:208|256:176|248:112|304:128|312:104|336:112,1,180
408,112,50643,2,0,B|464:120|456:184|408:216|400:248|448:264|448:256,1,180
448,336,51581,2,0,B|336:368|360:320|344:280|336:288|312:232|288:304|240:344|256:320|224:256|216:260|224:272,1,270,0|2
144,272,52831,5,0
64,272,53143,1,0
64,192,53456,2,0,B|48:128|104:112|152:160|184:128|184:80|176:96,1,180
256,96,54393,2,0,B|264:144|248:176|224:184|208:208|176:216|144:216|144:216,1,180
160,296,55331,2,0,B|208:264|248:296|288:312|312:280|336:264,1,180
432,208,56268,6,0,B|392:152|456:104|440:48|392:48,1,180
345,48,57049,1,0
345,48,57206,1,2
288,144,58143,6,0,B|352:240|336:336|256:360|184:360|104:336|56:288|56:224|80:184|104:152|160:96|208:136|264:168|248:240|200:256|240:240|208:240,1,630
144,240,60643,1,0
64,240,60956,1,0
64,160,61268,1,0
64,56,61737,2,0,B|128:56,1,45,0|4
280,56,62831,6,0,B|344:88|336:160|344:192|376:192|416:184|456:192|448:264|448:264|448:288|448:288|448:280|448:280,1,270,0|2
447,252,64081,1,0
368,256,64393,1,0
288,256,64706,2,0,B|200:240|176:184|192:144|248:152,1,180
312,168,65643,2,0,B|352:128|296:88|240:80|224:64|216:72|216:72|200:80,1,180
200,160,66581,2,0,B|224:208|224:248|168:272|152:320|232:312|232:312|224:312,1,180
312,312,67831,5,0
384,312,68143,1,0
384,240,68456,2,0,B|384:80|384:80|384:56,1,180
312,56,69393,2,0,B|152:56|152:56|128:56,1,180
128,128,70331,2,0,B|128:272|128:272|128:312,1,180
232,304,71268,5,0
232,232,71581,1,0
232,136,72049,2,0,B|376:136,1,135,0|2
464,136,73143,1,0
464,208,73456,1,0
464,304,73924,1,0
432,304,74081,2,0,C|368:264|416:192|352:160|392:104|344:64,1,360
240,72,75956,6,0,C|184:40|128:72|176:104,1,180
168,152,76737,1,0
168,152,76893,1,2
168,312,77831,1,0
240,312,78143,1,0
344,312,78612,2,0,C|344:256,1,45,0|2
256,192,79393,12,0,85018
72,104,99706,5,0
152,104,100018,1,0
152,184,100331,1,0
240,280,100956,1,0
312,280,101268,1,0
384,280,101581,1,0
384,200,101893,2,0,B|360:160|288:208|360:136|280:112,1,135
216,112,103143,1,0
144,112,103456,5,0
144,184,103768,1,0
144,264,104081,1,0
64,264,104393,1,0
64,168,104862,1,0
64,168,105018,1,0
64,96,105331,2,0,B|128:64|208:120|280:48,1,225,0|0
352,48,107206,6,0,B|352:104,2,45,0|2|0
456,48,108456,5,0
456,120,108768,1,0
456,200,109081,2,0,B|376:168|336:208|304:216|280:184|272:184,1,180
208,192,110643,1,0
208,96,111268,6,0,B|144:64|96:120|72:88|72:96,1,135
72,168,112518,1,0
208,168,113143,1,0
352,168,113768,1,0
200,296,117206,6,0,B|136:272|104:320|64:288|64:280,1,135
64,176,119081,6,0,B|104:192|144:184|168:168|192:168|200:192,1,135,0|2
336,184,120956,5,0
336,72,121581,1,0
264,72,121893,1,0
192,72,122206,1,0
120,72,122518,1,0
48,72,122831,2,0,B|96:120|0:168|64:200,1,135
216,200,124706,6,0,B|360:200,1,135
352,96,126268,2,0,B|208:96,1,135
144,96,127518,1,2
256,192,128456,12,0,131268
112,160,131581,5,2
208,160,131893,5,2
304,160,132206,5,2
400,160,132518,5,2
256,192,132831,12,0,139706
72,72,147206,5,0
144,72,147518,1,0
216,72,147831,1,0
288,72,148143,1,0
360,72,148456,1,0
432,72,148768,2,0,B|496:120|360:160|456:208|432:208,1,135,0|2
440,336,150956,5,0
368,336,151268,1,0
296,336,151581,1,0
224,336,151893,1,0
152,336,152206,1,0
80,336,152518,2,0,B|16:288|152:248|64:216|72:208,1,135,0|2
80,72,154081,5,0
152,72,154393,1,0
224,72,154706,2,4,B|248:112|232:152|200:144,1,90
152,144,155643,2,4,B|128:192|144:216|184:216|184:216,1,90
224,216,156581,2,4,B|248:256|232:296|144:288,1,135
64,288,158143,5,0
64,216,158456,2,2,B|64:72,1,135
192,80,160018,1,0
264,80,160331,2,2,B|408:80,1,135
256,192,161893,5,0
256,192,162206,12,0,167831
