osu file format v5

[General]
AudioFilename: Kuroshitsuji ED 2 -Lacrimosa.mp3
AudioLeadIn: 0
PreviewTime: -1
Countdown: 0
SampleSet: Soft
StackLeniency: 0.7
Mode: 0
LetterboxInBreaks: 1
EditorBookmarks: 15404

[Metadata]
Title:Lacrimosa
Artist:Kalafina
Creator:Yumiko
Version:Hard
Source:
Tags:

[Difficulty]
HPDrainRate:9
CircleSize:5
OverallDifficulty:5
SliderMultiplier:1
SliderTickRate:2

[Events]
//Background and Video events
0,0,"vlcsnap-72082.png"
//Break Periods
2,14593,16006
2,31780,33506
2,85491,98427
2,114063,115842
2,139905,146005
2,167718,172256
2,180218,181781
//Storyboard Layer 0 (Background)
//Storyboard Layer 1 (Failing)
//Storyboard Layer 2 (Passing)
//Storyboard Layer 3 (Foreground)
//Storyboard Sound Samples
//Background Colour Transformations
3,100,0,0,0

[TimingPoints]
956,625,4,2,0,55,1,0
15166,-100,4,2,0,61,0,0
17629,-100,4,2,0,31,0,0
18384,-100,4,2,0,70,0,0
23358,-100,4,2,0,32,0,0
24121,-100,4,2,0,71,0,0
30892,-100,4,2,0,0,0,0
33653,-100,4,2,0,80,0,0
41889,-100,4,2,0,58,0,0
42182,-100,4,2,0,71,0,0
49086,-50,4,2,0,92,0,0
79124,-50,4,2,0,71,0,0
82748,-100,4,2,0,22,0,0
99454,-100,4,2,0,79,0,0
100297,-100,4,2,0,62,0,0
100670,-100,4,2,0,71,0,0
112760,-50,4,2,0,51,0,0
113477,-100,4,2,0,21,0,0
114868,-100,4,2,0,80,0,0
131411,-100,4,2,0,94,0,0
146852,-100,4,2,0,85,0,0
154579,-100,4,2,0,70,0,0
154614,-100,4,2,0,80,0,0
155592,-100,4,2,0,80,0,0
157416,-100,4,2,0,79,0,0
167248,-100,4,2,0,19,0,0
172398,-100,4,2,0,68,0,0
182545,-50,4,2,0,22,0,0
182613,-50,4,2,0,95,0,0
190307,-50,4,2,0,73,0,0
190704,-50,4,2,0,21,0,0
190788,-50,4,2,0,94,0,0
191848,-50,4,2,0,80,0,0
198750,-50,4,2,0,54,0,0
199636,-100,4,2,0,93,0,0
205727,-50,4,2,0,93,0,0
233674,-100,4,2,0,47,0,0
233920,-100,4,2,0,80,0,0
242449,-100,4,2,0,16,0,0

[Colours]
Combo1 : 37,52,184
Combo2 : 155,160,255
Combo3 : 88,113,231

[HitObjects]
88,56,8456,2,0,B|128:24|160:40|184:64|184:56,1,100
184,120,9393,1,0
184,232,10018,1,0
248,232,10330,1,0
328,232,10799,1,0
328,232,10955,1,0
328,232,11268,1,0
328,328,11893,5,0
259,327,12206,1,0
192,328,12518,1,0
128,328,12831,1,0
64,328,13143,2,0,B|32:288|40:248|64:240,1,100
128,240,14081,1,0
192,240,14393,1,0
440,72,17206,5,0
440,104,17362,1,0
408,104,17518,2,0,B|352:104,1,50,0|2
224,104,18456,1,0
224,168,18768,1,0
160,168,19081,2,0,B|136:136|80:152|64:176,1,100
72,232,20018,1,0
72,328,20487,1,0
72,328,20643,1,0
136,328,20956,5,0
200,328,21268,1,0
264,328,21581,2,0,B|312:304|280:256|256:248,1,100
256,208,22362,1,0
256,208,22518,1,0
256,144,22831,1,0
192,144,23143,1,0
192,144,23456,1,4
40,144,24706,5,0
40,176,24863,1,0
40,208,25019,1,0
40,240,25174,1,0
40,272,25331,1,2
144,336,25955,1,0
208,336,26268,1,0
272,336,26580,2,0,B|320:328|320:248,1,100
320,192,27518,1,0
320,96,27986,1,0
320,96,28143,1,0
416,40,28768,6,0,B|448:40,2,25
416,104,29393,1,0
416,168,29706,1,0
416,232,30018,1,0
379,285,30331,1,0
328,325,30643,2,0,B|280:373|184:325,1,150,0|0
456,96,34706,6,0,B|424:48|360:56,1,100
304,56,35643,1,0
112,64,36580,2,0,B|144:112|200:104,1,100,0|0
264,104,37518,1,0
376,208,38456,6,0,B|384:264|320:288,1,100
264,288,39393,1,0
200,288,39706,1,0
136,288,40018,1,0
136,224,40331,2,0,B|136:120,1,100
136,56,41268,1,0
200,56,41581,1,0
264,56,41893,1,0
328,56,42206,6,0,B|376:72|384:128|360:136,1,100
312,136,43143,6,0,B|272:168|322:228|336:216,1,100,0|0
384,224,44081,6,0,B|384:328,1,100,0|0
319,322,45018,1,2
256,192,45956,12,0,48456
120,88,49081,5,0
192,88,49393,1,0
264,88,49706,2,0,B|320:88|336:128|328:152,1,100
400,144,50331,1,0
400,216,50643,2,0,B|320:216|328:272,1,100
256,264,51268,1,0
256,336,51581,2,0,B|200:320|96:336|216:200|168:192|104:248|56:240|72:144,1,300,0|4
72,80,52831,5,0
144,80,53143,1,0
216,80,53456,2,0,B|240:32|280:8|344:48|336:24|392:88,1,200
384,144,54393,1,0
384,280,55018,1,0
312,280,55331,1,0
128,280,56268,6,0,B|72:264|56:216|64:200,1,100
64,96,57049,1,0
64,96,57205,1,2
128,96,57518,5,0
192,96,57831,1,0
256,96,58143,1,0
256,96,58455,1,0
256,200,58924,1,0
256,200,59081,2,0,B|232:360|472:352,1,300,0|0
464,280,60331,1,2
464,208,60643,5,0
464,136,60955,1,0
392,136,61268,1,0
288,136,61737,1,0
288,136,61894,1,0
256,192,62831,12,0,63768
256,224,64081,5,0
184,224,64393,1,0
112,224,64706,2,0,B|112:120,1,100
184,120,65331,1,0
256,120,65643,2,0,B|360:120,1,100
424,120,66268,1,0
424,120,66581,1,0
424,120,66893,1,0
424,192,67206,1,0
424,304,67831,5,0
352,304,68143,1,0
280,304,68456,2,0,B|264:264|224:264|184:344|152:328|160:280|96:224|120:240|136:264,1,200
128,184,69393,1,0
128,112,69706,1,0
128,40,70018,2,0,B|240:40,1,100,0|0
384,40,71268,6,0,B|416:88|352:104|416:152,1,100,0|0
480,136,72050,1,0
480,136,72206,1,2
480,304,73143,5,0
408,304,73456,2,0,C|368:272|328:320|280:320,1,150
256,320,74081,2,0,C|256:120,1,200
256,48,75018,1,0
328,48,75331,1,0
398,48,75643,1,0
464,48,75956,5,0
464,120,76269,1,0
400,200,76737,1,0
400,200,76894,1,0
184,200,77831,6,0,B|152:216|200:288|152:312,1,100,0|0
88,296,78612,1,0
88,296,78768,1,0
256,192,79393,1,4
256,192,79706,12,0,85331
32,208,99706,5,0
64,208,99863,1,0
96,208,100018,1,0
128,208,100174,1,0
160,208,100331,1,2
256,208,100956,5,0
320,208,101268,2,0,B|320:152|408:168|384:136,1,100
392,104,102049,1,0
392,104,102206,1,0
328,104,102518,1,0
264,104,102831,1,0
200,104,103143,1,0
200,168,103456,5,0
247,211,103768,1,0
200,256,104081,1,0
200,320,104393,2,0,B|288:320,1,75
304,320,105018,1,0
304,256,105331,1,0
304,192,105643,1,0
240,192,105956,1,2
120,192,107206,6,0,B|104:224|80:232|56:224,1,75
56,192,107831,1,2
56,64,108456,1,0
120,64,108768,2,0,B|120:128,1,50
216,112,109549,1,0
216,112,109706,1,0
216,176,110018,1,0
280,176,110331,1,0
344,176,110643,1,0
424,280,111268,5,0
424,280,111424,1,0
424,280,111581,1,0
360,280,111893,2,0,B|320:288|328:328,1,50
264,312,112518,1,0
264,184,113143,1,0
264,56,113768,1,0
80,88,117206,6,0,B|120:56|136:56,1,50
184,56,117831,1,0
248,56,118143,1,2
312,56,118456,1,0
376,56,118768,1,0
440,56,119081,5,0
440,120,119393,1,0
440,184,119706,1,0
376,184,120018,1,2
312,184,120331,1,0
248,184,120643,1,0
184,184,120956,6,0,B|136:224|184:272,1,100
240,272,121893,1,0
296,240,122206,1,0
296,176,122518,1,0
232,176,122831,2,0,B|120:176,1,100
64,176,123768,2,0,B|88:224|32:240|96:280,1,100
144,272,124706,5,0
208,272,125018,1,0
272,272,125331,1,0
336,272,125643,1,0
400,272,125956,1,0
400,336,126268,1,0
336,336,126581,2,0,B|264:392|232:296|192:344,1,150,0|2
192,144,128456,6,0,B|304:144,1,100
192,144,129393,6,0,B|248:48,1,100,0|0
304,56,130331,1,0
432,56,130956,1,0
336,184,131581,5,0
256,272,131893,5,2
176,184,132206,5,2
256,192,132518,12,0,139706
256,40,147206,5,0
256,104,147518,1,0
320,104,147831,1,0
288,160,148143,1,0
224,160,148456,1,0
192,104,148768,1,0
128,104,149081,1,0
128,168,149393,1,0
128,232,149706,2,0,B|200:232,1,50,0|2
368,232,150956,6,0,B|416:184|376:176,1,50,0|0
400,128,151581,1,0
400,64,151893,1,0
464,64,152206,1,0
464,128,152518,1,0
464,192,152831,1,0
400,192,153143,2,0,B|344:192|352:224,1,50
264,304,154081,5,0
200,304,154393,1,0
136,304,154706,2,2,B|80:288|88:216,1,100
88,184,155643,2,2,B|96:120|160:112,1,100
192,104,156581,2,4,B|272:96|304:208,1,150
304,320,158143,5,0
368,320,158456,2,2,B|416:296|408:224,1,100
408,168,159393,1,0
408,104,159706,1,0
344,104,160018,5,0
280,104,160331,2,2,B|232:128|240:200,1,100
240,256,161268,1,0
176,256,161581,1,0
112,256,161893,1,0
256,192,162206,12,0,167518
96,64,173456,5,4
256,64,174393,5,4
416,64,175331,5,4
416,192,176268,5,4
416,320,177206,5,4
256,320,178143,5,4
96,320,179081,5,4
96,192,180018,5,4
256,192,182831,12,0,183768
256,192,184081,5,0
256,120,184393,1,0
256,48,184706,2,0,B|312:24|336:72|344:120|400:64,1,150
424,72,185331,1,0
424,144,185643,1,0
424,216,185956,1,0
352,216,186268,1,0
352,288,186581,2,0,B|264:232|208:336|160:264,1,200,0|2
168,200,187518,1,0
168,128,187831,5,0
96,128,188143,1,0
96,56,188456,2,0,B|128:8|160:32|168:64|200:80|280:32,1,200
344,32,189393,1,0
344,104,189706,1,0
344,176,190018,1,0
344,176,190331,1,2
144,184,191268,5,0
144,184,191581,2,0,B|144:328,1,100
184,284,192049,1,0
184,284,192206,1,0
416,288,193143,5,0
416,216,193456,1,0
312,216,193925,1,0
312,216,194081,2,0,B|128:264|416:80|200:128|88:96|216:40,1,300,0|2
312,48,195643,5,0
384,48,195955,1,0
384,120,196268,1,0
384,240,196737,1,2
384,240,196893,1,2
256,192,197831,5,0
176,248,198143,1,0
176,128,198612,1,0
176,128,198768,1,4
256,192,199002,12,0,200018
256,192,200331,5,0
256,120,200643,1,0
392,120,201268,1,0
392,192,201581,1,0
392,264,201893,1,0
320,264,202206,1,0
256,288,202518,1,2
184,288,202831,5,0
184,216,203144,1,0
184,144,203456,1,0
144,88,203769,1,0
72,88,204081,1,0
72,160,204394,1,0
72,232,204706,1,0
144,232,205019,1,0
144,232,205331,1,2
328,232,206268,5,0
400,232,206581,2,0,B|416:240|456:216|456:136,1,100
456,120,207049,1,0
456,120,207205,1,2
312,120,207831,1,0
248,120,208143,2,0,B|136:120,1,100
144,184,208768,2,0,B|144:312,1,100
224,288,209393,1,0
296,288,209706,1,0
296,216,210018,1,0
256,160,210331,1,0
257,161,210643,1,0
256,88,210956,5,0
320,88,211268,2,0,B|392:88,1,50
368,160,211737,1,0
368,160,211893,1,2
368,344,212831,5,0
264,344,213143,1,0
104,344,213612,1,0
104,344,213768,1,2
256,192,214393,5,0
256,192,214706,12,0,220331
256,256,221581,5,2
328,168,221893,5,2
184,168,222206,5,2
120,40,222831,5,0
48,40,223143,1,0
48,176,223768,1,0
120,176,224081,1,0
184,256,224549,1,0
184,256,224705,1,0
256,256,225018,1,0
256,184,225331,1,0
256,112,225643,2,0,B|360:112,1,100,0|2
360,248,226581,1,0
360,328,226893,2,0,B|240:328,1,100
192,328,227518,1,0
120,328,227831,1,0
120,184,228456,5,0
192,184,228768,2,0,B|224:128|264:128|280:200|312:232|352:160,1,200
352,96,229706,1,2
440,224,230643,5,0
440,296,230956,1,0
304,296,231424,1,0
256,192,231581,12,0,233456
64,80,234393,5,0
256,80,235331,1,0
448,80,236268,1,0
448,272,237206,2,0,B|288:272,1,150
120,272,239081,1,0
256,152,240018,1,0
256,192,240956,12,0,247206
