osu file format v13

[General]
AudioFilename: Kalafina - Kizuato.mp3
AudioLeadIn: 0
PreviewTime: 94794
Countdown: 0
SampleSet: Soft
StackLeniency: 0.7
Mode: 0
LetterboxInBreaks: 1
WidescreenStoryboard: 0

[Editor]
Bookmarks: 128150,181669,187039,203336,221484,265187
DistanceSpacing: 1
BeatDivisor: 4
GridSize: 8
TimelineZoom: 1

[Metadata]
Title:Kizuato
TitleUnicode:
Artist:Kalafina
ArtistUnicode:
Creator:Teras
Version:Hard
Source:Kara No Kyoukai
Tags:Ending Theme Movie 3 roflninja
BeatmapID:75060
BeatmapSetID:19307

[Difficulty]
HPDrainRate:8
CircleSize:4
OverallDifficulty:8
ApproachRate:8
SliderMultiplier:1.6
SliderTickRate:2

[Events]
//Background and Video events
0,0,"Kizua.jpg",0,0
//Break Periods
2,27239,35178
2,89462,92586
2,119462,127400
2,163906,167030
2,172795,175919
2,187239,202586
//Storyboard Layer 0 (Background)
//Storyboard Layer 1 (Fail)
//Storyboard Layer 2 (Pass)
//Storyboard Layer 3 (Foreground)
//Storyboard Sound Samples
//Background Colour Transformations
3,100,163,162,255

[TimingPoints]
2225,370.37037037037,3,2,0,82,1,0
11339,-100,4,1,0,82,0,0
11524,-100,4,2,0,82,0,0
15784,-100,4,1,0,82,0,0
15969,-100,4,2,0,82,0,0
22479,-100,4,1,0,82,0,0
22664,-100,4,2,0,82,0,0
25813,-100,4,1,0,29,0,0
25998,-100,4,1,0,41,0,0
26183,-100,4,1,0,51,0,0
26368,-100,4,1,0,58,0,0
26553,-100,4,1,0,67,0,0
26739,-100,4,1,0,78,0,0
26924,-100,4,1,0,88,0,1
27109,-100,4,2,0,88,0,0
43498,-200,4,2,0,88,0,0
44701,-200,4,1,0,40,0,0
44887,-100,4,2,0,88,0,0
52479,-100,4,1,0,28,0,0
52664,-100,4,1,0,39,0,0
52850,-100,4,1,0,48,0,0
53035,-100,4,1,0,58,0,0
53220,-100,4,1,0,69,0,0
53405,-100,4,1,0,79,0,0
53590,-100,4,1,0,88,0,0
53776,-100,4,2,0,88,0,0
57294,-100,4,1,0,40,0,0
57850,-100,4,2,0,49,0,0
58035,-100,4,1,0,48,0,0
58220,-100,4,2,0,88,0,0
61762,-100,4,1,0,49,0,0
62317,-100,4,2,0,49,0,0
62502,-100,4,1,0,49,0,0
62687,-100,4,2,0,91,0,0
63613,-100,4,1,0,51,0,0
63799,-100,4,2,0,89,0,0
66206,-100,4,1,0,49,0,0
66391,-100,4,1,0,60,0,0
66576,-100,4,1,0,71,0,0
66762,-100,4,1,0,79,0,0
66947,-100,4,1,0,91,0,0
67132,-100,4,2,0,89,0,0
69169,-200,4,2,0,89,0,0
70280,-200,4,1,0,89,0,0
70558,-100,4,1,0,51,0,0
71576,-200,4,2,0,49,0,0
80280,-100,4,1,0,51,0,0
80465,-200,4,2,0,51,0,0
93150,-100,4,1,0,51,0,0
94794,-100,4,1,0,59,0,1
115373,-100,4,2,0,59,0,1
119239,-100,4,2,0,88,0,0
141391,-200,4,2,0,52,0,0
144724,-200,4,1,0,62,0,0
146021,-100,4,2,0,90,0,0
149169,-200,4,2,0,90,0,0
149724,-100,4,1,0,50,0,0
150465,-100,4,2,0,87,0,0
153891,-100,4,1,0,52,0,0
154910,-100,4,2,0,88,0,0
158428,-100,4,1,0,51,0,0
159447,-100,4,2,0,89,0,0
162502,-100,4,1,0,49,0,0
167595,-200,4,2,0,49,0,0
176484,-100,4,2,0,51,0,0
176854,-100,4,2,0,88,0,0
179169,-100,4,1,0,49,0,0
203243,-200,4,2,0,91,0,0
203613,-200,4,2,0,49,0,0
220187,-100,4,1,0,49,0,0
221484,-100,4,1,0,49,0,1
245928,-200,4,2,0,49,0,0

[Colours]
Combo1 : 128,0,255
Combo2 : 255,0,0
Combo3 : 0,0,240
Combo4 : 255,255,255

[HitObjects]
80,80,2225,5,0,0:0:0:0:
120,176,2410,1,0,0:0:0:0:
200,104,2595,2,0,B|360:40,1,160
256,272,3521,1,0,0:0:0:0:
256,272,3706,1,2,0:0:0:0:
376,160,4076,5,2,0:0:0:0:
232,96,4447,6,0,B|176:144|120:144|112:224,1,160,2|0,0:0|0:0,0:0:0:0:
232,312,5187,1,0,0:0:0:0:
232,72,5743,1,0,0:0:0:0:
232,72,5928,1,2,0:0:0:0:
344,192,6299,5,2,0:0:0:0:
192,240,6669,6,2,B|168:168|96:160|96:96,1,160
256,88,7410,1,2,0:0:0:0:
312,144,7595,1,0,0:0:0:0:
256,296,7965,1,0,0:0:0:0:
312,240,8150,1,2,0:0:0:0:
312,80,8521,1,0,0:0:0:0:
152,80,8891,1,2,0:0:0:0:
152,240,9262,2,0,B|192:168|248:208|272:120,1,160,0|2,0:0|0:0,0:0:0:0:
384,240,10002,2,0,B|368:192|296:192|264:128,1,160,0|4,0:0|0:0,0:0:0:0:
336,88,10558,1,0,0:0:0:0:
256,64,10743,1,0,0:0:0:0:
176,88,10928,1,0,0:0:0:0:
256,112,11113,1,2,0:0:0:0:
256,192,11299,6,0,B|256:304,1,80,0|0,0:0|0:0,0:0:0:0:
104,312,11854,6,0,B|40:256|96:208|32:160,1,160,2|0,0:0|0:0,0:0:0:0:
472,168,12595,2,0,B|409:222|465:270|412:309,1,160,2|0,0:0|0:0,0:0:0:0:
336,280,13150,1,0,0:0:0:0:
256,304,13336,1,2,0:0:0:0:
184,280,13521,1,0,0:0:0:0:
256,240,13706,6,0,B|272:168|216:144|280:104|232:48,1,160,0|2,0:0|0:0,0:0:0:0:
464,192,14632,1,0,0:0:0:0:
400,144,14817,1,2,0:0:0:0:
344,200,15002,1,0,0:0:0:0:
288,256,15187,1,0,0:0:0:0:
256,64,15558,5,2,0:0:0:0:
256,224,15928,5,0,0:0:0:0:
96,192,16299,1,2,0:0:0:0:
256,160,16669,1,0,0:0:0:0:
416,192,17039,1,2,0:0:0:0:
256,192,17225,12,2,20002,0:0:0:0:
112,72,20373,5,0,0:0:0:0:
352,72,20743,1,2,0:0:0:0:
96,168,21113,1,0,0:0:0:0:
368,168,21484,1,2,0:0:0:0:
64,256,21854,1,0,0:0:0:0:
400,256,22224,1,2,0:0:0:0:
40,336,22595,1,0,0:0:0:0:
424,336,22965,1,2,0:0:0:0:
424,336,23150,1,0,0:0:0:0:
256,48,23706,5,2,0:0:0:0:
56,280,24076,1,0,0:0:0:0:
56,280,24262,2,0,B|136:320|184:272|240:304,1,160
256,224,24817,1,0,0:0:0:0:
304,288,25002,1,0,0:0:0:0:
304,288,25187,2,0,B|400:312|432:264|480:280,1,160,2|0,0:0|0:0,0:0:0:0:
432,192,25928,5,0,0:0:0:0:
352,120,26113,1,0,0:0:0:0:
272,40,26299,1,0,0:0:0:0:
184,120,26484,1,0,0:0:0:0:
104,224,26669,1,0,0:0:0:0:
208,312,26854,1,0,0:0:0:0:
352,312,27039,1,4,0:0:0:0:
104,120,35928,6,0,B|184:184|256:120|368:152,1,240
256,288,36854,1,0,0:0:0:0:
192,240,37039,1,2,0:0:0:0:
256,96,37410,1,0,0:0:0:0:
328,240,37780,1,2,0:0:0:0:
200,328,38150,2,0,B|88:328|168:240|120:176|-16:208|16:80,1,320
176,96,39262,1,2,0:0:0:0:
256,232,39632,5,0,0:0:0:0:
216,296,39817,1,0,0:0:0:0:
256,368,40002,1,2,0:0:0:0:
296,296,40187,1,0,0:0:0:0:
256,232,40373,6,0,B|280:136|224:96|280:48,1,160,0|2,0:0|0:0,0:0:0:0:
176,80,40928,2,0,B|152:168|48:168,1,160
56,248,41484,2,0,B|160:248|184:336,1,160,2|0,0:0|0:0,0:0:0:0:
272,192,42224,1,2,0:0:0:0:
344,48,42595,1,0,0:0:0:0:
408,192,42965,1,2,0:0:0:0:
344,344,43336,1,0,0:0:0:0:
272,192,43706,2,0,B|200:208|128:160|32:192,1,240,2|0,0:0|0:0,0:0:0:0:
96,48,45187,6,0,B|136:128|272:56|344:152,1,240,2|0,0:0|0:0,0:0:0:0:
315,123,45928,1,2,0:0:0:0:
168,192,46299,1,0,0:0:0:0:
312,264,46669,1,2,0:0:0:0:
168,328,47039,1,0,0:0:0:0:
312,264,47410,1,2,0:0:0:0:
168,192,47780,1,0,0:0:0:0:
256,64,48150,1,2,0:0:0:0:
296,216,48521,6,0,B|240:240|192:200,3,80,0|0|2|0,0:0|0:0|0:0|0:0,0:0:0:0:
176,288,49262,6,0,B|120:208|192:136,1,160,2|0,0:0|0:0,0:0:0:0:
336,144,49817,2,0,B|400:240|312:304,1,160
256,320,50373,2,0,B|280:224|224:160|264:64,1,240
336,64,51113,1,0,0:0:0:0:
256,40,51299,1,0,0:0:0:0:
176,64,51484,1,2,0:0:0:0:
88,192,51854,1,0,0:0:0:0:
256,344,52224,1,2,0:0:0:0:
424,192,52595,1,0,0:0:0:0:
336,176,52780,5,0,0:0:0:0:
240,192,52965,1,0,0:0:0:0:
136,176,53150,1,0,0:0:0:0:
24,192,53336,1,0,0:0:0:0:
136,256,53521,1,0,0:0:0:0:
240,328,53706,1,4,0:0:0:0:
256,48,54262,5,0,0:0:0:0:
256,48,54447,1,0,0:0:0:0:
88,104,54817,1,2,0:0:0:0:
184,232,55187,1,0,0:0:0:0:
344,232,55558,1,2,0:0:0:0:
440,104,55928,1,4,0:0:0:0:
296,40,56299,5,2,0:0:0:0:
256,192,56669,1,0,0:0:0:0:
216,40,57039,1,2,0:0:0:0:
176,192,57410,5,0,0:0:0:0:
256,216,57595,1,0,0:0:0:0:
328,192,57780,1,0,0:0:0:0:
256,160,57965,2,0,B|256:72,1,80
328,312,58706,5,0,0:0:0:0:
256,272,58891,1,0,0:0:0:0:
104,312,59262,1,2,0:0:0:0:
168,168,59632,1,0,0:0:0:0:
328,168,60002,1,0,0:0:0:0:
256,24,60373,1,2,0:0:0:0:
256,184,60743,1,0,0:0:0:0:
256,344,61113,1,2,0:0:0:0:
256,344,61484,1,0,0:0:0:0:
120,264,61854,5,0,0:0:0:0:
72,200,62039,1,0,0:0:0:0:
120,136,62224,1,0,0:0:0:0:
168,200,62410,2,0,B|256:200,1,80
440,72,63336,5,2,0:0:0:0:
296,144,63706,2,0,B|208:176|136:128|48:152,1,240
56,232,64447,1,0,0:0:0:0:
224,304,64817,2,0,B|312:336|296:160|464:112,1,320,2|2,0:0|0:0,0:0:0:0:
432,40,65743,1,0,0:0:0:0:
432,40,65928,1,0,0:0:0:0:
288,104,66299,6,0,B|192:104,1,80
160,168,66669,2,0,B|264:168,1,80
288,232,67039,2,0,B|192:232,1,80
104,248,67410,5,2,0:0:0:0:
160,96,67780,1,0,0:0:0:0:
280,200,68150,1,2,0:0:0:0:
224,352,68521,1,0,0:0:0:0:
224,352,68891,1,2,0:0:0:0:
224,352,69262,2,0,B|296:312|392:344|480:312,1,240
456,160,70743,6,0,B|352:160,4,80,0|0|0|0|8,0:0|0:0|0:0|0:0|0:0,0:0:0:0:
232,80,72595,6,0,B|272:120|312:72,1,80,0|0,0:0|0:0,0:0:0:0:
376,56,73336,1,2,0:0:0:0:
416,128,73706,2,0,B|352:208|440:272,1,160
368,312,74817,2,0,B|192:312,1,160,2|0,0:0|0:0,0:0:0:0:
192,232,75928,6,0,B|232:200|280:240,1,80,0|2,0:0|0:0,0:0:0:0:
328,184,76669,1,0,0:0:0:0:
288,112,77039,2,0,B|208:64|136:128,1,160,0|2,0:0|0:0,0:0:0:0:
120,160,77965,1,0,0:0:0:0:
136,200,78150,1,0,0:0:0:0:
256,304,78891,5,0,0:0:0:0:
304,240,79262,2,0,B|256:176|256:176|200:256,1,160,2|0,0:0|0:0,0:0:0:0:
256,176,80373,1,0,0:0:0:0:
16,184,81484,6,0,B|16:112|56:112,1,80
88,184,82224,1,2,0:0:0:0:
88,264,82595,2,0,B|160:264|160:216,1,80
160,152,83336,1,0,0:0:0:0:
232,192,83706,2,0,B|408:192,1,160,2|0,0:0|0:0,0:0:0:0:
432,120,84817,6,0,B|432:48|384:48,1,80,0|2,0:0|0:0,0:0:0:0:
352,112,85558,1,0,0:0:0:0:
280,80,85928,1,0,0:0:0:0:
208,112,86299,1,0,0:0:0:0:
144,160,86669,2,0,B|144:216|200:216,1,80,2|0,0:0|0:0,0:0:0:0:
256,264,87410,2,0,B|256:352,2,80,0|0|2,0:0|0:0|0:0,0:0:0:0:
256,192,88336,12,4,89262,0:0:0:0:
256,64,93336,5,0,0:0:0:0:
200,120,93521,1,0,0:0:0:0:
248,184,93706,1,0,0:0:0:0:
224,264,93891,1,0,0:0:0:0:
256,336,94076,1,0,0:0:0:0:
256,336,94262,2,0,B|168:336,3,80,0|0|0|4,0:0|0:0|0:0|0:0,0:0:0:0:
328,280,95187,6,0,B|504:288|440:96,1,240
449,130,95928,1,8,0:0:0:0:
304,192,96299,1,0,0:0:0:0:
200,72,96669,1,0,0:0:0:0:
88,192,97039,5,0,0:0:0:0:
152,344,97410,2,0,B|232:296|312:352|400:280|416:272,1,240,0|0,0:0|0:0,0:0:0:0:
456,248,98150,1,8,0:0:0:0:
464,168,98336,1,0,0:0:0:0:
392,200,98521,1,0,0:0:0:0:
400,120,98706,1,0,0:0:0:0:
328,152,98891,2,0,B|248:120|184:184|144:184,1,160,0|4,0:0|0:0,0:0:0:0:
40,272,99632,6,0,B|120:328|208:264,1,160
344,320,100373,1,8,0:0:0:0:
344,160,100743,1,0,0:0:0:0:
424,304,101113,1,0,0:0:0:0:
288,224,101484,2,0,B|192:280|128:224|128:224|112:304|8:304,1,320
40,144,102595,1,8,0:0:0:0:
80,72,102780,1,0,0:0:0:0:
120,144,102965,1,0,0:0:0:0:
104,224,103150,1,0,0:0:0:0:
184,248,103336,5,0,0:0:0:0:
248,200,103521,1,0,0:0:0:0:
200,144,103706,2,0,B|232:48|360:48|360:48|360:264,1,400,0|0,0:0|0:0,0:0:0:0:
360,248,104817,1,8,0:0:0:0:
224,328,105187,1,0,0:0:0:0:
216,168,105558,1,0,0:0:0:0:
88,256,105928,5,0,0:0:0:0:
24,112,106299,2,0,B|144:72|272:128,1,240
328,160,107039,2,0,B|272:224|152:192,1,160,8|0,0:0|0:0,0:0:0:0:
56,296,107780,1,0,0:0:0:0:
192,216,108150,1,4,0:0:0:0:
280,344,108521,1,0,0:0:0:0:
432,296,108891,2,0,B|368:216|432:144|352:128,1,160,0|8,0:0|0:0,0:0:0:0:
386,145,109447,1,0,0:0:0:0:
386,145,109632,1,0,0:0:0:0:
386,145,109817,1,0,0:0:0:0:
320,104,110002,6,0,B|208:72|128:120,1,160,0|4,0:0|0:0,0:0:0:0:
256,192,110558,12,0,114817,0:0:0:0:
256,56,115558,5,2,0:0:0:0:
248,80,115650,1,0,0:0:0:0:
256,104,115743,1,0,0:0:0:0:
264,128,115836,1,0,0:0:0:0:
256,152,115928,1,0,0:0:0:0:
248,176,116021,1,0,0:0:0:0:
264,200,116113,1,0,0:0:0:0:
280,224,116206,1,0,0:0:0:0:
256,248,116299,1,2,0:0:0:0:
240,272,116391,1,0,0:0:0:0:
264,296,116484,1,0,0:0:0:0:
280,320,116576,1,0,0:0:0:0:
256,344,116669,1,0,0:0:0:0:
256,192,117039,12,4,119262,0:0:0:0:
80,80,128150,5,2,0:0:0:0:
112,152,128336,2,0,B|208:128|328:160|448:144,1,320
456,224,129262,1,0,0:0:0:0:
320,312,129632,1,2,0:0:0:0:
216,192,130002,1,0,0:0:0:0:
216,352,130373,1,2,0:0:0:0:
288,208,130743,1,0,0:0:0:0:
160,304,131113,1,2,0:0:0:0:
320,280,131484,1,0,0:0:0:0:
248,312,131669,5,0,0:0:0:0:
192,256,131854,1,2,0:0:0:0:
264,216,132039,1,0,0:0:0:0:
296,144,132224,1,0,0:0:0:0:
224,112,132410,1,0,0:0:0:0:
288,64,132595,1,2,0:0:0:0:
128,56,132965,6,0,B|128:120|56:160|64:296,1,240
63,283,133706,1,0,0:0:0:0:
216,336,134076,1,2,0:0:0:0:
232,176,134447,1,0,0:0:0:0:
360,264,134817,1,2,0:0:0:0:
208,224,135187,1,0,0:0:0:0:
320,336,135558,1,2,0:0:0:0:
240,328,135743,5,0,0:0:0:0:
192,264,135928,1,0,0:0:0:0:
112,240,136113,1,0,0:0:0:0:
48,192,136299,1,2,0:0:0:0:
112,144,136484,1,0,0:0:0:0:
184,112,136669,1,0,0:0:0:0:
232,48,136854,1,0,0:0:0:0:
232,48,137039,2,0,B|304:112|392:80,1,160,4|0,0:0|0:0,0:0:0:0:
400,320,137965,5,0,0:0:0:0:
360,248,138150,1,0,0:0:0:0:
400,96,138521,1,2,0:0:0:0:
272,192,138891,2,0,B|200:192|96:192,1,160,0|2,0:0|0:0,0:0:0:0:
256,120,139632,1,0,0:0:0:0:
256,280,140002,1,2,0:0:0:0:
120,192,140373,1,0,0:0:0:0:
280,160,140743,6,0,B|280:256,3,80
248,264,141484,6,0,B|184:296|80:264,1,160,2|0,0:0|0:0,0:0:0:0:
88,184,142595,2,0,B|160:168|256:184,1,160,2|0,0:0|0:0,0:0:0:0:
288,200,143521,1,0,0:0:0:0:
328,192,143706,1,0,0:0:0:0:
408,184,144076,1,0,0:0:0:0:
448,112,144447,1,2,0:0:0:0:
368,112,144817,2,0,B|112:112,1,240
216,336,146484,5,0,0:0:0:0:
296,336,146669,1,2,0:0:0:0:
424,240,147039,1,0,0:0:0:0:
296,144,147410,1,2,0:0:0:0:
168,240,147780,1,0,0:0:0:0:
192,80,148150,1,2,0:0:0:0:
296,200,148521,1,0,0:0:0:0:
400,80,148891,1,2,0:0:0:0:
328,112,149262,2,0,B|272:96|248:136,1,80,0|2,0:0|0:0,0:0:0:0:
224,200,149817,5,0,0:0:0:0:
176,136,150002,1,0,0:0:0:0:
96,152,150187,1,0,0:0:0:0:
144,216,150373,2,0,B|72:336|304:328,1,240
285,328,151113,5,2,0:0:0:0:
336,264,151299,1,0,0:0:0:0:
408,296,151484,1,0,0:0:0:0:
320,160,151854,1,2,0:0:0:0:
184,80,152224,1,0,0:0:0:0:
48,168,152595,2,0,B|80:240|224:256|328:352,1,320,2|2,0:0|0:0,0:0:0:0:
472,344,153706,1,0,0:0:0:0:
424,192,154076,5,0,0:0:0:0:
392,120,154262,1,0,0:0:0:0:
312,96,154447,1,0,0:0:0:0:
248,144,154632,1,0,0:0:0:0:
328,184,154817,2,0,B|264:336,1,160,0|0,0:0|0:0,0:0:0:0:
200,184,155558,6,0,B|272:352,1,160,2|8,0:0|0:0,0:0:0:0:
104,336,156299,1,2,0:0:0:0:
56,272,156484,1,0,0:0:0:0:
104,208,156669,1,0,0:0:0:0:
72,136,156854,1,0,0:0:0:0:
104,64,157039,1,2,0:0:0:0:
248,144,157410,2,0,B|352:120|416:184|496:136,1,240
484,142,158150,1,0,0:0:0:0:
400,280,158521,6,0,B|304:312|232:264,1,160
244,271,159076,1,0,0:0:0:0:
244,271,159262,1,0,0:0:0:0:
384,192,159632,5,0,0:0:0:0:
256,96,160002,1,2,0:0:0:0:
128,192,160373,1,0,0:0:0:0:
256,296,160743,1,2,0:0:0:0:
256,136,161113,5,0,0:0:0:0:
240,216,161299,1,0,0:0:0:0:
256,296,161484,1,2,0:0:0:0:
400,232,161854,1,2,0:0:0:0:
336,280,162039,1,0,0:0:0:0:
176,280,162410,1,0,0:0:0:0:
112,232,162595,1,0,0:0:0:0:
256,168,162965,5,0,0:0:0:0:
192,216,163150,1,0,0:0:0:0:
256,264,163336,1,0,0:0:0:0:
320,216,163521,1,0,0:0:0:0:
256,168,163706,1,4,0:0:0:0:
80,80,167780,6,0,B|72:136|144:136,1,80,0|2,0:0|0:0,0:0:0:0:
200,136,168521,1,0,0:0:0:0:
256,192,168891,2,0,B|256:240|184:240,1,80
48,272,170002,5,0,0:0:0:0:
72,304,170187,1,0,0:0:0:0:
104,328,170373,2,0,B|168:352|280:336,1,160,0|2,0:0|0:0,0:0:0:0:
312,272,171484,6,0,B|232:248|136:280,1,160
88,224,172595,1,4,0:0:0:0:
88,104,176669,5,0,0:0:0:0:
216,192,177039,1,0,0:0:0:0:
256,40,177410,1,0,0:0:0:0:
296,192,177780,1,0,0:0:0:0:
432,104,178150,1,0,0:0:0:0:
432,264,178521,2,0,B|360:320|256:280|104:288,1,320
80,128,179632,5,0,0:0:0:0:
152,88,179817,1,0,0:0:0:0:
256,216,180187,1,0,0:0:0:0:
200,160,180373,1,0,0:0:0:0:
440,192,180928,6,0,B|360:240|272:192|176:200,1,240,0|4,0:0|0:0,0:0:0:0:
256,192,181669,12,0,187039,0:0:0:0:
88,72,203336,5,0,0:0:0:0:
96,112,203521,1,0,0:0:0:0:
120,144,203706,2,0,B|160:176|208:136,1,80,2|0,0:0|0:0,0:0:0:0:
256,248,204632,5,0,0:0:0:0:
256,288,204817,1,0,0:0:0:0:
312,344,205187,1,2,0:0:0:0:
312,264,205558,1,2,0:0:0:0:
304,184,205928,6,0,B|304:144|288:128|296:96,1,80
176,104,206854,1,0,0:0:0:0:
176,104,207039,2,0,B|176:160|112:160,1,80
128,240,207780,5,0,0:0:0:0:
168,304,208150,2,0,B|224:336|256:296,1,80,2|0,0:0|0:0,0:0:0:0:
256,232,208891,2,0,B|312:216|336:240,1,80
344,320,209632,2,0,B|400:336|432:312,1,80,2|0,0:0|0:0,0:0:0:0:
440,240,210373,2,0,B|408:176|488:104|432:32,1,200
440,45,211484,1,4,0:0:0:0:
400,64,211669,6,0,B|344:96|272:64,1,120
248,88,212410,1,0,0:0:0:0:
216,104,212595,1,2,0:0:0:0:
144,80,212965,2,0,B|72:56|32:128,1,120
39,115,213706,1,0,0:0:0:0:
88,184,214076,5,2,0:0:0:0:
128,168,214262,1,0,0:0:0:0:
168,184,214447,1,0,0:0:0:0:
208,176,214632,1,0,0:0:0:0:
248,168,214817,1,0,0:0:0:0:
256,248,215187,6,0,B|328:224|392:256,1,120
373,248,215928,1,2,0:0:0:0:
336,320,216299,1,0,0:0:0:0:
256,320,216669,1,0,0:0:0:0:
192,272,217039,6,0,B|136:272|136:216,1,80,2|0,0:0|0:0,0:0:0:0:
64,192,217780,1,0,0:0:0:0:
128,136,218150,2,0,B|128:64|224:64,1,120
207,64,218891,1,2,0:0:0:0:
208,144,219262,6,0,B|288:176|336:136|368:160,1,160,0|2,0:0|0:0,0:0:0:0:
368,320,220373,5,0,0:0:0:0:
256,208,220743,5,0,0:0:0:0:
200,144,220928,1,0,0:0:0:0:
256,88,221113,1,0,0:0:0:0:
312,152,221299,1,0,0:0:0:0:
256,208,221484,1,4,0:0:0:0:
96,192,221854,6,0,B|96:344|288:304,1,240
260,308,222595,1,8,0:0:0:0:
368,192,222965,1,0,0:0:0:0:
232,272,223336,1,0,0:0:0:0:
392,248,223706,1,0,0:0:0:0:
256,336,224076,2,0,B|72:336|80:200,1,240
79,216,224817,1,8,0:0:0:0:
128,64,225187,5,0,0:0:0:0:
152,144,225373,1,0,0:0:0:0:
208,80,225558,1,0,0:0:0:0:
208,208,225743,1,0,0:0:0:0:
288,104,225928,1,4,0:0:0:0:
376,240,226299,1,0,0:0:0:0:
216,240,226669,1,0,0:0:0:0:
304,376,227039,2,0,B|192:344|136:376|32:368,1,240,8|0,0:0|0:0,0:0:0:0:
65,369,227780,1,0,0:0:0:0:
112,216,228150,1,0,0:0:0:0:
224,328,228521,2,0,B|312:288|376:336|472:304,1,240
460,307,229262,1,8,0:0:0:0:
352,192,229632,5,0,0:0:0:0:
384,120,229817,1,0,0:0:0:0:
320,72,230002,1,0,0:0:0:0:
256,120,230187,1,0,0:0:0:0:
280,192,230373,1,4,0:0:0:0:
104,192,230743,1,0,0:0:0:0:
152,128,230928,1,0,0:0:0:0:
184,288,231299,1,0,0:0:0:0:
136,224,231484,1,8,0:0:0:0:
296,232,231854,1,0,0:0:0:0:
456,232,232224,1,0,0:0:0:0:
376,96,232595,6,0,B|288:136|200:88|128:104,1,240
40,232,233521,1,0,0:0:0:0:
88,168,233706,1,8,0:0:0:0:
40,320,234076,1,0,0:0:0:0:
200,344,234447,1,0,0:0:0:0:
352,296,234817,2,0,B|416:280|408:216|472:176,3,160,0|0|0|8,0:0|0:0|0:0|0:0,0:0:0:0:
344,72,236299,5,0,0:0:0:0:
272,112,236484,1,0,0:0:0:0:
200,88,236669,1,0,0:0:0:0:
136,136,236854,1,0,0:0:0:0:
56,152,237039,1,4,0:0:0:0:
256,192,237224,12,0,243706,0:0:0:0:
256,56,244447,5,0,0:0:0:0:
256,56,244817,5,0,0:0:0:0:
256,136,245002,1,0,0:0:0:0:
256,152,245095,1,0,0:0:0:0:
256,168,245187,1,0,0:0:0:0:
256,184,245280,1,0,0:0:0:0:
256,200,245373,1,0,0:0:0:0:
256,216,245465,1,0,0:0:0:0:
256,232,245558,1,0,0:0:0:0:
256,248,245650,1,0,0:0:0:0:
256,264,245743,1,0,0:0:0:0:
256,280,245836,1,0,0:0:0:0:
256,296,245928,1,4,0:0:0:0:
320,336,246299,6,0,B|376:336|376:280,1,80,0|2,0:0|0:0,0:0:0:0:
320,232,247039,1,0,0:0:0:0:
256,280,247410,5,0,0:0:0:0:
240,240,247595,1,0,0:0:0:0:
256,200,247780,1,0,0:0:0:0:
240,160,247965,1,0,0:0:0:0:
256,120,248150,1,2,0:0:0:0:
256,40,248521,6,0,B|184:48|168:128,1,120
171,113,249262,1,0,0:0:0:0:
152,192,249632,5,2,0:0:0:0:
168,232,249817,1,0,0:0:0:0:
152,264,250002,1,0,0:0:0:0:
168,304,250187,1,0,0:0:0:0:
152,344,250373,1,0,0:0:0:0:
272,344,250928,6,0,B|320:328|392:344,1,120
432,272,251854,1,0,0:0:0:0:
368,224,252224,1,0,0:0:0:0:
296,248,252595,1,2,0:0:0:0:
256,136,253150,5,0,0:0:0:0:
256,136,253336,1,0,0:0:0:0:
192,176,253706,1,0,0:0:0:0:
112,160,254076,1,2,0:0:0:0:
88,192,254262,1,0,0:0:0:0:
112,224,254447,1,0,0:0:0:0:
88,256,254632,1,0,0:0:0:0:
112,288,254817,1,4,0:0:0:0:
