osu file format v12

[General]
AudioFilename: 12.mp3
AudioLeadIn: 0
PreviewTime: 220501
Countdown: 0
SampleSet: Soft
StackLeniency: 0.7
Mode: 0
LetterboxInBreaks: 0
WidescreenStoryboard: 0

[Editor]
Bookmarks: 10096,63609,107393,151177,209555,229014,272798
DistanceSpacing: 1
BeatDivisor: 4
GridSize: 4

[Metadata]
Title:Kimi no Gin no Niwa
TitleUnicode:君の銀の庭
Artist:Kalafina
ArtistUnicode:Kalafina
Creator:ZZHBOY
Version:Collab Insane
Source:Puella Magi Madoka Magica
Tags:劇場版 魔法少女まどか☆マギカ [新編] 叛逆の物語 ending Fycho yf_bmp Awaken S_o_a_p 615915887
BeatmapID:331496
BeatmapSetID:131685

[Difficulty]
HPDrainRate:5
CircleSize:4
OverallDifficulty:7
ApproachRate:8
SliderMultiplier:1.4
SliderTickRate:1

[Events]
//Background and Video events
0,0,"BG.jpg",0,0
//Break Periods
2,204907,208822
2,219502,223417
//Storyboard Layer 0 (Background)
//Storyboard Layer 1 (Fail)
//Storyboard Layer 2 (Pass)
//Storyboard Layer 3 (Foreground)
Sprite,Foreground,Centre,"names\yf_bmp.png",550,440 F,2,9690,10096,0,1 F,2,10096,63001,1 F,2,63001,63406,1,0
Sprite,Foreground,Centre,"names\Awaken.png",550,440 F,2,63205,63609,0,1 F,2,63609,106987,1 F,2,106987,107190,1,0
Sprite,Foreground,Centre,"names\S o a p.png",550,440 F,2,107191,107393,0,1 F,2,107393,150366,1 F,2,150366,150771,1,0
Sprite,Foreground,Centre,"names\615915887.png",550,440 F,2,150772,151177,0,1 F,2,151177,204285,1 F,2,204285,204690,1,0
Sprite,Foreground,Centre,"names\ZZHBOY.png",550,440 F,2,209150,209555,0,1 F,2,209555,296717,1 F,2,296717,297123,1,0
//Storyboard Sound Samples
//Background Colour Transformations
3,100,163,162,255

[TimingPoints]
10113,405.405405405405,3,2,1,80,1,0
19842,-100,3,2,1,40,0,0
20045,-100,3,2,1,50,0,0
29572,-100,3,2,1,60,0,0
33525,-100,3,2,1,10,0,0
33626,-100,3,2,1,60,0,0
33930,-100,3,2,1,10,0,0
34031,-100,3,2,1,60,0,0
34335,-100,3,2,1,10,0,0
34437,-100,3,2,1,60,0,0
36464,-133.333333333333,3,2,1,60,0,0
36869,-100,3,2,1,60,0,0
37579,-100,3,2,1,10,0,0
37680,-100,3,2,1,60,0,0
37984,-100,3,2,1,10,0,0
38085,-100,3,2,1,60,0,0
38390,-100,3,2,1,10,0,0
38491,-100,3,2,1,60,0,0
50552,-100,3,2,1,10,0,0
50653,-100,3,2,1,60,0,0
50957,-100,3,2,1,10,0,0
51058,-100,3,2,1,60,0,0
51362,-100,3,2,1,10,0,0
51464,-100,3,2,1,60,0,0
63626,-100,3,2,1,60,0,1
68491,-200,3,2,1,60,0,1
69099,-133.333333333333,3,2,1,60,0,1
69707,-200,3,2,1,60,0,1
70315,-133.333333333333,3,2,1,60,0,1
70923,-100,3,2,1,60,0,1
78221,-200,3,2,1,60,0,1
78829,-133.333333333333,3,2,1,60,0,1
79437,-200,3,2,1,60,0,1
80045,-133.333333333333,3,2,1,60,0,1
80653,-100,3,2,1,60,0,1
87849,-100,3,2,1,70,0,0
87950,-100,3,2,1,70,0,1
92815,-100,3,2,1,50,0,0
97275,-100,3,2,1,25,0,0
97680,-100,3,2,1,50,0,0
107410,-100,3,2,1,50,0,0
107815,-181.818181818181,3,2,1,40,0,0
108322,-100,3,2,1,40,0,0
110248,-181.818181818182,3,2,1,40,0,0
110754,-100,3,2,1,40,0,0
116329,-133.333333333333,3,2,1,40,0,0
117140,-100,3,2,1,40,0,0
117545,-181.818181818182,3,2,1,40,0,0
118153,-100,3,2,1,40,0,0
119977,-181.818181818182,3,2,1,40,0,0
120585,-100,3,2,1,40,0,0
126869,-181.818181818182,3,2,1,40,0,0
127883,-100,3,2,1,40,0,0
129302,-181.818181818181,3,2,1,40,0,0
130315,-100,3,2,1,40,0,0
130518,-181.818181818181,3,2,1,40,0,0
132545,-100,3,2,1,40,0,0
133356,-181.818181818182,3,2,1,40,0,0
137815,-100,3,2,1,40,0,0
139031,-181.818181818181,3,2,1,40,0,0
140045,-100,3,2,1,40,0,0
141464,-181.818181818181,3,2,1,40,0,0
142275,-100,3,2,1,40,0,0
146329,-181.818181818181,3,2,1,40,0,0
147748,-100,3,2,1,50,0,0
151194,-100,3,2,1,60,0,1
175518,-200,3,2,1,60,0,0
182815,-100,3,2,1,60,0,0
185248,-200,3,2,1,60,0,0
190112,-100,3,2,1,60,0,0
209572,-80,3,2,1,60,0,0
210788,-100,3,2,1,60,0,0
211092,-80,3,2,1,60,0,0
212612,-80,3,2,1,60,0,0
213626,-80,3,2,1,70,0,0
214133,-80,3,2,1,60,0,0
215653,-80,3,2,1,60,0,0
215957,-80,3,2,1,60,0,0
218744,-80,3,2,1,20,0,0
218846,-133.333333333333,3,2,1,60,0,0
218998,-133.333333333333,3,2,1,20,0,0
219302,-100,3,2,1,100,0,0
224167,-100,3,2,1,60,0,1
224775,-80,3,2,1,60,0,1
224977,-66.6666666666667,3,2,1,60,0,1
225180,-80,3,2,1,60,0,1
226194,-100,3,2,1,50,0,1
226396,-80,3,2,1,60,0,1
226599,-66.6666666666667,3,2,1,50,0,1
227004,-80,3,2,1,70,0,1
227612,-100,3,2,1,60,0,1
227815,-80,3,2,1,70,0,1
233390,-80,3,2,1,60,0,1
233592,-80,3,2,1,70,0,1
234099,-100,3,2,1,60,0,1
234302,-80,3,2,1,60,0,1
234707,-66.6666666666667,3,2,1,60,0,1
234910,-80,3,2,1,60,0,1
237545,-100,3,2,1,60,0,1
238761,-80,3,2,1,70,0,1
239015,-80,3,2,1,20,0,1
239116,-80,3,2,1,70,0,1
239521,-80,3,2,1,20,0,1
239623,-80,3,2,1,70,0,1
242004,-80,3,2,1,70,0,1
243626,-100,3,2,1,60,0,1
244234,-80,3,2,1,70,0,1
246058,-100,3,2,1,60,0,1
250923,-133.333333333333,3,2,1,50,0,1
251329,-100,3,2,1,60,0,1
252748,-79.9999999999999,3,2,1,50,0,1
253356,-100,3,2,1,60,0,1
257714,-100,3,2,1,20,0,1
257917,-100,3,2,1,60,0,1
258221,-100,3,2,1,60,0,0
261869,-133.333333333333,3,2,1,40,0,0
262275,-100,3,2,1,60,0,0
269572,-133.333333333333,3,2,1,60,0,0
269977,-100,3,2,1,60,0,0
272815,-100,3,2,1,40,0,0
277376,-100,3,2,1,25,0,0
277579,-133.333333333333,3,2,1,45,0,0
277984,-133.333333333333,3,2,1,15,0,0
278187,-133.333333333333,3,2,1,45,0,0
280518,-100,3,2,1,45,0,0
282140,-100,3,2,1,45,0,0
284977,-100,3,2,1,30,0,0
286194,-100,3,2,1,20,0,0
297140,-100,3,2,1,10,0,0

[Colours]
Combo1 : 245,255,55
Combo2 : 255,159,159
Combo3 : 139,139,139
Combo4 : 85,109,251
Combo5 : 255,52,47

[HitObjects]
244,308,10113,5,4,0:0:0:0:
316,268,10315,1,0,0:0:0:0:
400,268,10518,1,0,0:0:0:0:
360,340,10721,1,0,0:0:0:0:
244,308,10923,2,0,P|212:252|212:176,1,140,2|0,0:0|3:0,0:0:0:0:
211,178,11734,2,0,P|252:108|236:56,1,140,0|2,0:0|0:0,0:0:0:0:
168,108,12342,1,0,0:0:0:0:
276,228,12545,5,0,0:0:0:0:
360,228,12748,1,0,0:0:0:0:
428,180,12950,1,0,0:0:0:0:
456,100,13153,1,0,0:0:0:0:
360,228,13356,2,0,P|336:288|384:344,1,140,2|0,0:0|3:0,0:0:0:0:
428,180,13964,5,0,0:0:0:0:
352,144,14167,1,0,0:0:0:0:
284,196,14369,1,0,0:0:0:0:
216,144,14572,1,2,0:0:0:0:
216,144,14977,5,0,0:0:0:0:
244,64,15180,1,0,0:0:0:0:
328,64,15383,1,0,0:0:0:0:
284,196,15585,1,0,0:0:0:0:
144,184,15788,2,0,L|0:172,1,140,2|0,0:0|3:0,0:0:0:0:
4,172,16599,2,0,P|0:240|48:288,1,140,0|2,0:0|0:0,0:0:0:0:
128,308,17207,1,0,0:0:0:0:
204,272,17410,5,0,0:0:0:0:
212,304,17612,1,0,0:0:0:0:
204,340,17815,1,0,0:0:0:0:
184,368,18018,1,0,0:0:0:0:
136,228,18221,1,2,0:0:0:0:
136,228,18626,6,0,B|172:184|228:224|264:180,1,140,0|0,3:0|0:0,0:0:0:0:
288,60,19234,1,0,3:0:0:0:
164,64,19437,1,4,0:3:0:0:
164,64,19842,5,4,0:0:0:0:
157,147,20248,1,2,0:0:0:0:
232,112,20653,1,0,0:0:0:0:
84,96,20856,5,0,0:0:0:0:
84,96,21058,2,0,P|72:160|88:236,2,140,0|2|0,0:0|0:0|0:0,0:0:0:0:
236,332,22275,2,0,L|312:320,2,70,0|0|2,0:0|0:0|0:0,0:0:0:0:
164,292,23085,5,0,0:0:0:0:
240,172,23288,1,0,0:0:0:0:
240,172,23491,2,0,P|262:123|236:40,2,140,0|2|0,0:0|0:0|0:0,0:0:0:0:
24,352,24707,2,0,L|12:264,2,70,0|0|2,0:0|0:0|0:0,0:0:0:0:
96,308,25518,5,0,0:0:0:0:
304,344,25923,1,0,0:0:0:0:
304,344,26126,1,0,0:0:0:0:
352,276,26329,1,2,0:0:0:0:
364,244,26531,1,0,0:0:0:0:
360,208,26734,1,0,0:0:0:0:
220,52,27140,5,0,0:0:0:0:
220,52,27342,1,0,0:0:0:0:
220,52,27545,2,0,P|204:116|224:192,1,140,2|0,0:0|0:0,0:0:0:0:
221,186,28356,1,0,0:0:0:0:
288,236,28558,1,0,0:0:0:0:
300,152,28761,1,2,0:0:0:0:
132,132,28964,1,0,0:0:0:0:
108,300,29167,1,0,0:0:0:0:
276,320,29369,1,0,0:0:0:0:
452,236,29572,5,4,0:0:0:0:
472,156,29775,1,0,0:0:0:0:
404,108,29977,2,0,B|360:124|316:72|268:88,1,140,2|0,0:0|0:0,0:0:0:0:
164,128,30585,1,0,0:0:0:0:
164,128,30788,2,0,P|112:132|44:80,2,140,0|2|0,0:0|0:0|0:0,0:0:0:0:
336,272,32004,2,0,L|408:280,1,70
336,272,32410,6,0,P|300:208|320:144,1,140,2|0,0:0|0:0,0:0:0:0:
320,356,33018,1,0,0:0:0:0:
320,356,33221,2,0,P|272:360|224:328,1,105,0|0,0:0|0:0,0:0:0:0:
184,152,33626,2,0,P|211:191|207:249,1,105,2|0,0:0|0:0,0:0:0:0:
80,371,34031,2,0,P|103:325|149:303,1,105,0|0,0:0|0:0,0:0:0:0:
225,330,34437,5,0,0:0:0:0:
340,272,34640,1,0,0:0:0:0:
360,132,34842,1,2,0:0:0:0:
304,196,35045,1,0,0:0:0:0:
340,272,35248,1,0,0:0:0:0:
340,272,35653,5,0,0:0:0:0:
368,248,35856,1,0,0:0:0:0:
360,132,36058,1,2,0:0:0:0:
356,168,36261,1,0,0:0:0:0:
476,224,36464,2,0,L|428:196,1,52.5000020027161
292,224,36869,1,0,0:0:0:0:
216,260,37072,1,0,0:0:0:0:
136,280,37275,6,0,P|84:280|44:248,1,105,2|0,0:0|0:0,0:0:0:0:
192,220,37680,2,0,P|217:265|210:315,1,105
112,204,38085,2,0,P|138:158|185:140,1,105
268,140,38491,2,0,P|335:152|392:112,1,140,2|0,0:0|0:0,0:0:0:0:
312,36,39099,1,0,0:0:0:0:
268,140,39302,5,0,3:0:0:0:
436,140,39707,1,2,0:0:0:0:
336,276,40112,1,0,0:0:0:0:
268,224,40315,1,0,0:0:0:0:
188,248,40518,6,0,P|148:252|116:240,1,70,0|0,0:0|0:0,0:0:0:0:
96,120,40923,2,0,P|160:108|232:132,1,140,2|0,0:0|0:0,0:0:0:0:
296,256,41531,1,0,0:0:0:0:
380,264,41734,6,0,P|416:248|444:208,1,70,0|0,3:0|0:0,0:0:0:0:
360,116,42140,2,0,P|355:155|376:199,1,70,2|0,0:0|0:0,0:0:0:0:
508,180,42545,1,0,0:0:0:0:
436,144,42748,1,0,0:0:0:0:
277,149,42950,2,0,P|222:115|242:53,2,140,0|2|0,0:0|0:0|0:0,0:0:0:0:
242,53,44167,5,0,3:0:0:0:
164,28,44572,1,2,0:0:0:0:
112,96,44977,1,0,0:0:0:0:
160,164,45383,5,0,0:0:0:0:
112,96,45585,1,0,0:0:0:0:
240,136,45788,2,0,P|304:148|364:108,1,140,2|0,0:0|0:0,0:0:0:0:
160,164,46396,1,0,0:0:0:0:
160,164,46599,2,0,P|117:213|122:285,2,140,0|2|0,3:0|0:0|0:0,0:0:0:0:
127,28,47612,2,0,P|155:49|172:80,1,70
160,164,48221,1,2,0:0:0:0:
96,112,48626,1,0,0:0:0:0:
490,155,49031,6,0,P|496:223|452:276,2,140,4|0|2,3:2|0:0|0:0,0:0:0:0:
264,304,50045,1,0,0:0:0:0:
264,304,50248,2,0,P|320:320|372:304,1,105
280,144,50653,2,0,P|238:184|226:237,1,105
408,240,51058,2,0,P|393:183|354:146,1,105,2|0,0:0|0:0,0:0:0:0:
328,80,51464,6,0,P|276:88|232:60,1,105,0|0,3:0|0:0,0:0:0:0:
233,61,51869,2,0,L|164:76,1,70
116,216,52275,2,0,L|138:148,1,70,2|0,0:0|0:0,0:0:0:0:
40,36,52680,6,0,L|87:88,1,70
236,324,53085,2,0,L|244:244,1,70,0|0,3:0|0:0,0:0:0:0:
416,32,53491,2,0,L|408:112,1,70,2|0,0:0|0:0,0:0:0:0:
116,216,53896,5,0,3:0:0:0:
72,144,54302,1,0,0:0:0:0:
124,80,54707,1,2,0:0:0:0:
276,156,55112,5,0,0:0:0:0:
320,228,55518,1,0,3:0:0:0:
268,292,55923,1,2,0:0:0:0:
384,68,56329,5,0,0:0:0:0:
384,68,56734,2,0,P|371:130|420:108,1,140,0|2,0:0|0:0,0:0:0:0:
144,72,57545,1,0,0:0:0:0:
108,148,57950,2,0,P|92:220|124:276,1,140,0|4,0:0|0:3,0:0:0:0:
476,348,58761,6,0,L|500:208,2,140,4|0|2,0:0|0:0|0:0,0:0:0:0:
499,210,59977,1,0,3:0:0:0:
499,210,60383,1,0,3:0:0:0:
428,164,60585,1,0,0:0:0:0:
344,168,60788,1,0,3:0:0:0:
288,232,60991,1,0,0:0:0:0:
176,316,61194,6,0,P|108:332|48:300,1,140,4|0,3:2|0:0,0:0:0:0:
0,96,61802,1,0,3:0:0:0:
208,64,62004,2,0,L|204:136,1,70,2|0,0:0|0:0,0:0:0:0:
84,208,62410,5,0,3:0:0:0:
208,64,62612,1,2,0:2:0:0:
208,280,62815,1,0,0:0:0:0:
168,196,63018,1,0,3:0:0:0:
376,224,63221,1,0,3:2:0:0:
140,116,63423,1,0,0:0:0:0:
392,186,63626,6,0,P|322:184|285:121,1,140
232,60,64234,1,0,0:0:0:0:
232,60,64640,2,0,L|187:118,2,70,0|8|0,0:0|0:0|0:0,0:0:0:0:
232,178,65248,2,0,P|236:215|221:260,1,70,2|0,0:0|0:0,0:0:0:0:
116,343,65653,2,0,P|137:315|167:297,1,70,2|0,0:0|0:0,0:0:0:0:
240,320,66058,6,0,P|304:343|380:318,1,140,8|0,0:0|0:0,0:0:0:0:
432,272,66667,2,0,B|453:227|435:182|435:182|459:127,1,140,2|0,0:0|0:0,0:0:0:0:
465,61,67275,1,8,0:0:0:0:
512,184,67477,1,0,0:0:0:0:
369,222,67680,1,2,0:0:0:0:
422,142,67883,1,0,0:0:0:0:
503,309,68085,1,2,0:0:0:0:
371,331,68288,1,0,0:0:0:0:
333,137,68491,6,0,P|346:98|376:71,1,70,8|0,0:0|0:0,0:0:0:0:
281,205,69099,6,0,P|231:221|171:207,1,105.000004005432,2|0,0:0|0:0,0:0:0:0:
365,217,69707,6,0,P|404:230|431:260,1,70,8|0,0:0|0:0,0:0:0:0:
333,137,70315,6,0,P|317:87|331:27,1,105.000004005432,2|0,0:0|0:0,0:0:0:0:
326,36,70822,1,0,0:0:0:0:
326,36,70923,6,0,L|246:54,1,70,8|0,0:0|0:0,0:0:0:0:
138,125,71329,2,0,L|207:110,1,70,2|0,0:0|0:0,0:0:0:0:
298,189,71734,2,0,L|283:121,1,70,2|0,0:0|0:0,0:0:0:0:
369,229,72140,2,0,P|331:262|270:263,1,105,8|0,0:0|0:0,0:0:0:0:
278,265,72545,2,0,L|214:221,1,70,2|0,0:0|0:0,0:0:0:0:
369,229,72950,2,0,L|358:311,1,70,2|0,0:0|0:0,0:0:0:0:
298,179,73356,6,0,B|334:138|386:148|386:148|412:109,1,140,4|0,0:0|0:0,0:0:0:0:
434,40,73964,1,2,0:0:0:0:
434,40,74369,2,0,L|501:78,2,70,0|8|0,0:0|0:0|0:0,0:0:0:0:
507,149,74977,1,2,0:0:0:0:
440,268,75180,1,0,0:0:0:0:
442,191,75383,1,2,0:0:0:0:
499,316,75585,1,0,0:0:0:0:
426,342,75788,2,0,P|356:359|288:342,1,140,8|0,0:0|0:0,0:0:0:0:
250,278,76396,2,0,B|241:236|255:209|255:209|273:177|257:132,1,140,2|0,0:0|0:0,0:0:0:0:
321,245,77004,6,0,P|352:257|392:260,1,70,8|0,0:0|0:0,0:0:0:0:
231,71,77410,2,0,P|205:91|182:124,1,70,2|0,0:0|0:0,0:0:0:0:
409,71,77815,2,0,P|403:38|386:2,1,70,2|0,0:0|0:0,0:0:0:0:
321,175,78221,6,0,L|321:245,1,70,8|0,0:0|0:0,0:0:0:0:
160,309,78829,6,0,P|205:284|257:292,1,105.000004005432,2|0,0:0|0:0,0:0:0:0:
329,322,79437,6,0,L|399:322,1,70,8|0,0:0|0:0,0:0:0:0:
458,158,80045,6,0,P|433:203|441:255,1,105.000004005432,2|0,0:0|0:0,0:0:0:0:
458,159,80653,6,0,P|476:126|479:92,1,70,8|0,0:0|0:0,0:0:0:0:
359,54,81058,2,0,P|378:86|406:105,1,70,2|0,0:0|0:0,0:0:0:0:
501,20,81464,2,0,P|463:20|432:35,1,70,2|0,0:0|0:0,0:0:0:0:
316,128,81869,6,0,P|244:145|178:119,1,140,4|0,0:0|0:0,0:0:0:0:
130,67,82477,1,0,0:0:0:0:
139,268,82680,1,2,0:0:0:0:
316,128,82883,1,0,0:0:0:0:
182,168,83085,6,0,B|191:215|191:215|232:260|196:323,1,140,4|0,0:0|0:0,0:0:0:0:
64,288,83694,1,0,0:0:0:0:
93,161,83896,2,0,L|61:89,1,70
182,168,84302,6,0,P|218:230|286:257,1,140,8|0,0:0|0:0,0:0:0:0:
357,230,84910,1,0,0:0:0:0:
368,146,85112,2,0,P|375:111|367:75,1,70,2|0,0:0|0:0,0:0:0:0:
418,293,85518,2,0,P|444:316|479:327,1,70,2|0,0:0|0:0,0:0:0:0:
279,257,85923,2,0,P|245:268|218:293,1,70,2|0,0:0|0:0,0:0:0:0:
357,230,86329,5,2,0:0:0:0:
357,230,86734,2,0,L|382:88,1,140,8|0,0:0|0:0,0:0:0:0:
290,176,87342,1,0,0:0:0:0:
338,310,87545,1,2,0:0:0:0:
440,213,87748,1,0,0:0:0:0:
290,176,87950,5,4,0:0:0:0:
152,203,88153,1,0,0:0:0:0:
341,223,88356,2,0,P|358:159|313:110,1,140,2|0,0:0|0:0,0:0:0:0:
239,85,88964,1,0,0:0:0:0:
163,51,89167,6,0,P|128:35|104:6,1,70,8|0,0:0|0:0,0:0:0:0:
241,168,89572,2,0,P|244:206|231:241,1,70,2|0,0:0|0:0,0:0:0:0:
314,46,89977,2,0,P|345:23|382:17,1,70,2|0,0:0|0:0,0:0:0:0:
432,223,90383,5,4,0:0:0:0:
376,96,90585,1,0,0:0:0:0:
511,233,90788,6,0,P|466:292|401:294,1,140,2|0,0:0|0:0,0:0:0:0:
345,257,91396,1,0,0:0:0:0:
279,233,91599,6,0,P|240:226|197:239,1,70,8|0,0:0|0:0,0:0:0:0:
375,382,92004,2,0,L|399:317,1,70,2|0,0:0|0:0,0:0:0:0:
358,116,92410,2,2,L|335:182,1,70,2|0,0:0|0:0,0:0:0:0:
345,257,92815,5,2,0:0:0:0:
421,248,93018,1,0,0:0:0:0:
291,302,93221,2,0,P|216:324|151:306,1,140,2|0,0:0|0:0,0:0:0:0:
108,260,93829,1,0,0:0:0:0:
93,191,94031,2,0,P|91:112|125:54,2,140,8|2|2,0:0|0:0|0:0,0:0:0:0:
108,260,95045,1,0,0:0:0:0:
53,304,95248,6,0,L|6:360,1,70,8|0,0:0|0:0,0:0:0:0:
93,191,95653,1,2,0:0:0:0:
177,283,95856,1,0,0:0:0:0:
24,232,96058,6,0,P|17:165|70:115,2,140,2|0|2,0:0|0:0|0:0,0:0:0:0:
93,191,97072,1,0,0:0:0:0:
126,72,97275,6,0,L|116:46,6,17.5,2|0|0|0|0|0|0,0:0|0:0|0:0|0:0|0:0|0:0|0:0,0:0:0:0:
165,143,97680,1,4,0:0:0:0:
302,172,97883,1,0,0:0:0:0:
93,191,98085,6,0,P|161:223|231:196,1,140,0|0,0:0|0:0,0:0:0:0:
302,172,98694,1,0,0:0:0:0:
388,151,98896,2,0,P|421:143|460:148,1,70,0|0,3:0|0:0,0:0:0:0:
386,295,99302,2,0,P|369:267|363:231,1,70
487,224,99707,2,0,P|485:260|470:295,1,70
305,348,100112,5,4,0:0:0:0:
244,221,100315,1,0,0:0:0:0:
172,345,100518,2,0,P|99:336|57:283,1,140
80,110,101126,1,0,0:0:0:0:
145,269,101329,1,2,3:0:0:0:
191,90,101532,1,0,0:0:0:0:
47,218,101734,1,0,0:0:0:0:
226,201,101937,1,0,0:0:0:0:
172,345,102140,2,0,P|97:338|66:276,1,140,0|4,0:0|0:0,0:0:0:0:
226,201,102748,5,0,0:0:0:0:
392,128,102950,2,0,P|420:195|395:258,1,140
329,306,103558,1,0,0:0:0:0:
226,201,103761,2,0,L|226:123,1,70,0|0,1:0|0:0,0:0:0:0:
252,276,104167,2,0,P|213:278|174:262,1,70
329,306,104572,2,0,P|368:304|407:320,1,70
327,204,104977,5,4,0:0:0:0:
265,354,105180,1,0,0:0:0:0:
443,252,105383,1,0,0:0:0:0:
329,306,105585,1,0,0:0:0:0:
424,170,105788,1,0,0:0:0:0:
408,325,105991,1,0,0:0:0:0:
327,204,106194,6,0,B|282:174|234:249|175:191,1,140
226,143,106802,1,0,3:3:0:0:
151,35,107004,1,0,3:3:0:0:
352,160,107410,5,4,0:0:0:0:
400,232,107612,1,0,0:0:0:0:
288,112,107815,2,0,P|232:104|200:112,1,77.0000023498536,2|0,0:0|0:0,0:0:0:0:
208,288,108423,5,0,0:0:0:0:
256,208,108626,2,0,P|278:142|265:73,1,140,2|2,0:0|0:0,0:0:0:0:
176,212,109437,1,0,0:0:0:0:
408,144,109842,5,2,0:0:0:0:
368,48,110045,1,0,0:0:0:0:
288,248,110248,2,0,P|312:288|344:312,1,77.0000023498536,2|0,0:0|0:0,0:0:0:0:
248,168,110856,5,0,0:0:0:0:
216,88,111058,2,0,P|176:56|72:64,1,140,2|2,0:0|0:0,0:0:0:0:
64,224,111667,1,0,0:0:0:0:
176,192,111869,2,0,L|128:120,1,70,0|0,0:0|0:0,0:0:0:0:
168,40,112275,5,2,3:0:0:0:
320,184,112477,1,0,0:0:0:0:
224,128,112680,1,2,0:0:0:0:
280,288,112883,1,0,0:0:0:0:
168,240,113085,1,0,0:0:0:0:
168,240,113491,5,0,3:0:0:0:
320,184,113694,1,0,0:0:0:0:
280,288,113896,1,2,0:0:0:0:
408,256,114099,1,0,0:0:0:0:
200,144,114302,1,0,0:0:0:0:
280,72,114707,5,4,3:0:0:0:
336,144,114910,1,0,0:0:0:0:
184,96,115112,2,0,P|136:120|112:144,1,70,2|0,0:0|0:0,0:0:0:0:
128,264,115518,2,0,P|176:240|200:216,1,70,0|0,0:0|0:0,0:0:0:0:
336,176,115923,2,0,P|296:168|248:176,1,70,2|0,3:0|0:0,3:0:0:0:
224,320,116329,6,0,P|296:344|336:328,1,105.000004005432,2|0,0:0|0:0,0:0:0:0:
408,64,117140,5,4,0:0:0:0:
256,192,117342,1,0,0:0:0:0:
392,200,117545,6,0,L|408:288,1,77.0000023498536,2|0,0:0|0:0,0:0:0:0:
224,336,118153,5,0,0:0:0:0:
120,280,118356,2,0,P|72:248|48:216,1,70,0|0,3:0|0:0,0:0:0:0:
167,87,118761,2,0,P|198:104|224:128,1,70,2|0,0:0|0:0,0:0:0:0:
304,288,119166,1,0,0:0:0:0:
408,128,119572,5,4,3:0:0:0:
368,240,119775,1,0,0:0:0:0:
280,160,119977,6,0,P|248:137|213:123,1,77.0000023498536,2|0,0:0|0:0,0:0:0:0:
64,184,120585,1,0,0:0:0:0:
96,272,120788,2,0,P|128:320|208:336,2,140,2|2|0,3:0|0:0|3:0,0:0:0:0:
272,112,122004,5,4,3:0:0:0:
368,176,122207,1,0,0:0:0:0:
272,208,122410,1,2,0:0:0:0:
424,88,122612,1,0,0:0:0:0:
352,280,122815,1,0,0:0:0:0:
352,280,123221,5,0,3:0:0:0:
272,208,123423,1,0,0:0:0:0:
240,304,123626,1,2,0:0:0:0:
392,176,123829,1,0,0:0:0:0:
320,376,124031,1,0,0:0:0:0:
320,376,124437,5,4,3:0:0:0:
352,280,124640,1,0,0:0:0:0:
272,208,124842,1,2,0:0:0:0:
432,352,125045,1,0,0:0:0:0:
240,304,125248,2,0,L|176:256|176:256,1,70,0|0,0:0|0:0,0:0:0:0:
200,56,125653,6,0,P|144:80|96:176,1,140,4|2,3:0|0:0,0:0:0:0:
128,272,126261,1,8,3:0:0:0:
240,304,126464,1,0,3:0:0:0:
208,192,126667,1,0,3:0:0:0:
24,328,126869,6,0,P|8:256|56:176,1,154.000004699707,4|0,0:0|0:0,0:0:0:0:
208,192,127883,1,0,0:0:0:0:
320,312,128085,6,0,P|264:352|176:352,2,140,0|2|0,3:0|0:0|3:0,0:0:0:0:
376,152,129099,1,0,0:0:0:0:
208,192,129302,6,0,P|160:128|176:56,1,154.000004699707,4|0,3:0|0:0,0:0:0:0:
272,104,130315,5,0,0:0:0:0:
370,332,130518,2,0,P|382:258|336:200,1,154.000004699707,2|0,3:0|0:0,0:0:0:0:
208,64,131734,6,0,P|160:96|120:184,1,154.000004699707,4|0,3:0|0:0,0:0:0:0:
400,336,132950,1,2,3:0:0:0:
512,264,133356,2,0,P|464:216|440:208,1,77.0000023498536,2|0,0:0|0:0,0:0:0:0:
384,200,133964,1,0,0:0:0:0:
360,120,134167,2,0,P|304:176|320:248,1,154.000004699707,4|0,3:0|0:0,0:0:0:0:
392,280,135180,1,0,0:0:0:0:
320,320,135383,2,0,P|272:344|168:312,1,154.000004699707,8|0,3:0|0:0,0:0:0:0:
256,152,136599,6,0,L|256:240,2,77.0000023498536,4|2|0,3:0|0:0|3:0,0:0:0:0:
256,72,137612,1,0,0:0:0:0:
112,144,137815,6,0,L|144:216,1,70,0|0,0:0|0:0,0:0:0:0:
400,232,138221,2,0,L|360:152,1,70,2|0,0:0|0:0,0:0:0:0:
256,252,138626,2,0,L|256:340,1,70,0|0,0:0|0:0,0:0:0:0:
256,176,139031,2,0,B|256:16,1,154.000004699707,4|0,3:0|0:0,0:0:0:0:
256,20,140045,1,0,0:0:0:0:
96,96,140248,2,0,L|144:160,1,70,0|0,0:0|0:0,0:0:0:0:
392,272,140653,2,0,L|336:200,1,70,2|0,0:0|0:0,0:0:0:0:
256,20,141058,1,0,0:0:0:0:
256,20,141464,2,0,B|256:174,1,154.000004699707,4|0,3:0|0:0,0:0:0:0:
256,176,142680,5,4,3:0:0:0:
216,240,143085,1,2,0:0:0:0:
296,240,143491,1,0,0:0:0:0:
296,240,143896,5,4,3:0:0:0:
304,120,144099,1,0,0:0:0:0:
192,160,144302,1,2,0:0:0:0:
384,192,144504,1,0,0:0:0:0:
224,56,144707,1,0,0:0:0:0:
384,192,144910,1,0,0:0:0:0:
192,264,145112,5,4,0:0:0:0:
128,304,145518,1,2,0:0:0:0:
192,336,145923,1,4,3:0:0:0:
368,184,146329,6,0,P|328:112|176:80,1,231.000007049561,0|4,0:0|3:0,0:0:0:0:
84,272,147950,2,0,P|116:260|148:232,1,70
191,73,148356,2,0,P|158:85|132:108,1,70
228,312,148761,1,4,0:0:0:0:
144,236,148964,2,0,P|121:209|109:176,1,70
180,32,149369,5,0,0:0:0:0:
332,32,149572,1,0,0:0:0:0:
372,128,149775,1,0,0:0:0:0:
256,104,149977,1,0,0:0:0:0:
140,128,150180,1,0,0:0:0:0:
220,212,150383,1,2,0:0:0:0:
256,104,150585,5,0,0:0:0:0:
168,56,150788,1,4,0:0:0:0:
112,140,150991,1,0,0:0:0:0:
112,140,151194,6,0,P|168:168|248:172,1,140,4|0,0:0|0:0,0:0:0:0:
360,140,151802,1,2,0:0:0:0:
360,140,152207,1,0,0:0:0:0:
328,232,152410,5,8,0:0:0:0:
232,272,152612,1,0,0:0:0:0:
340,240,152815,1,0,0:0:0:0:
384,128,153018,1,0,0:0:0:0:
352,248,153221,1,0,0:0:0:0:
232,320,153423,1,0,0:0:0:0:
368,256,153626,6,0,P|480:188|472:104,1,210,4|0,0:3|0:0,0:0:0:0:
320,152,154437,1,0,0:0:0:0:
344,56,154640,1,0,0:0:0:0:
240,80,154842,2,0,L|172:96,1,70,8|0,0:0|0:0,0:0:0:0:
72,344,155248,2,0,L|140:328,1,70
172,96,155653,1,0,0:0:0:0:
140,328,155856,1,0,0:0:0:0:
184,216,156058,6,0,B|216:232|216:232|252:236,2,70,4|0|0,0:0|0:0|0:0,0:0:0:0:
92,156,156667,1,0,0:0:0:0:
356,232,156869,1,0,0:0:0:0:
112,92,157275,6,0,P|96:123|92:157,2,70,8|0|0,0:0|0:0|0:0,0:0:0:0:
258,178,157883,1,0,0:0:0:0:
477,241,158085,1,0,0:0:0:0:
356,232,158288,1,0,0:0:0:0:
408,348,158491,6,0,P|376:360|336:364,1,70,4|0,0:3|0:0,0:0:0:0:
296,112,158896,2,0,P|328:100|368:96,2,70
216,232,159504,1,0,0:0:0:0:
152,112,159707,6,0,P|148:68|132:28,1,70,8|0,0:0|0:0,0:0:0:0:
52,168,160112,2,0,P|52:216|60:248,1,70
68,280,160417,1,0,0:0:0:0:
92,312,160518,1,0,0:0:0:0:
128,336,160619,1,0,0:0:0:0:
168,352,160721,1,0,0:0:0:0:
208,356,160822,1,0,0:0:0:0:
248,352,160923,6,0,P|292:320|388:324,1,140,4|0,0:0|0:0,0:0:0:0:
476,272,161531,1,0,0:0:0:0:
476,272,161937,1,0,0:0:0:0:
436,144,162140,5,8,0:0:0:0:
300,200,162342,1,0,0:0:0:0:
436,144,162545,1,0,0:0:0:0:
292,112,162748,1,0,0:0:0:0:
436,144,162950,1,0,0:0:0:0:
332,40,163153,1,0,0:0:0:0:
436,144,163356,6,0,P|440:216|416:280,2,140
280,188,164369,1,0,0:0:0:0:
152,256,164572,1,8,0:0:0:0:
277,202,164775,1,0,0:0:0:0:
134,184,164978,1,0,0:0:0:0:
267,213,165180,1,0,0:0:0:0:
160,116,165383,1,0,0:0:0:0:
253,216,165585,1,0,0:0:0:0:
224,340,165788,6,0,P|264:348|304:340,1,70,4|0,0:3|0:0,0:0:0:0:
400,296,166194,1,0,0:0:0:0:
292,344,166396,1,0,0:0:0:0:
388,184,166599,1,0,0:0:0:0:
212,68,167004,5,8,0:0:0:0:
112,96,167207,1,0,0:0:0:0:
68,192,167410,1,0,0:0:0:0:
112,96,167612,5,0,0:0:0:0:
140,264,167815,1,0,0:0:0:0:
276,332,168018,1,0,0:0:0:0:
428,284,168221,6,0,P|456:260|472:228,1,70,4|0,0:3|0:0,0:0:0:0:
272,68,168626,2,0,P|248:88|228:124,1,70
471,231,169031,1,0,0:0:0:0:
229,121,169234,1,0,0:0:0:0:
205,269,169437,6,0,P|270:271|325:222,1,140,8|0,0:0|0:0,0:0:0:0:
384,128,170045,1,0,0:0:0:0:
296,136,170248,1,0,0:0:0:0:
384,128,170450,1,0,0:0:0:0:
336,48,170653,6,0,B|272:36|224:64|224:64|196:56,2,140,4|0|0,0:0|0:0|0:0,0:0:0:0:
296,180,171667,1,0,0:0:0:0:
228,296,171869,2,0,P|296:312|368:296,2,140,8|0|0,0:0|0:0|0:0,0:0:0:0:
48,120,173085,6,0,L|24:192,1,70,4|0,0:3|0:0,0:0:0:0:
160,184,173491,2,0,L|152:256,1,70
280,248,173896,1,0,0:0:0:0:
328,370,174099,1,0,0:0:0:0:
440,304,174302,6,0,P|448:232|420:160,1,140,8|0,0:0|0:0,0:0:0:0:
336,80,174910,1,0,0:0:0:0:
216,48,175112,1,0,0:0:0:0:
104,104,175315,1,0,0:0:0:0:
108,228,175518,6,0,B|136:228|160:216|160:216|180:220,1,70
300,240,176126,1,2,0:0:0:0:
320,120,176329,1,2,0:0:0:0:
204,96,176531,1,2,0:0:0:0:
176,220,176734,6,0,B|180:248|200:260|200:260|201:284,1,70
440,56,177545,1,2,0:0:0:0:
320,120,177748,1,0,0:0:0:0:
284,244,177950,6,0,P|276:276|284:312,1,70
408,276,178558,1,2,0:0:0:0:
284,244,178761,1,2,0:0:0:0:
168,276,178964,1,2,0:0:0:0:
280,176,179167,6,0,B|272:152|272:152|276:128|272:100,1,70
272,84,179977,1,0,0:0:0:0:
268,60,180383,6,0,P|176:60|88:88,1,175,4|0,0:0|0:0,0:0:0:0:
92,216,181599,1,0,0:0:0:0:
144,352,181802,1,0,0:0:0:0:
92,216,182004,1,0,0:0:0:0:
36,328,182207,1,0,0:0:0:0:
172,264,182410,1,0,0:0:0:0:
312,240,182612,1,0,0:0:0:0:
460,252,182815,6,0,P|464:216|464:180,1,70
352,120,183221,2,0,P|336:84|316:52,1,70
188,64,183626,2,0,P|156:44|124:36,1,70
38,180,184031,6,0,P|73:183|108:180,2,70
76,316,184640,1,0,0:0:0:0:
208,280,184842,2,0,P|244:296|268:324,1,70
424,348,185248,6,0,P|420:308|412:280,1,70,4|0,0:0|0:0,0:0:0:0:
356,36,186058,1,2,0:0:0:0:
388,160,186261,1,2,0:0:0:0:
248,128,186464,2,0,B|220:140|200:155|200:155|184:160,2,70
56,344,187680,6,0,P|92:340|128:344,1,70,4|0,0:0|0:0,0:0:0:0:
112,44,188491,1,2,0:0:0:0:
112,44,188694,1,2,0:0:0:0:
112,44,188896,2,0,B|120:80|112:116,2,70,0|8|4,0:0|0:3|0:3,0:0:0:0:
232,288,190112,5,2,0:0:0:0:
232,288,190315,1,2,0:0:0:0:
232,288,190518,1,2,0:0:0:0:
312,160,190721,2,0,L|276:220,1,70
388,28,191329,5,10,0:0:0:0:
472,148,191531,1,2,0:0:0:0:
408,276,191734,1,2,0:0:0:0:
312,160,191937,2,0,L|384:156,1,70
124,176,192545,5,6,0:3:0:0:
124,192,192950,1,2,0:0:0:0:
124,208,193356,1,2,0:0:0:0:
124,224,193761,1,10,0:0:0:0:
124,240,194167,1,2,0:0:0:0:
124,256,194572,1,2,0:0:0:0:
124,272,194977,6,0,P|160:272|208:280,1,70,4|0,0:0|0:0,0:0:0:0:
388,244,195383,2,0,P|356:227|323:217,1,70
124,272,195788,1,0,0:0:0:0:
124,76,196194,6,0,B|152:80|176:80|176:80|200:96,1,70,8|0,0:0|0:0,0:0:0:0:
384,156,196599,2,0,B|356:160|332:160|332:160|308:176,1,70
256,292,197004,1,0,0:0:0:0:
256,292,197410,5,0,0:0:0:0:
256,292,197815,2,0,P|216:252|160:232,1,105,2|0,0:0|0:0,0:0:0:0:
88,240,198221,2,0,P|100:188|140:152,1,105,2|0,0:0|0:0,0:0:0:0:
176,76,198626,2,0,B|204:96|216:128|216:128|256:148,1,105,2|0,0:0|0:0,0:0:0:0:
336,148,199031,2,0,B|370:130|370:130|382:98|410:78,1,105,2|0,0:0|0:0,0:0:0:0:
452,152,199437,2,0,P|489:187|500:238,1,105,2|0,0:0|0:0,0:0:0:0:
486,318,199842,1,4,0:0:0:0:
256,192,199944,12,4,204707,0:0:0:0:
456,152,209572,6,0,P|384:160|336:176,1,87.5,4|0,0:0|0:0,0:0:0:0:
184,224,209977,1,0,0:0:0:0:
320,296,210180,1,0,1:0:0:0:
304,152,210383,1,0,0:0:0:0:
120,160,210586,1,0,0:0:0:0:
184,224,210788,2,0,P|208:176|200:120,1,105,0|0,1:0|0:0,0:0:0:0:
168,60,211194,6,0,P|208:36|304:68,1,131.25,0|0,0:0|0:0,0:0:0:0:
352,120,211599,1,2,0:0:0:0:
440,312,211802,1,0,0:0:0:0:
440,312,211903,1,0,0:0:0:0:
440,312,212004,2,0,P|368:272|336:240,1,87.5,0|0,1:0|0:0,0:0:0:0:
176,80,212410,6,0,P|128:120|104:152,1,87.5
232,264,212815,2,0,P|257:228|275:188,1,87.5,0|0,0:0|0:0,0:0:0:0:
280,152,213119,1,0,0:0:0:0:
264,120,213221,1,0,1:0:0:0:
144,88,213423,1,0,0:0:0:0:
56,192,213626,2,0,P|112:232|136:272,1,87.5
224,336,214031,2,0,P|256:304|264:256,1,87.5
208,104,214437,5,0,1:0:0:0:
152,224,214640,1,0,0:0:0:0:
264,264,214842,1,0,0:0:0:0:
320,144,215045,1,0,0:0:0:0:
208,104,215248,2,0,P|152:112|120:128,1,87.5
64,216,215653,6,0,B|128:208|128:208|160:192|192:184,1,131.25,8|0,0:0|0:0,0:0:0:0:
280,152,216058,2,0,B|296:200|315:224|315:224|301:282|248:304,1,175,0|0,0:0|3:0,0:0:0:0:
144,248,216667,1,0,0:0:0:0:
144,248,216768,1,0,0:0:0:0:
144,248,216869,2,0,P|176:224|232:224,1,87.5,8|0,0:0|0:0,0:0:0:0:
416,304,217275,6,0,L|328:256,1,87.5
96,104,217680,2,0,L|192:128,1,87.5
344,168,218085,1,8,0:0:0:0:
336,176,218288,1,0,0:0:0:0:
328,184,218491,2,0,B|304:216|200:224,1,131.25
76,220,218896,6,0,P|100:236|124:276,1,52.5000020027161,2|0,0:0|0:0,0:0:0:0:
128,352,219302,1,4,1:0:0:0:
168,88,224167,5,4,0:0:0:0:
256,248,224369,1,0,0:0:0:0:
144,160,224572,2,0,L|216:184,1,70
272,336,224977,6,0,L|160:296,1,105.000004005432
64,216,225383,5,8,0:0:0:0:
48,80,225585,1,0,0:0:0:0:
176,24,225788,1,0,0:0:0:0:
328,64,225991,1,0,0:0:0:0:
328,64,226092,1,0,0:0:0:0:
328,64,226194,2,0,P|352:112|344:152,1,70,0|0,0:0|0:0,0:0:0:0:
232,248,226599,6,0,P|216:208|224:144,1,105.000004005432,4|0,1:0|0:0,0:0:0:0:
328,64,227004,1,0,0:0:0:0:
232,248,227207,1,0,0:0:0:0:
96,112,227410,1,0,0:0:0:0:
192,160,227612,1,0,0:0:0:0:
72,280,227815,1,8,0:0:0:0:
96,112,228018,1,0,0:0:0:0:
280,64,228221,1,0,0:0:0:0:
400,208,228424,5,0,0:0:0:0:
384,240,228525,1,0,0:0:0:0:
356,264,228626,2,0,P|305:272|264:256,1,87.5
192,160,229031,2,0,P|180:120|184:56,2,87.5,0|0|2,1:0|0:0|0:0,0:0:0:0:
272,260,229640,2,0,P|284:300|280:364,1,87.5,0|0,0:0|0:0,0:0:0:0:
96,296,230045,5,0,0:0:0:0:
72,264,230146,1,0,0:0:0:0:
64,224,230248,1,8,0:0:0:0:
80,112,230450,2,0,P|101:74|139:55,2,87.5,0|0|0,0:0|0:0|0:0,0:0:0:0:
64,224,231058,1,0,0:0:0:0:
152,332,231261,6,0,P|195:326|234:306,1,87.5,0|0,0:0|1:0,0:0:0:0:
416,200,231667,2,0,P|368:192|320:208,1,87.5
232,304,232072,1,0,0:0:0:0:
196,328,232173,1,0,0:0:0:0:
152,332,232275,2,0,B|112:340|64:300,1,87.5
64,160,232680,5,8,0:0:0:0:
128,32,232883,1,0,0:0:0:0:
264,16,233085,1,0,0:0:0:0:
504,160,233491,1,4,1:0:0:0:
440,64,233896,5,4,0:0:0:0:
336,96,234099,2,0,L|400:160,1,70
368,256,234504,5,0,0:0:0:0:
280,192,234707,2,0,L|200:272,1,105.000004005432
440,264,235112,1,8,0:0:0:0:
440,96,235315,5,0,0:0:0:0:
440,96,235417,1,0,0:0:0:0:
440,96,235518,2,0,P|392:80|352:88,1,87.5
64,248,235923,2,0,P|112:240|160:192,1,87.5
120,56,236329,2,0,P|224:68|280:140,1,175,0|0,1:0|0:0,0:0:0:0:
464,168,236937,5,0,3:0:0:0:
448,200,237038,1,0,3:0:0:0:
424,224,237140,1,0,3:0:0:0:
240,292,237342,2,0,L|280:276,1,43.75
304,244,237545,2,0,L|288:152,1,70,8|0,0:0|0:0,0:0:0:0:
172,84,237950,2,0,L|188:176,1,70
236,344,238356,2,0,P|257:316|288:300,1,70
392,312,238761,6,0,P|424:264|384:184,1,131.25,0|0,3:0|0:0,0:0:0:0:
448,136,239167,2,0,P|368:128|328:216,1,175
149,91,239977,2,0,P|165:147|205:179,1,87.5,8|0,0:0|0:0,0:0:0:0:
278,223,240382,1,0,0:0:0:0:
496,320,240788,5,0,3:0:0:0:
278,223,240991,1,0,0:0:0:0:
416,296,241194,2,0,L|360:216,1,87.5,0|0,0:0|0:0,0:0:0:0:
400,144,241599,2,0,P|312:152|280:240,1,175
192,312,242207,5,0,0:0:0:0:
184,296,242308,1,0,0:0:0:0:
176,280,242410,2,0,B|160:240|160:240|184:168,1,87.5,8|0,0:0|0:0,0:0:0:0:
124,123,242815,2,0,P|82:133|48:160,1,87.5
120,24,243221,2,0,P|178:22|211:35,1,87.5
176,120,243626,6,0,B|248:136|288:96|299:61|289:38|304:40|304:40|360:80,1,210,4|0,0:0|0:0,0:0:0:0:
346,231,244437,2,0,P|369:195|368:152,1,87.5
367,151,244842,5,8,0:0:0:0:
40,32,245248,1,0,0:0:0:0:
168,320,245653,1,0,0:0:0:0:
304,312,246058,6,0,P|272:232|208:200,1,140,4|0,3:0|0:0,0:0:0:0:
96,208,246667,1,0,0:0:0:0:
168,320,246869,1,0,0:0:0:0:
232,208,247072,5,0,0:0:0:0:
224,79,247275,2,0,P|155:77|96:112,1,140,8|0,0:0|0:0,0:0:0:0:
32,224,247883,1,0,0:0:0:0:
176,200,248085,1,0,0:0:0:0:
96,112,248288,1,0,0:0:0:0:
32,224,248491,6,0,L|104:288,1,70,4|0,0:0|0:0,0:0:0:0:
304,352,248896,2,0,L|240:296,1,70
80,160,249302,2,0,L|152:224,2,70,0|0|0,0:0|0:0|1:0,0:0:0:0:
80,160,250112,5,0,0:0:0:0:
80,160,250518,1,0,0:0:0:0:
79,159,250923,2,0,P|67:105|72:40,1,105.000004005432,4|0,3:0|0:0,0:0:0:0:
184,96,251531,1,0,0:0:0:0:
256,144,251734,5,0,0:0:0:0:
184,176,251937,1,0,0:0:0:0:
336,117,252140,2,6,P|335:185|280:224,1,140,8|0,0:0|0:0,1:0:0:0:
160,88,252748,2,0,L|235:134,2,87.5,8|0|0,3:0|0:0|3:0,3:0:0:0:
48,160,253356,1,4,2:0:0:0:
256,192,253457,12,0,257815,0:0:0:0:
360,216,258221,5,4,1:0:0:0:
408,320,258423,1,0,0:0:0:0:
288,128,258626,2,0,P|232:104|152:136,1,140
128,152,259234,1,0,0:0:0:0:
96,184,259437,5,4,3:0:0:0:
88,200,259842,1,0,0:0:0:0:
88,216,260248,1,0,0:0:0:0:
168,320,260653,6,0,P|200:280|232:264,1,70
384,256,261058,2,0,P|364:284|336:305,2,70
416,184,261667,1,0,0:0:0:0:
416,104,261869,2,0,P|369:81|318:71,1,105.000004005432,0|0,1:0|0:0,0:0:0:0:
318,71,262477,1,0,0:0:0:0:
318,71,262680,1,0,0:0:0:0:
216,160,263085,6,0,L|160:118,1,70,0|0,1:0|0:0,0:0:0:0:
320,271,263491,2,0,P|353:282|387:292,2,70
140,236,264099,5,0,0:0:0:0:
140,236,264200,1,0,0:0:0:0:
139,235,264302,2,0,P|146:194|92:138,1,105,0|0,1:0|0:0,0:0:0:0:
64,116,264707,2,0,L|187:38,2,140,0|0|0,0:0|0:0|1:0,0:0:0:0:
84,278,265721,2,0,L|56:358,1,70
256,264,266126,5,0,0:0:0:0:
280,240,266227,1,0,0:0:0:0:
296,208,266329,2,0,P|296:160|280:128,1,70
251,35,266734,2,0,P|286:31|320:40,1,70,0|0,1:0|0:0,0:0:0:0:
149,128,267140,2,0,L|70:142,1,70,0|0,0:0|0:0,0:0:0:0:
310,206,267545,1,0,0:0:0:0:
220,244,267950,6,0,P|226:161|277:116,1,140,4|0,1:0|0:0,0:0:0:0:
371,273,268558,1,0,0:0:0:0:
310,206,268761,2,0,P|350:190|398:182,1,70
472,192,269167,5,0,1:0:0:0:
416,272,269369,1,0,0:0:0:0:
376,184,269572,2,0,P|376:152|392:120,2,52.5000020027161
432,352,270383,1,2,3:0:0:0:
184,272,270788,5,0,0:0:0:0:
256,320,270991,1,0,0:0:0:0:
144,120,271194,1,0,0:0:0:0:
136,200,271396,1,0,0:0:0:0:
267,52,271599,2,0,P|233:47|200:56,1,70,0|0,1:0|0:0,0:0:0:0:
362,174,272004,2,0,P|356:140|336:112,2,70
182,63,272815,6,0,P|118:87|102:119,1,105,2|0,0:0|0:0,0:0:0:0:
32,118,273221,2,0,L|91:156,1,70,2|0,0:0|0:0,0:0:0:0:
136,316,273829,2,0,P|96:316|64:304,2,70,0|2|0,0:0|0:0|0:0,0:0:0:0:
416,272,274437,2,0,P|344:288|248:256,1,140,2|2,0:0|0:0,0:0:0:0:
234,64,275248,6,0,P|283:95|308:162,1,105,0|0,3:0|0:0,0:0:0:0:
303,170,275653,1,2,0:0:0:0:
192,191,275856,2,0,P|175:222|146:242,1,70,0|2,0:0|0:0,0:0:0:0:
0,240,276261,1,0,0:0:0:0:
16,208,276362,1,0,0:0:0:0:
48,184,276464,2,0,P|88:168|120:176,1,70,2|0,0:0|0:0,0:0:0:0:
234,140,276869,2,0,P|220:172|192:191,1,70,2|0,0:0|0:0,0:0:0:0:
160,312,277275,2,0,P|139:284|137:249,1,70,2|0,0:0|0:0,0:0:0:0:
148,208,277579,1,0,0:0:0:0:
172,172,277680,6,0,P|256:132|284:132,1,105.000004005432,2|0,0:0|0:0,0:0:0:0:
380,192,278288,1,0,0:0:0:0:
260,272,278491,1,2,0:0:0:0:
324,64,278694,1,0,0:0:0:0:
380,192,278896,1,2,0:0:0:0:
200,112,279099,1,0,0:0:0:0:
380,192,279302,2,0,P|400:256|396:300,2,105.000004005432,2|2|0,0:0|0:0|2:0,0:0:0:0:
240,64,280518,53,2,0:0:0:0:
240,64,280923,1,2,0:0:0:0:
240,64,281329,1,2,0:0:0:0:
240,64,282140,5,0,0:0:0:0:
392,224,282545,1,0,0:0:0:0:
392,224,282950,2,0,B|336:184|336:184|264:208,1,140
136,328,283761,5,0,0:0:0:0:
264,200,283964,1,0,0:0:0:0:
184,248,284167,2,0,B|240:328|328:272,1,140
312,128,284977,6,0,L|289:132,2,23.3333333333333
312,128,286329,6,0,L|352:120,3,23.3333333333333
256,192,289842,12,0,297140,0:0:0:0:
