osu file format v9

[General]
AudioFilename: Hikari no Senritsu (TV Size).mp3
AudioLeadIn: 0
PreviewTime: 46618
Countdown: 0
SampleSet: Soft
StackLeniency: 0.7
Mode: 0
LetterboxInBreaks: 1

[Editor]
DistanceSpacing: 1.2
BeatDivisor: 4
GridSize: 8

[Metadata]
Title:Hikari no Senritsu (TV Size)
Artist:Kalafina
Creator:kanpakyin
Version:Normal
Source:Sora no Woto
Tags:Wakana Ootaki Keiko Kubota Hikaru Masai

[Difficulty]
HPDrainRate:4
CircleSize:4
OverallDifficulty:5
ApproachRate:5
SliderMultiplier:1.4
SliderTickRate:1

[Events]
//Background and Video events
Video,92,"Hikari no Senritsu (TV Size).avi"
0,0,"BG.jpg"
//Break Periods
//Storyboard Layer 0 (Background)
//Storyboard Layer 1 (Fail)
//Storyboard Layer 2 (Pass)
//Storyboard Layer 3 (Foreground)
//Storyboard Sound Samples
//Background Colour Transformations
3,100,0,128,0

[TimingPoints]
4118,625,4,2,2,60,1,0
4586,-100,4,2,1,60,0,0
5211,-100,4,2,2,60,0,0
5524,-100,4,2,1,60,0,0
6461,-100,4,2,2,60,0,0
6774,-100,4,2,1,60,0,0
7711,-100,4,2,2,60,0,0
8024,-100,4,2,1,60,0,0
8961,-100,4,2,2,60,0,0
9274,-100,4,2,1,60,0,0
11461,-100,4,2,2,60,0,0
11774,-100,4,2,1,60,0,0
13961,-100,4,2,2,60,0,0
14274,-100,4,2,1,60,0,0
15211,-100,4,2,2,60,0,0
15524,-100,4,2,1,60,0,0
16461,-100,4,2,2,60,0,0
16774,-100,4,2,1,60,0,0
17399,-100,4,2,2,60,0,0
18024,-100,4,2,1,60,0,0
18961,-100,4,2,2,60,0,0
19274,-100,4,2,1,60,0,0
20211,-100,4,2,2,60,0,0
20524,-100,4,2,1,60,0,0
21461,-100,4,2,2,60,0,0
21774,-100,4,2,1,60,0,0
23336,-100,4,2,2,100,0,0
23649,-100,4,2,2,50,0,0
24274,-100,4,2,1,50,0,0
25211,-100,4,2,2,50,0,0
25524,-100,4,2,1,50,0,0
26461,-100,4,2,2,50,0,0
26774,-100,4,2,1,50,0,0
27711,-100,4,2,2,50,0,0
28024,-100,4,2,1,50,0,0
28961,-100,4,2,2,70,0,0
29274,-100,4,2,2,50,0,0
30211,-100,4,2,2,50,0,0
30524,-100,4,2,1,50,0,0
31774,-100,4,2,2,50,0,0
32086,-100,4,2,1,50,0,0
32399,-100,4,2,2,50,0,0
32711,-100,4,2,1,50,0,0
33961,-100,4,2,2,50,0,0
34274,-100,4,2,1,50,0,0
38649,-100,4,2,2,70,0,0
39274,-100,4,2,1,70,0,0
40211,-100,4,2,2,50,0,0
40993,-100,4,2,1,60,0,0
42711,-100,4,2,2,50,0,0
43024,-100,4,2,1,50,0,0
44586,-100,4,2,2,100,0,0
44899,-100,4,2,2,70,0,0
45211,-100,4,2,1,50,0,0
45836,-100,4,2,1,80,0,0
46618,-100,4,2,2,80,0,1
46774,-100,4,2,1,80,0,1
47086,-100,4,2,2,80,0,1
47399,-100,4,2,1,80,0,1
48961,-100,4,2,2,80,0,1
49899,-100,4,2,1,80,0,1
50836,-100,4,2,2,80,0,1
51149,-100,4,2,1,80,0,1
52086,-100,4,2,2,80,0,1
52399,-100,4,2,1,80,0,1
53336,-100,4,2,2,80,0,1
53649,-100,4,2,1,80,0,1
54586,-100,4,2,2,80,0,1
54899,-100,4,2,1,80,0,1
55993,-100,4,2,2,80,0,1
56305,-100,4,2,2,70,0,1
56618,-100,4,2,2,80,0,1
57086,-100,4,2,2,80,0,1
57399,-100,4,2,1,80,0,1
58336,-100,4,2,2,80,0,1
58649,-100,4,2,1,80,0,1
62086,-100,4,2,2,80,0,1
62399,-100,4,2,1,80,0,1
63336,-100,4,2,2,80,0,1
63649,-100,4,2,1,80,0,1
63961,-100,4,2,2,80,0,1
64274,-100,4,2,1,80,0,1
65836,-100,4,2,2,80,0,1
66305,-100,4,2,2,80,0,1
66461,-100,4,2,1,80,0,1
66618,-100,4,2,1,80,0,1
66774,-100,4,2,2,80,0,1
67399,-100,4,2,1,80,0,1
68336,-100,4,2,2,80,0,1
68649,-100,4,2,1,80,0,1
69586,-100,4,2,2,80,0,1
69899,-100,4,2,1,80,0,1
70836,-100,4,2,2,80,0,1
71149,-100,4,2,1,80,0,1
72086,-100,4,2,1,49,0,1
72399,-100,4,2,1,80,0,1
75524,-100,4,2,2,89,0,1
76149,-100,4,2,1,80,0,1
76461,-100,4,2,2,90,0,1
76774,-100,4,2,1,80,0,1
78961,-100,4,2,2,80,0,1
79274,-100,4,2,1,80,0,1
82086,-100,4,2,2,80,0,1
82399,-100,4,2,1,80,0,1
84118,-100,4,2,1,60,0,0
84430,-100,4,2,2,60,0,0
84899,-100,4,2,1,60,0,0
85836,-100,4,2,2,60,0,0
86149,-100,4,2,1,60,0,0
86774,-100,4,2,1,0,0,0

[Colours]
Combo1 : 190,112,65
Combo2 : 255,128,0

[HitObjects]
391,268,4118,6,0,B|472:270,2,70,4|2|2
386,183,5055,1,0
386,183,5368,2,0,B|314:184|328:136|245:136,1,140,2|2
264,220,6305,1,0
264,220,6618,2,0,B|117:221,1,140,2|2
46,253,7555,1,0
46,253,7868,2,0,B|25:214|53:167,1,70,2|0
118,147,8493,2,0,B|133:102|109:58,1,70,10|0
43,118,9118,6,0,B|211:116,1,140,2|2
247,58,10055,1,0
247,58,10368,2,0,B|295:60|325:74,1,70,0|0
281,146,10993,2,0,B|322:164|337:198,1,70,2|0
265,240,11618,6,0,B|277:278|277:327,1,70,2|0
192,300,12243,2,0,B|199:343|196:396,2,70,2|0|0
229,224,13180,1,0
229,224,13493,2,0,B|207:185|176:170,1,70,10|0
143,247,14118,6,0,B|74:226|-4:247,2,140,2|2|2
146,330,15680,1,0
146,330,15993,2,0,B|144:176,1,140,2|2
60,183,16930,5,0
98,108,17243,1,2
181,111,17555,1,2
234,175,17868,2,0,B|300:174|300:174|332:142|395:154,1,140,2|2
366,234,18805,1,0
366,234,19118,6,0,B|368:307|426:362,2,140,2|2|2
292,275,20680,1,0
292,275,20993,2,0,B|244:217|153:197,1,140,2|4
153,284,21930,1,0
153,284,22243,2,0,B|80:264|0:276,2,140,2|4|8
226,325,23805,6,0,B|247:364,2,35,8|8|12
218,241,24430,2,0,B|188:197|247:148|203:82,1,140,8|8
295,127,25368,2,0,B|318:91|355:78,2,70,2|0|10
372,159,26305,1,0
372,159,26618,2,0,B|377:236,1,70,2|0
292,225,27243,6,0,B|302:308|298:382,2,140,2|2|0
209,239,28805,2,0,B|194:266|166:281,2,35,0|0|4
128,215,29430,2,0,B|127:65,1,140,0|0
202,112,30368,2,0,B|232:80|232:80|284:76|332:44,1,140,2|2
325,134,31305,6,0,B|369:156|381:203,1,70,0|4
295,214,31930,1,2
295,214,32243,2,0,B|301:268|295:299,2,70,6|2|4
141,282,33493,6,0,B|120:239|120:239|63:225|38:157,2,140,2|4|2
224,271,35055,1,0
224,271,35368,2,0,B|229:236|229:236|241:199,1,70,8|0
308,251,35993,2,0,B|327:217|364:201,2,70,2|0|8
385,284,36930,5,0
385,284,37243,2,0,B|384:139,2,140,2|4|2
310,246,38805,1,8
313,330,39118,5,4
237,293,39430,2,0,B|238:371,2,70,0|2|0
168,243,40368,2,0,B|156:208|156:208|109:191|102:135,2,105,2|2|0
85,259,41618,6,0,B|11:257,2,70,4|0|2
141,321,42555,1,8
141,321,42868,2,0,B|194:321|194:321|237:305|237:305|288:305,1,140,2|2
315,229,43805,1,8
315,229,44118,2,0,B|392:221,2,70,4|0|8
338,148,45055,1,8
338,148,45368,2,0,B|483:119,2,140,4|8|4
170,164,47243,6,0,B|138:125|138:125|87:125|66:76,2,140,2|8|0
236,215,48805,1,8
157,245,49118,6,0,B|125:284|125:284|74:284|53:333,2,140,4|2|8
317,194,50993,2,0,B|360:189|360:189|405:199|467:194,2,140,2|8|2
237,168,52555,1,8
237,168,52868,2,0,B|204:138|144:130,1,70,8|0
160,218,53493,2,0,B|116:207|75:213,1,70,2|0
116,291,54118,6,0,B|80:302|62:336,2,70,8|0|2
194,321,55055,1,8
271,287,55368,2,0,B|430:287,1,140,8|8
415,370,56305,1,8
490,332,56618,5,4
488,248,56930,1,0
415,204,57243,2,0,B|446:166|446:166|433:119|481:83,2,140,2|8|2
352,148,58805,1,0
352,148,59118,6,0,B|277:128|191:148,1,140,12|2
244,221,60055,1,8
244,221,60368,2,0,B|159:228|116:296,1,140,8|2
195,318,61305,1,8
195,318,61618,6,0,B|36:320,2,140,12|2|8
265,273,63180,1,0
265,273,63493,2,0,B|335:272|323:229|399:225,2,140,2|4|2
263,188,65055,1,8
263,188,65368,2,0,B|181:183|108:186,1,140,8|8
69,120,66305,2,0,B|24:118,2,35,8|8|12
141,77,66930,5,0
141,77,67243,2,0,B|209:88|291:75,1,140,2|0
359,49,68180,1,0
337,130,68493,6,0,B|379:162|419:158|419:158|431:193|464:219,1,140,4|8
367,232,69430,1,0
367,232,69743,2,0,B|355:278|324:291,1,70,2|8
268,230,70368,2,0,B|234:262|198:262,1,70,0|0
185,180,70993,6,0,B|31:181,2,140,2|12|2
139,109,72555,1,0
139,109,72868,2,0,B|95:175|137:240,1,140,8|0
215,206,73805,1,8
215,206,74118,2,0,B|251:279|207:352,2,140,8|2|8
299,203,75680,1,8
299,203,75993,2,0,B|288:168|288:168|254:131,1,70,2|0
334,94,76618,6,0,B|283:40|199:36,2,140,4|2|8
415,74,78180,1,0
415,74,78493,2,0,B|420:151|412:229,1,140,2|4
329,208,79430,1,0
329,208,79743,2,0,B|254:208|274:267|185:266,1,140,2|8
197,181,80680,1,0
197,181,80993,6,0,B|198:92,2,70,12|0|4
113,172,81930,1,0
113,172,82243,2,0,B|120:249|105:327,3,140,2|0|8|4
187,336,84430,6,0,B|172:385,2,35,2|0|2
235,267,85055,1,0
235,267,85368,2,0,B|262:235|317:226,1,70,8|0
304,314,85993,2,0,B|372:295|452:319,1,140,2|4
256,192,86774,12,0,87868
