osu file format v9

[General]
AudioFilename: Hikari no Senritsu (TV Size).mp3
AudioLeadIn: 1750
PreviewTime: 46618
Countdown: 0
SampleSet: Soft
StackLeniency: 0.6
Mode: 0
LetterboxInBreaks: 1

[Editor]
DistanceSpacing: 0.8
BeatDivisor: 4
GridSize: 4

[Metadata]
Title:Hikari no Senritsu (TV Size)
Artist:Kalafina
Creator:Zejky
Version:Hard
Source:Sora no Woto
Tags:Kajiura Yuki Red Moon

[Difficulty]
HPDrainRate:6
CircleSize:4
OverallDifficulty:6
ApproachRate:6
SliderMultiplier:1.6
SliderTickRate:1

[Events]
//Background and Video events
Video,0,"Hikari no Senritsu (TV Size).avi"
0,0,"BG.JPG"
//Break Periods
//Storyboard Layer 0 (Background)
//Storyboard Layer 1 (Fail)
//Storyboard Layer 2 (Pass)
//Storyboard Layer 3 (Foreground)
//Storyboard Sound Samples
//Background Colour Transformations
3,100,0,128,0

[TimingPoints]
368,625,4,2,2,40,1,0
4118,625,4,1,1,40,1,0
8493,-100,4,1,2,40,0,0
8649,-100,4,1,1,40,0,0
14118,-100,4,1,1,40,0,0
16618,-100,4,1,1,40,0,0
17243,-100,4,1,1,40,0,0
17868,-100,4,1,1,40,0,0
18180,-100,4,1,1,40,0,0
24118,-100,4,1,1,50,0,0
38180,-100,4,1,2,50,0,0
39118,-100,4,1,1,50,0,0
41618,-100,4,2,1,50,0,0
42243,-100,4,2,1,50,0,0
42868,-100,4,2,1,50,0,0
43493,-100,4,2,1,50,0,0
44118,-100,4,2,1,50,0,0
45368,-100,4,1,2,50,0,0
45680,-100,4,1,1,50,0,0
45680,-100,4,1,2,50,0,0
46305,-100,4,1,2,50,0,0
46618,-83.3333333333333,4,2,1,65,0,1
47868,-83.3333333333333,4,1,1,65,0,1
48493,-83.3333333333333,4,2,1,65,0,1
49118,-83.3333333333333,4,1,1,65,0,1
49743,-83.3333333333333,4,2,1,65,0,1
50368,-83.3333333333333,4,1,1,65,0,1
50993,-83.3333333333333,4,2,1,65,0,1
51618,-83.3333333333333,4,1,1,65,0,1
52243,-83.3333333333333,4,2,1,65,0,1
52868,-83.3333333333333,4,1,1,65,0,1
53493,-83.3333333333333,4,2,1,65,0,1
54118,-83.3333333333333,4,1,1,65,0,1
54743,-83.3333333333333,4,2,1,65,0,1
55368,-83.3333333333333,4,1,1,65,0,1
55993,-100,4,2,1,65,0,1
56618,-100,4,2,1,65,0,0
66618,-83.3333333333333,4,2,1,65,0,1
67868,-83.3333333333333,4,1,1,65,0,1
68493,-83.3333333333333,4,2,1,65,0,1
69118,-83.3333333333333,4,1,1,65,0,1
69743,-83.3333333333333,4,2,1,65,0,1
70368,-83.3333333333333,4,1,1,65,0,1
70993,-83.3333333333333,4,2,1,65,0,1
71618,-83.3333333333333,4,1,1,65,0,1
72243,-83.3333333333333,4,2,1,65,0,1
72868,-83.3333333333333,4,1,1,65,0,1
73493,-83.3333333333333,4,2,1,65,0,1
74118,-83.3333333333333,4,1,1,65,0,1
74743,-83.3333333333333,4,2,1,65,0,1
75368,-83.3333333333333,4,1,1,65,0,1
75993,-83.3333333333333,4,2,1,65,0,1
76618,-83.3333333333333,4,1,1,65,0,1
77243,-83.3333333333333,4,2,1,65,0,1
77868,-83.3333333333333,4,1,1,65,0,1
78493,-83.3333333333333,4,2,1,65,0,1
79118,-83.3333333333333,4,1,1,65,0,1
79743,-83.3333333333333,4,2,1,65,0,1
80368,-83.3333333333333,4,1,1,65,0,1
80993,-83.3333333333333,4,2,1,65,0,1
81618,-83.3333333333333,4,1,1,65,0,1
82243,-83.3333333333333,4,2,1,65,0,1
82868,-83.3333333333333,4,1,1,65,0,1
83493,-83.3333333333333,4,2,1,65,0,1
84118,-100,4,2,1,50,0,0
86618,-100,4,2,1,5,0,0

[Colours]
Combo1 : 128,128,255
Combo2 : 158,62,255
Combo3 : 255,128,255

[HitObjects]
317,109,368,2,0,B|264:56|176:40,1,160,4|2
256,192,1305,1,0
194,274,1618,2,0,B|248:328|336:344,1,160,2|2
432,320,2555,1,0
464,232,2868,5,2
480,208,3024,1,2
488,176,3180,1,2
480,144,3336,1,2
464,120,3493,1,2
392,48,3805,1,0
320,112,4118,6,0,B|280:128|216:112,2,80,0|0|8
400,160,5055,1,0
448,240,5368,2,0,B|480:272|488:320,1,80
400,344,5993,1,8
296,268,6305,1,0
184,328,6618,6,0,B|120:328|80:296,1,80
128,216,7243,1,8
80,136,7555,2,0,B|48:104|48:64,2,80
160,80,8493,1,8
252,52,8805,1,0
396,124,9118,6,0,B|404:168|380:224,1,80
304,160,9743,1,8
216,112,10055,1,0
124,136,10368,2,0,B|88:168|40:172,1,80
40,264,10993,2,0,B|64:288|120:296,1,80,8|0
208,280,11618,5,0
336,184,11930,1,0
192,248,12243,1,0
352,216,12555,1,0
192,208,12868,2,0,B|184:168|208:120,1,80
352,248,13493,2,0,B|360:288|336:336,1,80,0|0
208,280,14118,6,0,B|185:313|134:330,1,80,2|0
124,232,14743,2,0,B|84:240|36:216,1,80,0|0
88,136,15368,1,2
40,56,15680,2,0,B|80:40|136:48,1,80,0|8
228,116,16305,1,0
328,40,16618,6,0,B|372:56|392:88,1,80,2|0
336,164,17243,1,2
384,280,17555,1,0
268,340,17868,2,0,B|232:356|172:352,2,80,2|0|8
384,280,18805,1,0
464,180,19118,6,0,B|480:124|472:84,1,80,2|0
384,80,19743,1,8
296,128,20055,1,0
240,48,20368,2,0,B|200:40|152:48,1,80,2|0
216,128,20993,2,0,B|296:160|408:128,2,160,0|2|8
248,256,22868,2,0,B|168:288|56:256,1,160,2|8
128,176,23805,5,0
160,176,23961,1,0
192,176,24118,1,0
344,64,24430,1,2
440,232,24743,1,2
400,320,25055,5,0
336,248,25368,1,0
160,328,25680,1,2
32,184,25993,1,2
224,208,26305,1,0
320,184,26618,5,2
392,120,27243,1,2
432,32,27868,2,0,B|388:16|336:36,2,80,2|0|0
472,152,28805,5,0
456,184,28961,1,0
432,208,29117,1,0
280,88,29430,1,2
144,264,29743,1,2
224,312,30055,5,0
144,264,30368,1,0
320,184,30680,1,2
184,56,30993,1,2
112,120,31305,1,0
192,184,31618,6,0,B|280:184,1,80,2|0
144,264,32243,2,0,B|56:264,1,80,2|0
352,128,32868,2,0,B|448:128,2,80,2|0|0
212,56,33805,1,2
64,96,34118,6,0,B|32:128|24:176,1,80,2|0
112,208,34743,2,0,B|152:224|200:216,1,80,0|0
176,120,35368,2,0,B|256:80|336:136,1,160,2|0
272,208,36305,1,0
288,304,36618,6,0,B|344:312|376:296,1,80,2|0
312,224,37243,2,0,B|256:216|224:232,1,80,0|0
176,304,37868,2,0,B|120:312|88:296,1,80,0|8
88,268,38336,1,8
80,236,38493,1,8
152,176,38805,21,8
160,144,38962,1,8
168,112,39118,2,0,B|128:40,1,80,2|0
88,128,39743,2,0,B|128:200,1,80,0|0
168,112,40368,2,0,B|256:132|336:116,1,160,2|0
326,117,41305,1,0
360,208,41618,6,0,B|260:208,1,80,2|0
380,284,42243,2,0,B|472:284,2,80
308,348,43180,2,0,B|208:348,1,80,0|2
184,264,43805,1,0
92,236,44118,6,0,B|92:128,2,80,2|0|0
184,264,45055,2,0,B|252:264,2,40
248,192,45680,1,0
280,192,45836,1,0
312,192,45993,1,0
344,192,46149,1,0
376,192,46305,1,0
288,68,46618,6,0,B|240:52|192:68,1,95.9999970703126,4|0
376,192,47243,2,0,B|424:208|472:192,1,95.9999970703126,2|0
288,68,47868,1,2
376,192,48180,1,0
240,264,48493,6,0,B|184:268|156:328,1,95.9999970703126,2|0
376,192,49118,2,0,B|432:188|460:128,1,95.9999970703126,2|0
240,264,49743,5,2
376,192,50055,1,0
240,120,50368,1,2
124,224,50680,1,0
208,352,50993,1,2
104,312,51305,1,0
208,352,51618,6,0,B|259:352|308:336,2,95.9999970703126,2|0|2
104,312,52555,1,0
43,145,52868,1,2
217,176,53180,1,0
25,246,53493,1,2
139,111,53805,1,0
200,276,54118,6,0,B|280:336|388:340,1,191.999994140625,2|2
378,339,55055,1,0
378,339,55368,1,2
104,72,55993,5,0
208,24,56305,1,0
320,32,56618,2,0,B|368:24|424:56,1,80,2|0
368,136,57243,2,0,B|352:192|368:240,1,80
392,304,57868,2,0,B|344:312|288:280,1,80,2|0
296,200,58493,1,0
384,108,58805,1,0
272,48,59118,6,0,B|232:32|184:40,2,80,2|0|0
216,128,60055,1,0
216,128,60368,2,0,B|168:128|120:152,1,80,2|0
144,240,60993,1,0
216,304,61305,1,0
304,344,61618,6,0,B|408:360|432:272,1,160,2|0
336,264,62555,1,0
336,264,62868,2,0,B|248:264,1,80,2|0
196,192,63493,2,0,B|292:192,2,80
240,108,64430,5,0
312,44,64743,1,0
408,52,65055,2,0,B|436:80|452:128,1,80
456,152,65524,1,0
460,184,65680,1,0
460,216,65836,1,0
452,248,65993,1,0
444,280,66149,1,0
428,308,66305,1,0
280,348,66618,6,0,B|332:364|380:348,1,95.9999970703126,4|0
208,212,67243,2,0,B|156:196|108:212,1,95.9999970703126,2|0
280,348,67868,1,2
208,212,68180,1,0
312,100,68493,6,0,B|364:84|412:100,1,95.9999970703126,2|0
208,208,69118,2,0,B|156:224|108:208,1,95.9999970703126,2|0
312,100,69743,1,2
208,208,70055,1,0
112,88,70368,1,2
252,152,70680,1,0
408,216,70993,1,2
304,268,71305,1,0
408,216,71618,6,0,B|496:168|496:56,1,192.000004577637,2|2
384,96,72555,1,0
240,48,72868,1,2
120,144,73180,2,0,B|160:176|224:184,2,96.0000022888184,0|2|0
136,256,74118,6,0,B|236:252|344:300,1,191.999994140625,2|2
420,228,75055,1,0
280,168,75368,2,0,B|234:83,1,95.9999970703126,2|0
144,156,75993,1,2
200,264,76305,1,0
88,248,76618,6,0,B|120:280|133:332,1,95.9999970703126,2|0
88,136,77243,2,0,B|56:104|43:51,1,95.9999970703126,2|0
136,192,77868,2,0,B|204:180|256:208|336:188,1,191.999994140625,2|0
424,128,78805,1,0
344,48,79118,6,0,B|296:32|240:40,1,96.0000022888184,2|0
288,144,79743,1,2
272,256,80055,1,0
360,336,80368,2,0,B|408:360|464:352,2,96.0000022888184,2|0|2
440,248,81305,1,0
328,88,81618,5,2
440,88,81930,1,0
328,240,82243,1,2
216,88,82555,1,0
328,88,82868,2,0,B|376:80|432:88,1,96.0000022888184,2|0
328,240,83493,2,0,B|376:248|423:241,1,96.0000022888184,2|0
336,160,84118,5,2
240,160,84429,1,2
208,160,84586,1,2
176,160,84742,1,2
104,96,85055,1,2
64,184,85367,5,2
40,208,85523,1,2
32,240,85680,1,2
40,272,85836,1,2
64,288,85992,1,2
144,240,86305,1,2
256,192,86618,12,0,87868
