osu file format v9

[General]
AudioFilename: Bad MagiApple.mp3
AudioLeadIn: 2150
PreviewTime: 45984
Countdown: 0
SampleSet: Normal
StackLeniency: 0.7
Mode: 0
LetterboxInBreaks: 0
EpilepsyWarning: 1

[Editor]
DistanceSpacing: 1.3
BeatDivisor: 4
GridSize: 4

[Metadata]
Title:Bad MagiApple
Artist:Kalafina
Creator:Makar8000
Version:Hard
Source:Nico Nico Douga
Tags:mahou shoujo mix Pereira006 OzzyOzrock Elly-chan

[Difficulty]
HPDrainRate:6
CircleSize:4
OverallDifficulty:6
ApproachRate:7
SliderMultiplier:1.50000000596046
SliderTickRate:2

[Events]
//Background and Video events
0,0,"background.png"
//Break Periods
2,88522,99775
//Storyboard Layer 0 (Background)
Sprite,Background,TopLeft,"background.png",0,0 S,0,-3000,88322,0.625
Sprite,Background,CentreRight,"SB\storm.jpg",640,240 MX,0,132432,135979,638,1914 F,0,132440,132881,0,1
Sprite,Background,CentreRight,"SB\storm.jpg",640,240 MX,0,141259,146567,0,1914
Sprite,Background,CentreRight,"SB\storm.jpg",640,240 MX,0,151847,153616,0,640
Sprite,Background,CentreRight,"SB\storm.jpg",640,240 MX,0,134200,139509,0,1914
Sprite,Background,CentreRight,"SB\storm.jpg",640,240 MX,0,144789,150097,0,1914
Sprite,Background,CentreRight,"SB\storm.jpg",640,240 MX,0,137730,143038,0,1914
Sprite,Background,CentreRight,"SB\storm.jpg",640,240 MX,0,148318,153616,0,1914
Sprite,Background,Centre,"SB\background2s.png",320,240 M,0,88322,178322,320,240 F,0,131558,132219,1,0 F,0,132440,132441,1,0.1 F,0,153616,153617,0.1,1 F,0,174793,178322,1,0
//Storyboard Layer 1 (Fail)
//Storyboard Layer 2 (Pass)
//Storyboard Layer 3 (Foreground)
Sprite,Foreground,Centre,"SB\backgrounds.png",320,240 L,45969,8 F,1,0,441,1,0 S,0,0,441,1,1.05 M,0,0,1764,320,240 L,60087,16 F,1,0,441,1,0 S,0,0,441,1,1.03 L,67146,2 F,1,0,441,1,0 S,0,0,441,1,1.05 M,0,0,1764,320,240 L,70675,2 F,1,0,441,1,0 S,0,0,441,1,1.05 M,0,0,882,320,240 L,72440,4 F,1,0,441,1,0 S,0,0,441,1,1.05
Sprite,Foreground,Centre,"SB\white.jpg",320,240 M,0,88322,88763,320,240 F,0,88322,88763,1,0
Sprite,Foreground,Centre,"SB\sde.png",320,90 F,1,88322,89646,0,1 MX,1,88322,93617,110,128 F,0,93617,94940,1,0
Sprite,Foreground,Centre,"SB\elly.png",320,140 F,1,88984,90308,0,1 MX,1,88984,93617,120,138 F,0,93617,94940,1,0
Sprite,Foreground,Centre,"SB\ssm.png",320,340 F,1,90087,91411,0,1 MX,1,90087,95381,530,512 F,0,93617,94940,1,0
Sprite,Foreground,Centre,"SB\makar.png",320,390 F,1,90749,92073,0,1 MX,1,90749,95381,540,522 F,0,93617,94940,1,0
Sprite,Foreground,Centre,"SB\diff.png",320,90 F,1,95381,96705,0,1 MX,1,95381,100675,530,512 F,0,100675,101999,1,0
Sprite,Foreground,Centre,"SB\makar.png",320,140 F,1,96043,97367,0,1 MX,1,96043,100675,540,522 F,0,100675,101999,1,0
Sprite,Foreground,Centre,"SB\tml.png",320,340 F,1,97146,98470,0,1 MX,1,97146,102440,110,128 F,0,100675,101999,1,0
Sprite,Foreground,Centre,"SB\lolcubes.png",320,390 F,1,97808,99132,0,1 MX,1,97808,102440,120,138 F,0,100675,101999,1,0
Sprite,Foreground,Centre,"SB\White.jpg",320,240 M,0,132440,133101,320,240 F,0,132440,133101,1,0
Sprite,Foreground,Centre,"SB\White.jpg",320,240 M,0,153617,154058,320,240 F,0,153617,154058,1,0 M,0,155381,155822,320,240 F,0,155381,155822,1,0
Sprite,Foreground,Centre,"SB\background2s.png",320,240 L,158910,4 F,1,0,441,1,0 S,0,0,441,1,1.05 F,1,157146,157587,1,0 S,0,157146,157587,1,1.05 F,1,158028,158469,1,0 S,0,158028,158469,1,1.05
Sprite,Foreground,Centre,"SB\mami Fadeout.png",320,240 F,0,178322,179646,0,1 M,0,178330,181411,320,240
//Storyboard Sound Samples
//Background Colour Transformations
3,100,79,79,79

[TimingPoints]
1852,441.176470588235,4,1,0,60,1,0
15969,-100,4,1,0,50,0,0
45969,-100,4,1,0,55,0,1
74204,-100,4,1,0,50,0,0
132440,-100,4,1,0,55,0,1
160675,-100,4,1,0,50,0,0
174793,-100,4,2,0,50,0,0

[Colours]
Combo1 : 0,255,255
Combo2 : 255,128,192
SliderBorder : 220,220,220

[HitObjects]
104,80,1852,1,4
303,80,2293,1,0
444,221,2734,1,0
244,221,3175,1,0
244,221,3396,1,0
244,221,3616,1,4
385,79,4057,5,0
184,79,4499,1,0
68,236,4940,1,0
84,248,5050,1,0
100,260,5160,2,0,B|68:300,2,37.5000001490115,0|0|4
280,336,5822,5,0
440,220,6263,1,0
280,112,6704,1,0
280,112,6925,1,0
280,112,7146,1,4
88,112,7587,5,0
256,212,8028,1,0
267,223,8138,1,0
281,233,8249,1,0
297,241,8359,1,0
313,245,8469,2,0,B|361:245,3,37.5000001490115
369,245,8910,1,4
184,312,9351,5,0
43,171,9793,1,0
243,171,10234,1,0
243,171,10454,1,0
243,171,10675,1,4
102,313,11116,5,0
303,313,11557,1,0
424,160,11999,1,0
408,148,12109,1,0
392,136,12219,2,0,B|424:96,2,37.5000001490115,0|0|4
208,64,12881,5,0
47,172,13322,1,0
208,288,13763,1,0
208,288,13984,1,0
208,288,14204,1,4
256,192,14315,12,4,15969
384,88,16410,5,0
384,288,16852,1,0
313,217,17072,1,0
242,287,17293,1,8
171,216,17513,1,0
56,56,17954,5,0
156,56,18175,1,8
256,56,18396,1,0
156,56,18616,1,0
117,144,18837,1,0
160,232,19057,2,8,B|160:328,1,75.000000298023,8|0
354,307,19719,6,0,B|354:232,1,75.000000298023,0|0
396,144,20160,1,8
352,56,20381,1,0
450,56,20601,1,8
351,56,20822,1,8
250,56,21043,1,0
200,140,21263,6,0,B|166:163|145:231|185:293|248:331|316:307|338:273,2,300.000001192092,4|4|4
395,128,23469,5,8
256,264,23910,1,0
256,168,24131,1,0
256,72,24352,2,0,B|208:64|184:104,1,75.000000298023,8|0
432,160,25013,5,0
408,256,25234,1,8
344,184,25454,1,0
408,256,25675,1,0
312,264,25896,1,0
408,256,26116,2,0,B|464:312,1,75.000000298023,8|0
208,264,26778,5,0
112,256,26999,1,0
176,184,27219,1,8
112,256,27440,1,0
88,160,27660,1,8
112,256,27881,2,0,B|48:320,1,75.000000298023,8|0
176,184,28322,6,4,B|168:144|200:80|272:72|344:80|376:144|368:184,2,300.000001192092
368,184,30528,6,8,B|448:184,2,75.000000298023,8|8|8
232,320,31410,1,8
134,320,31631,1,0
64,248,31852,2,0,B|64:144,2,75.000000298023,8|0|8
203,112,32734,2,0,B|296:112,3,75.000000298023,0|0|8|0
400,128,33616,6,0,B|400:280,2,150.000000596046,0|8|0
208,128,34940,1,8
208,320,35381,2,0,B|360:320,2,150.000000596046,0|8|0
360,200,36704,1,8
472,40,37146,5,4
374,40,37366,1,0
328,128,37587,2,0,B|248:128,2,75.000000298023,8|8|8
280,320,38469,1,8
378,320,38690,1,0
432,240,38910,2,0,B|432:144,2,75.000000298023,8|0|8
233,237,39793,6,0,B|140:237,3,75.000000298023,0|0|8|0
158,139,40675,1,0
353,139,41116,2,0,B|353:243,2,75.000000298023,8|0|0
72,328,42440,5,4
440,328,42881,1,4
440,56,43322,1,4
72,56,43763,1,4
256,192,44204,12,4,45969
112,272,46410,5,0
304,272,46851,1,0
304,80,47293,2,0,B|392:80,2,75.000000298023,4|12|4
112,80,48175,1,0
181,149,48396,1,8
249,217,48616,1,0
318,286,48837,1,8
384,216,49057,1,0
208,112,49499,5,4
400,112,49940,1,0
208,112,50381,1,0
208,304,50822,2,4,B|120:304,2,75.000000298023,4|12|4
400,304,51704,1,0
330,234,51925,1,8
261,165,52146,1,0
191,95,52366,1,8
120,168,52587,1,0
256,304,53028,6,0,B|176:304,2,75.000000298023,4|8|0
416,192,53910,1,0
256,80,54351,2,0,B|168:80,2,75.000000298023,0|8|0
136,232,55234,5,0
88,320,55454,1,8
184,320,55675,1,0
136,232,55896,1,8
88,320,56116,1,0
88,128,56557,5,0
160,64,56778,1,8
232,128,56999,2,0,B|303:128|270:212|342:212,1,150.000000596046
448,56,57881,2,0,B|448:136,2,75.000000298023,0|8|4
208,312,58763,5,4
248,192,58984,1,8
288,312,59204,1,4
184,240,59425,1,8
312,240,59646,1,4
208,112,60087,5,4
400,112,60528,1,8
208,112,60969,1,0
208,304,61410,2,4,B|120:304,2,75.000000298023,12|4|12
392,248,62293,5,8
344,120,62513,1,0
296,248,62734,1,8
416,168,62954,1,0
272,168,63175,1,8
112,72,63616,5,4
112,264,64057,1,8
304,264,64499,1,0
304,72,64940,2,4,B|392:72,2,75.000000298023,12|4|12
152,192,65822,5,8
200,344,66042,1,0
72,248,66263,1,8
232,248,66483,1,0
104,344,66704,1,8
392,192,67146,5,4
336,112,67366,1,0
256,56,67587,2,0,B|160:56|224:120|128:120,1,150.000000596046,0|8
112,216,68249,1,0
144,304,68469,1,8
336,328,68910,5,4
416,272,69131,1,0
472,192,69351,2,0,B|472:96|408:160|408:64,1,150.000000596046,0|8
312,48,70013,1,0
224,80,70234,1,8
48,160,70675,6,4,B|176:128|176:320|304:288,1,300.000001192092
256,32,72440,5,4
448,192,72881,1,4
256,352,73322,1,4
64,192,73763,1,4
256,192,74204,12,4,80381
256,88,80822,5,4
256,288,81263,1,4
256,192,81374,12,4,87440
160,192,87881,5,4
352,192,88322,1,4
464,64,100675,5,4
464,320,101116,1,4
432,64,101557,1,4
432,320,101999,1,4
288,192,102440,5,4
128,296,102881,1,8
128,96,103322,1,0
199,167,103543,1,0
270,97,103763,1,8
341,168,103984,1,0
464,328,104425,5,0
364,328,104646,1,8
264,328,104866,1,0
312,240,105087,1,0
416,240,105307,1,0
364,152,105528,2,0,B|364:56,1,75.000000298023,8|0
144,80,106190,6,0,B|144:155,1,75.000000298023,0|0
196,240,106631,1,8
92,240,106852,1,0
44,328,107072,1,8
144,328,107293,1,8
244,328,107513,1,0
312,256,107734,6,0,B|346:233|367:165|327:103|264:65|196:89|174:123,2,300.000001192092,4|4|4
117,256,109940,5,8
256,120,110381,1,0
256,216,110602,1,0
256,312,110822,2,0,B|304:320|328:280,1,75.000000298023,8|0
80,224,111484,5,0
104,128,111704,1,8
168,200,111925,1,0
104,128,112146,1,0
200,120,112366,1,0
104,128,112587,2,0,B|48:72,1,75.000000298023,8|0
304,120,113249,5,0
400,128,113469,1,0
336,200,113690,1,8
400,128,113910,1,0
424,224,114131,1,8
400,128,114352,2,0,B|464:64,1,75.000000298023,8|0
336,200,114793,6,4,B|344:240|312:304|240:312|168:304|136:240|144:200,2,300.000001192092
144,200,116999,6,8,B|64:200,2,75.000000298023,8|8|8
280,64,117881,1,8
378,64,118101,1,0
448,136,118322,2,0,B|448:224,2,75.000000298023,8|0|8
309,272,119204,2,0,B|216:272,3,75.000000298023,0|0|8|0
112,256,120087,6,0,B|112:104,2,150.000000596046,0|8|0
304,256,121410,1,8
304,64,121852,2,0,B|144:64,2,150.000000596046,0|8|0
168,208,123175,1,8
40,344,123616,5,4
138,344,123837,1,0
184,256,124057,2,0,B|264:256,2,75.000000298023,8|8|8
232,64,124940,1,8
134,64,125160,1,0
80,144,125381,2,0,B|80:240,2,75.000000298023,8|0|8
279,147,126263,6,0,B|372:147,3,75.000000298023,0|0|8|0
354,244,127146,1,0
159,244,127587,2,0,B|159:140,2,75.000000298023,8|0|0
354,244,128469,1,8
408,40,128910,5,4
64,104,129351,1,4
104,344,129793,1,4
448,280,130234,1,4
256,192,130675,12,4,132440
400,128,132881,5,0
208,128,133322,1,0
208,320,133763,2,4,B|120:320,2,75.000000298023,4|12|4
304,152,134646,2,0,B|304:48,1,75.000000298023,0|8
324,176,135087,2,0,B|396:224,1,75.000000298023,0|8
284,176,135528,2,0,B|212:224,1,75.000000298023,8|0
304,256,135969,5,4
112,256,136410,1,0
304,256,136851,1,0
424,96,137292,2,4,B|512:40,2,75.000000298023,4|12|4
291,180,138175,2,0,B|228:221,1,75.000000298023,0|8
126,180,138616,2,0,B|188:221,1,75.000000298023,0|8
208,320,139057,2,0,B|208:245,1,75.000000298023,8|0
208,144,139499,6,0,B|208:64,2,75.000000298023,4|0|8
24,208,140381,1,0
208,272,140822,2,0,B|208:352,2,75.000000298023,8|0|0
376,168,141704,5,0
424,80,141925,1,8
328,80,142146,1,0
376,168,142366,1,8
424,80,142587,1,0
464,272,143028,5,0
392,344,143249,1,8
376,248,143469,2,0,B|288:248|321:163|249:163,1,150.000000596046,0|0
88,240,144351,2,0,B|24:184,2,75.000000298023,0|0|4
432,96,145234,1,4
120,304,145675,1,4
384,40,146116,1,4
176,352,146557,5,4
248,288,146778,1,0
176,224,146999,1,8
368,224,147440,1,0
272,56,147881,2,4,B|272:136,2,75.000000298023,12|4|12
104,152,148763,5,8
152,280,148983,1,0
200,152,149204,1,8
80,232,149424,1,0
224,232,149645,1,8
368,352,150087,5,4
296,288,150307,1,0
368,224,150529,1,8
208,120,150969,1,0
208,312,151410,2,4,B|120:312,2,75.000000298023,12|4|12
360,192,152293,5,8
312,40,152513,1,0
440,136,152734,1,8
280,136,152954,1,0
408,40,153175,1,8
120,192,153616,5,4
176,272,153837,1,0
256,328,154057,2,8,B|352:328|288:264|384:264,1,150.000000596046,0|8
400,168,154719,1,0
368,80,154940,1,8
176,56,155381,5,4
96,112,155601,1,0
40,192,155822,2,8,B|40:288|104:224|104:320,1,150.000000596046,0|8
200,336,156484,1,0
288,304,156704,1,8
464,224,157146,6,4,B|336:256|336:64|208:96,1,300.000001192092
56,328,158910,5,4
456,328,159351,1,4
456,56,159793,1,4
56,56,160234,1,4
256,192,160675,12,4,167293
256,192,167734,5,4
256,192,167844,12,4,174793
