osu file format v9

[General]
AudioFilename: Kurofune Raikou.mp3
AudioLeadIn: 3000
PreviewTime: 46122
Countdown: 0
SampleSet: Normal
StackLeniency: 0.5
Mode: 0
LetterboxInBreaks: 1

[Editor]
DistanceSpacing: 0.4
BeatDivisor: 4
GridSize: 8

[Metadata]
Title:Kurofune Raikou
Artist:Kakumi Nishigomi
Creator:NatsumeRin
Version:Oni
Source:Taiko no Tatsujin
Tags:taikosu namco original crazy jay

[Difficulty]
HPDrainRate:6
CircleSize:4
OverallDifficulty:7
ApproachRate:8
SliderMultiplier:1.92
SliderTickRate:1

[Events]
//Background and Video events
0,0,"BG.jpg"
//Break Periods
//Storyboard Layer 0 (Background)
//Storyboard Layer 1 (Fail)
//Storyboard Layer 2 (Pass)
//Storyboard Layer 3 (Foreground)
//Storyboard Sound Samples
//Background Colour Transformations
3,100,163,162,255

[TimingPoints]
350,441.176470588235,4,1,1,70,1,0
350,-133.333333333333,4,1,1,70,0,0
460,-133.333333333333,4,1,1,10,0,0
3879,-100,4,1,1,80,0,0
4982,-100,4,1,2,80,0,0
5644,-100,4,1,1,80,0,0
6416,-100,4,1,2,80,0,0
7408,-100,4,1,1,80,0,0
8511,-100,4,1,2,80,0,0
9394,-100,4,1,1,80,0,0
10055,-100,4,1,2,80,0,0
10717,-100,4,1,1,80,0,0
11158,-100,4,1,2,80,0,0
11820,-100,4,1,1,80,0,0
12041,-100,4,1,2,80,0,0
12702,-100,4,1,1,80,0,0
13364,-100,4,1,2,80,0,0
13585,-100,4,1,1,80,0,0
13805,-100,4,1,2,80,0,0
14247,-100,4,1,1,80,0,0
14688,-100,4,1,2,80,0,0
15349,-100,4,1,1,80,0,0
15680,-100,4,1,2,80,0,0
16232,-100,4,1,1,80,0,0
17997,-100,4,1,1,80,0,1
18217,-100,4,1,2,80,0,1
18438,-100,4,1,1,80,0,1
19099,-100,4,1,2,80,0,1
19320,-100,4,1,1,80,0,1
19982,-100,4,1,2,80,0,1
20202,-100,4,1,1,80,0,1
20864,-100,4,1,2,80,0,1
21526,-100,4,1,1,80,0,1
21747,-100,4,1,2,80,0,1
21967,-100,4,1,1,80,0,1
22629,-100,4,1,2,80,0,1
22849,-100,4,1,1,80,0,1
23511,-100,4,1,2,80,0,1
23732,-100,4,1,1,80,0,1
24394,-100,4,1,2,80,0,1
24504,-100,4,1,1,80,0,1
24835,-100,4,1,2,80,0,1
25055,-100,4,1,1,80,0,1
25276,-100,4,1,2,80,0,1
25497,-100,4,1,1,80,0,1
26158,-100,4,1,2,80,0,1
26379,-100,4,1,1,80,0,1
27041,-100,4,1,2,80,0,1
27261,-100,4,1,1,80,0,1
27923,-100,4,1,2,80,0,1
28585,-100,4,1,1,80,0,1
28805,-100,4,1,2,80,0,1
28916,-100,4,1,1,80,0,1
29247,-100,4,1,2,80,0,1
29467,-100,4,1,1,80,0,1
29688,-100,4,1,2,80,0,1
29798,-100,4,1,1,80,0,1
30129,-100,4,1,2,80,0,1
30349,-100,4,1,1,80,0,1
30570,-100,4,1,2,80,0,1
30791,-100,4,1,1,80,0,1
31011,-100,4,1,2,80,0,1
31232,-100,4,1,1,80,0,1
31452,-100,4,1,2,80,0,1
31673,-100,4,1,1,80,0,1
31894,-100,4,1,2,80,0,1
32114,-100,4,1,1,80,0,1
32335,-100,4,1,2,80,0,1
32555,-100,4,1,1,80,0,1
33217,-100,4,1,2,80,0,1
33438,-100,4,1,1,80,0,1
34099,-100,4,1,2,80,0,1
34320,-100,4,1,1,80,0,1
34982,-100,4,1,2,80,0,1
35644,-100,4,1,1,80,0,1
35864,-100,4,1,2,80,0,1
36085,-100,4,1,1,80,0,1
36747,-100,4,1,2,80,0,1
36967,-100,4,1,1,80,0,1
37629,-100,4,1,2,80,0,1
37849,-100,4,1,1,80,0,1
38511,-100,4,1,2,80,0,1
38622,-100,4,1,1,80,0,1
38952,-100,4,1,2,80,0,1
39173,-100,4,1,1,80,0,1
39394,-100,4,1,2,80,0,1
39614,-100,4,1,1,80,0,1
40276,-100,4,1,2,80,0,1
40497,-100,4,1,1,80,0,1
41158,-100,4,1,2,80,0,1
41379,-100,4,1,1,80,0,1
42041,-100,4,1,2,80,0,1
42702,-100,4,1,1,80,0,1
42923,-100,4,1,2,80,0,1
43033,-100,4,1,1,80,0,1
43364,-100,4,1,2,80,0,1
43585,-100,4,1,1,80,0,1
43805,-100,4,1,2,80,0,1
43916,-100,4,1,1,80,0,1
44247,-100,4,1,2,80,0,1
44467,-100,4,1,1,80,0,1
44688,-100,4,1,2,80,0,1
44908,-100,4,1,1,80,0,1
45129,-100,4,1,2,80,0,1
45349,-100,4,1,1,80,0,1
45570,-100,4,1,2,80,0,1
45791,-100,4,1,1,80,0,1
46011,-100,4,1,2,80,0,1
46232,-100,4,1,1,80,0,0
46452,-100,4,1,2,80,0,0
46894,-100,4,1,1,80,0,0
47224,-100,4,1,2,80,0,0
47997,-100,4,1,1,80,0,0
48217,-100,4,1,2,80,0,0
48658,-100,4,1,1,80,0,0
48989,-100,4,1,2,80,0,0
49320,-100,4,1,1,80,0,0
49430,-100,4,1,2,80,0,0
49761,-100,4,1,1,80,0,0
49982,-100,4,1,2,80,0,0
50423,-100,4,1,1,80,0,0
50754,-100,4,1,2,80,0,0
51526,-100,4,1,1,80,0,0
51747,-100,4,1,2,80,0,0
52188,-100,4,1,1,80,0,0
52519,-100,4,1,2,80,0,0
52739,-100,4,1,1,80,0,0
52960,-100,4,1,2,80,0,0
53291,-100,4,1,1,80,0,0
53511,-100,4,1,2,80,0,0
53952,-100,4,1,1,80,0,0
54283,-100,4,1,2,80,0,0
55055,-100,4,1,1,80,0,0
55276,-100,4,1,2,80,0,0
55717,-100,4,1,1,80,0,0
56048,-100,4,1,2,80,0,0
56379,-100,4,1,1,80,0,0
56489,-100,4,1,2,80,0,0
56820,-100,4,1,1,80,0,0
57041,-100,4,1,2,80,0,0
57482,-100,4,1,1,80,0,0
57813,-100,4,1,2,80,0,0
58585,-100,4,1,1,80,0,0
59026,-100,4,1,2,80,0,0
59467,-100,4,1,1,80,0,0
59688,-100,4,1,2,80,0,0
59908,-100,4,1,1,80,0,0
60129,-100,4,1,2,80,0,0
62114,-100,4,1,1,80,0,0
62335,-100,4,1,2,80,0,0
62555,-100,4,1,1,80,0,0
62776,-100,4,1,2,80,0,0
62997,-100,4,1,1,80,0,0
63217,-100,4,1,2,80,0,0
63438,-100,4,1,1,80,0,0
63658,-100,4,1,2,80,0,0
63879,-100,4,1,1,80,0,0
64210,-100,4,1,2,80,0,0
64761,-100,4,1,1,80,0,0
64872,-100,4,1,2,80,0,0
65644,-100,4,1,1,80,0,0
65864,-100,4,1,2,80,0,0
66085,-100,4,1,1,80,0,0
66305,-100,4,1,2,80,0,0
66526,-100,4,1,1,80,0,0
66747,-100,4,1,2,80,0,0
67408,-100,4,1,1,80,0,0
67555,-100,4,1,2,80,0,0
67849,-100,4,1,1,80,0,0
69394,-100,4,1,2,80,0,0
69614,-100,4,1,1,80,0,0
69835,-100,4,1,2,80,0,0
70055,-100,4,1,1,80,0,0
70276,-100,4,1,2,80,0,0
70497,-100,4,1,1,80,0,0
70717,-100,4,1,2,80,0,0
70938,-100,4,1,1,80,0,0
71269,-100,4,1,2,80,0,0
71820,-100,4,1,1,80,0,0
71930,-100,4,1,2,80,0,0
72702,-100,4,1,1,80,0,0
72923,-100,4,1,2,80,0,0
73144,-100,4,1,1,80,0,0
73364,-100,4,1,2,80,0,0
73585,-100,4,1,1,80,0,0
73805,-100,4,1,2,80,0,0
74467,-100,4,1,1,80,0,0
74614,-100,4,1,2,80,0,0
74908,-100,4,1,1,80,0,0
76452,-100,4,1,2,80,0,0
76673,-100,4,1,1,80,0,0
76894,-100,4,1,2,80,0,0
77114,-100,4,1,1,80,0,0
77335,-100,4,1,2,80,0,0
77555,-100,4,1,1,80,0,0
77776,-100,4,1,2,80,0,0
77997,-100,4,1,1,80,0,0
78217,-100,4,1,2,80,0,0
78438,-100,4,1,1,80,0,0
78658,-100,4,1,2,80,0,0
78879,-100,4,1,1,80,0,0
79099,-100,4,1,2,80,0,0
79320,-100,4,1,1,80,0,0
79541,-100,4,1,2,80,0,0
79761,-100,4,1,1,80,0,0
79982,-100,4,1,2,80,0,0
80202,-100,4,1,1,80,0,0
80423,-100,4,1,2,80,0,0
80644,-100,4,1,1,80,0,0
80754,-100,4,1,2,80,0,0
81085,-100,4,1,1,80,0,0
81636,-100,4,1,2,80,0,0
81967,-100,4,1,1,80,0,0
82077,-100,4,1,2,80,0,0
82408,-100,4,1,1,80,0,0
82849,-100,4,1,2,80,0,0
83291,-100,4,1,1,80,0,0
83511,-100,4,1,2,80,0,0
83732,-100,4,1,1,80,0,0
83952,-100,4,1,2,80,0,0
84173,-100,4,1,1,80,0,0
84394,-100,4,1,2,80,0,0
84614,-100,4,1,1,80,0,0
84835,-100,4,1,2,80,0,0
85055,-100,4,1,1,80,0,0
85276,-100,4,1,2,80,0,0
85497,-100,4,1,1,80,0,0
85717,-100,4,1,2,80,0,0
85938,-100,4,1,1,80,0,0
87482,-100,4,1,2,80,0,0
87702,-100,4,1,1,80,0,0
88364,-100,4,1,2,80,0,0
88585,-100,4,1,1,80,0,0
88805,-100,4,1,2,80,0,0
89026,-100,4,1,1,80,0,0
89467,-100,4,1,2,80,0,0
90349,-100,4,1,1,80,0,0
90570,-100,4,1,2,80,0,0
90791,-100,4,1,1,80,0,0
91011,-100,4,1,2,80,0,0
91232,-100,4,1,1,80,0,0
91673,-100,4,1,2,80,0,0
91894,-100,4,1,1,80,0,0
92335,-100,4,1,2,80,0,0
92555,-100,4,1,1,80,0,0
92776,-100,4,1,2,80,0,0
92997,-100,4,1,1,80,0,0
93438,-100,4,1,2,80,0,0
93658,-100,4,1,1,80,0,0
94099,-100,4,1,2,80,0,0
94320,-100,4,1,1,80,0,0
94541,-100,4,1,2,80,0,0
94761,-100,4,1,1,80,0,0
95202,-100,4,1,2,80,0,0
95423,-100,4,1,1,80,0,0
97408,-100,4,1,1,80,0,1
97849,-100,4,1,2,80,0,1
98070,-100,4,1,1,80,0,1
98511,-100,4,1,2,80,0,1
98732,-100,4,1,1,80,0,1
98842,-100,4,1,2,80,0,1
99173,-100,4,1,1,80,0,1
99394,-100,4,1,2,80,0,1
99614,-100,4,1,1,80,0,1
99724,-100,4,1,2,80,0,1
99945,-100,4,1,1,80,0,1
100276,-100,4,1,2,80,0,1
100497,-100,4,1,1,80,0,1
100607,-100,4,1,2,80,0,1
100938,-100,4,1,1,80,0,1
101379,-100,4,1,2,80,0,1
101599,-100,4,1,1,80,0,1
102041,-100,4,1,2,80,0,1
102261,-100,4,1,1,80,0,1
102372,-100,4,1,2,80,0,1
102702,-100,4,1,1,80,0,1
102923,-100,4,1,2,80,0,1
103144,-100,4,1,1,80,0,1
103364,-100,4,1,2,80,0,1
103585,-100,4,1,1,80,0,1
103695,-100,4,1,2,80,0,1
104467,-100,4,1,1,80,0,1
104908,-100,4,1,2,80,0,1
105129,-100,4,1,1,80,0,1
105570,-100,4,1,2,80,0,1
105791,-100,4,1,1,80,0,1
105901,-100,4,1,2,80,0,1
106232,-100,4,1,1,80,0,1
106452,-100,4,1,2,80,0,1
106673,-100,4,1,1,80,0,1
106783,-100,4,1,2,80,0,1
107004,-100,4,1,1,80,0,1
107335,-100,4,1,2,80,0,1
107555,-100,4,1,1,80,0,1
107666,-100,4,1,2,80,0,1
107997,-100,4,1,1,80,0,1
108438,-100,4,1,2,80,0,1
108879,-100,4,1,1,80,0,1
109320,-100,4,1,2,80,0,1
109761,-100,4,1,1,80,0,1
109982,-100,4,1,2,80,0,1
110202,-100,4,1,1,80,0,1
110423,-100,4,1,2,80,0,1
110644,-100,4,1,1,80,0,1
110754,-100,4,1,2,80,0,1
111526,-100,4,1,1,80,0,1
111857,-100,4,1,2,80,0,1
111967,-100,4,1,1,80,0,1
112298,-100,4,1,2,80,0,1
112408,-100,4,1,1,80,0,1
112739,-100,4,1,2,80,0,1
112849,-100,4,1,1,80,0,1
113180,-100,4,1,2,80,0,1
113291,-100,4,1,1,80,0,1
113401,-100,4,1,2,80,0,1
113732,-100,4,1,1,80,0,1
113842,-100,4,1,2,80,0,1
114173,-100,4,1,1,80,0,1
114283,-100,4,1,2,80,0,1
114614,-100,4,1,1,80,0,1
114724,-100,4,1,2,80,0,1
115055,-100,4,1,1,80,0,1
115386,-100,4,1,2,80,0,1
115497,-100,4,1,1,80,0,1
115827,-100,4,1,2,80,0,1
115938,-100,4,1,1,80,0,1
116269,-100,4,1,2,80,0,1
116379,-100,4,1,1,80,0,1
116489,-100,4,1,2,80,0,1
117702,-100,4,1,2,80,0,0

[Colours]
Combo1 : 112,196,193
Combo2 : 243,89,34

[HitObjects]
256,192,350,6,0,B|216:192|216:240|264:272|320:256|336:176|280:136|224:160|264:24,2,287.999991416931
256,48,3879,5,0
256,48,4982,5,8
256,72,5092,1,8
256,96,5202,2,0,B|256:216,1,96,8|8
192,264,5644,1,0
320,264,5864,1,0
416,264,6416,5,8
416,264,6526,2,0,B|520:264,2,96,8|8|8
96,264,7408,1,0
0,264,8511,5,8
0,264,8622,1,8
0,264,8732,2,0,B|0:160,1,96,8|8
0,168,9394,1,0
0,168,9835,5,0
48,88,10055,1,8
128,40,10276,1,8
216,16,10497,1,8
312,16,10717,6,0,B|360:16,2,48
448,72,11158,1,8
448,72,11820,5,0
360,120,12041,2,0,B|312:120,2,48,8|8|8
448,168,12482,1,8
312,208,12702,1,0
312,208,13364,5,8
320,248,13475,1,8
344,280,13585,1,0
472,320,13805,1,8
200,208,14247,5,0
192,248,14357,1,0
168,280,14467,1,0
40,320,14688,1,8
256,376,15350,5,0
256,232,15680,1,8
256,232,15791,2,0,B|256:136,1,96,8|8
256,40,16232,5,0
256,40,16379,1,0
256,40,16526,1,0
256,40,16673,1,0
256,40,16820,1,0
256,40,16967,1,0
256,40,17114,1,0
440,128,17997,5,0
344,144,18217,1,8
408,216,18438,2,0,B|440:256,2,48
384,96,18879,5,0
304,184,19099,1,8
408,216,19320,2,0,B|464:232,2,48
312,112,19761,5,0
272,248,19982,1,8
408,216,20202,2,0,B|480:192,2,48
256,168,20644,5,0
296,320,20864,1,8
144,280,21085,1,8
144,280,21195,1,8
144,280,21305,1,8
232,256,21526,5,0
208,344,21747,1,8
144,280,21967,2,0,B|96:232,2,48
256,312,22408,5,0
144,280,22629,1,8
232,192,22849,2,0,B|272:144,2,48
192,336,23291,5,0
232,192,23511,1,8
328,296,23732,2,0,B|368:336,2,48
168,256,24173,5,0
152,240,24283,1,0
136,224,24394,1,8
120,208,24504,1,0
104,192,24614,2,0,B|104:96,1,96,0|8
256,128,25055,6,0,B|256:32,1,96,0|8
168,256,25497,1,0
168,256,25607,1,0
168,256,25717,1,0
296,168,25938,6,0,B|296:72,1,96,0|8
208,296,26380,1,0
208,296,26490,1,0
208,296,26600,1,0
336,208,26820,6,0,B|336:112,1,96,0|8
248,336,27262,1,0
248,336,27372,1,0
248,336,27482,1,0
368,248,27702,6,0,B|368:152,1,96,0|8
368,16,28144,1,8
368,16,28254,1,8
368,16,28364,1,8
256,56,28585,5,0
248,96,28695,1,0
240,136,28805,1,8
232,176,28916,1,0
224,216,29026,2,0,B|128:216,1,96,0|8
256,328,29467,5,0
264,288,29577,1,0
272,248,29687,1,8
280,208,29798,1,0
288,168,29908,2,0,B|384:168,1,96,0|8
192,168,30349,5,0
192,168,30460,1,0
192,168,30570,1,8
336,256,30791,5,0
336,256,30902,1,0
336,256,31012,1,8
192,328,31232,5,0
192,328,31342,1,0
192,328,31452,1,8
336,80,31673,5,0
336,80,31783,1,0
336,80,31894,1,8
384,168,32114,5,0
288,168,32335,1,8
192,168,32555,2,0,B|136:168,2,48
336,168,32997,5,0
240,200,33217,1,8
144,232,33438,2,0,B|72:256,2,48
288,184,33879,5,0
200,248,34099,1,8
112,312,34320,2,0,B|40:368,2,48
240,216,34761,5,0
184,320,34982,1,8
64,304,35202,1,8
48,288,35313,1,8
32,272,35423,1,8
32,176,35644,5,0
128,176,35864,1,8
224,176,36085,2,0,B|272:176,2,48
80,224,36526,5,0
176,176,36747,1,8
272,128,36967,2,0,B|336:96,2,48
144,232,37408,5,0
224,152,37629,1,8
304,72,37849,2,0,B|352:24,2,48
224,232,38291,5,0
248,240,38401,1,0
272,248,38511,1,8
296,256,38622,1,0
320,264,38732,2,0,B|416:264,1,96,0|8
368,136,39173,6,0,B|472:136,1,96,0|8
320,264,39614,1,0
320,264,39724,1,0
320,264,39835,1,0
320,120,40055,6,0,B|424:120,1,96,0|8
272,248,40496,1,0
272,248,40606,1,0
272,248,40717,1,0
272,104,40938,6,0,B|376:104,1,96,0|8
224,232,41379,1,0
224,232,41489,1,0
224,232,41600,1,0
224,88,41820,6,0,B|328:88,1,96,0|8
472,88,42261,1,8
472,88,42372,1,8
472,88,42482,1,8
400,224,42702,5,0
384,264,42813,1,0
368,304,42923,1,8
352,264,43033,1,0
336,224,43144,2,0,B|240:224,1,96,0|8
112,160,43585,5,0
128,120,43696,1,0
144,80,43805,1,8
160,120,43916,1,0
176,160,44027,2,0,B|272:160,1,96,0|8
144,216,44467,5,0
144,248,44577,1,0
144,280,44688,1,8
224,200,44908,5,0
224,240,45019,1,0
224,280,45129,1,8
312,184,45349,5,0
312,232,45460,1,0
312,280,45570,1,8
408,168,45791,5,0
408,224,45901,1,0
408,280,46011,1,8
456,80,46232,6,0,B|408:96|352:80,1,96,0|8
312,64,46563,2,0,B|262:77|206:61,1,96,8|8
168,80,46894,1,0
64,40,47114,1,0
48,80,47224,1,8
64,128,47335,1,8
152,192,47555,1,8
64,256,47776,1,8
48,304,47887,1,8
64,344,47997,6,0,B|112:360|160:344,1,96,0|8
200,312,48327,2,0,B|248:328|304:304,1,96,8|8
336,280,48658,2,0,B|392:296|440:272,1,96
464,256,48989,1,8
496,232,49099,2,0,B|496:112,1,96,8|0
496,104,49430,1,8
392,8,49651,1,8
392,40,49761,5,0
264,40,49982,1,8
264,40,50092,2,0,B|208:24|144:48,1,96,8|8
128,56,50423,1,0
72,160,50644,2,0,B|24:176,2,48,0|8|8
184,192,51085,1,8
296,224,51305,2,0,B|344:208,2,48,8|8|0
104,280,51747,5,8
104,312,51857,1,8
184,192,52077,1,8
184,160,52187,1,0
296,224,52408,1,0
320,240,52519,1,8
344,256,52629,1,8
368,272,52739,1,0
392,288,52849,2,0,B|456:328,2,48,0|8|8
440,128,53291,5,0
384,48,53511,2,0,B|336:48,1,48,8|8
248,224,53842,2,0,B|304:224,1,48,8|0
248,88,54173,1,0
208,88,54283,1,8
168,88,54394,1,8
120,192,54614,1,8
168,296,54835,1,8
208,296,54945,1,8
248,296,55055,1,0
344,192,55276,6,0,B|392:192,1,48,8|8
208,192,55607,2,0,B|264:192,1,48,8|0
72,192,55938,2,0,B|136:192,2,48,0|8|8
32,112,56379,1,0
32,72,56489,1,8
32,272,56710,1,8
32,312,56820,6,0,B|64:352|120:344,1,96,0|8
160,328,57151,2,0,B|208:304|264:320,1,96,8|8
304,328,57482,2,0,B|352:344|408:312,1,96
432,296,57813,1,8
464,272,57923,1,8
464,272,58144,1,8
464,272,58364,1,8
453,241,58474,1,8
442,211,58585,5,0
431,181,58695,1,0
420,151,58805,1,0
296,69,59026,1,8
307,99,59136,1,8
318,129,59247,1,8
272,272,59467,2,0,B|252:219,1,48
208,192,59688,2,0,B|227:244,1,48,8|8
200,288,59908,2,0,B|164:190,1,96,0|8
167,197,60570,5,8
176,304,60791,1,8
288,344,61011,1,8
376,232,61232,1,8
304,96,61452,1,8
128,96,61673,1,8
128,96,62114,5,0
80,192,62335,2,0,B|48:248,2,48,8|8|0
160,272,62776,2,0,B|149:335,2,48,8|8|0
280,288,63217,2,0,B|291:351,2,48,8|8|0
400,248,63658,2,0,B|432:303,2,48,8|8|0
504,160,64099,5,0
464,136,64210,1,8
424,112,64320,1,8
328,48,64541,1,8
280,48,64651,1,8
232,48,64761,2,0,B|184:48,1,48,0|8
184,48,65092,1,8
184,48,65202,1,8
424,112,65644,5,0
400,232,65864,1,8
392,264,65974,1,8
384,296,66085,1,0
272,272,66305,1,8
264,304,66415,1,8
256,336,66526,2,0,B|152:336,1,96,0|8
104,168,66967,2,0,B|200:168,1,96,8|8
272,272,67408,6,0,B|360:224,2,64,0|8|8
272,272,67849,1,0
272,272,67997,1,0
272,272,68144,1,0
272,272,68291,1,0
384,16,69173,5,0
472,104,69394,1,8
456,120,69504,1,8
440,136,69614,2,0,B|344:152,1,96,0|8
328,168,69945,1,8
312,184,70055,2,0,B|216:200,1,96,0|8
200,216,70386,1,8
184,232,70497,2,0,B|88:248,1,96,0|8
72,264,70828,1,8
56,280,70938,1,0
16,160,71158,5,0
40,136,71269,1,8
64,112,71379,1,8
184,40,71599,1,8
232,40,71710,1,8
280,40,71820,2,0,B|336:40,1,48,0|8
328,40,72151,1,8
328,40,72261,1,8
64,112,72702,5,0
184,176,72923,1,8
216,192,73033,1,8
248,208,73144,1,0
216,296,73364,1,8
248,312,73474,1,8
280,328,73585,2,0,B|384:328,1,96,0|8
408,144,74026,2,0,B|304:144,1,96,8|8
448,264,74467,5,0
480,184,74614,2,0,B|480:96,1,64,8|8
448,40,74908,1,0
448,40,75055,1,0
448,40,75202,1,0
448,40,75349,1,0
72,104,76232,5,0
96,208,76452,2,0,B|112:280,2,48,8|8|0
208,248,76894,2,0,B|224:320,2,48,8|8|0
320,288,77335,2,0,B|336:360,1,48,8|8
384,352,77555,2,0,B|368:280,1,48
416,272,77776,2,0,B|432:344,1,48,8|8
384,352,77997,5,0
432,248,78217,2,0,B|456:192,2,48,8|8|0
336,168,78658,2,0,B|360:112,2,48,8|8|0
224,112,79099,2,0,B|248:56,1,48,8|8
208,32,79320,2,0,B|184:88,1,48
136,80,79541,2,0,B|160:24,1,48,8|8
208,32,79761,5,0
152,168,79982,1,8
136,208,80092,1,8
120,248,80202,1,0
104,288,80313,1,0
88,328,80423,1,8
152,168,80644,1,0
200,168,80754,1,8
248,168,80864,1,8
296,168,80974,1,8
344,168,81085,1,0
152,168,81525,5,0
200,136,81636,1,8
248,104,81746,1,8
296,136,81856,1,8
344,168,81967,1,0
296,200,82077,1,8
248,232,82187,1,8
200,200,82297,1,8
152,168,82408,2,0,B|368:168,1,192,0|8
440,168,83070,1,8
440,168,83180,1,8
440,168,83291,6,0,B|472:216|432:272,1,96,0|8
416,296,83622,1,8
392,328,83732,2,0,B|360:368,2,48,0|0|8
360,216,84173,6,0,B|328:168|368:112,1,96,0|8
384,88,84504,1,8
408,56,84614,2,0,B|440:16,2,48,0|0|8
440,168,85055,6,0,B|368:168,1,48
360,128,85276,2,0,B|312:128,1,48,8|8
280,168,85497,2,0,B|216:168,1,48
200,128,85717,2,0,B|152:128,1,48,8|8
120,168,85938,1,0
352,264,86820,6,0,B|440:264,2,64
352,264,87261,1,0
160,224,87482,5,8
160,224,87592,1,8
160,224,87702,2,0,B|64:224,2,64
160,224,88143,1,0
352,168,88364,5,8
352,168,88474,1,8
312,208,88585,1,0
312,208,88695,1,0
272,168,88805,1,8
272,168,88916,1,8
232,208,89025,1,0
232,208,89136,2,0,B|136:208,1,96
96,168,89467,1,8
336,48,90349,5,0
432,48,90570,2,0,B|480:48,2,48,8|8|0
384,136,91011,1,8
288,136,91232,2,0,B|224:136,4,48,0|0|0|0|8
336,224,91894,1,0
352,256,92004,1,0
368,288,92114,6,0,B|344:336|288:344,1,96,0|8
261,328,92445,1,8
232,312,92555,2,0,B|176:312|144:264,1,96,0|8
272,312,92997,1,0
240,344,93107,1,0
200,360,93217,1,0
152,368,93327,1,0
104,352,93438,1,8
56,232,93658,1,0
40,200,93769,1,0
24,168,93879,6,0,B|56:128|120:136,1,96,0|8
160,144,94210,1,8
208,160,94320,2,0,B|256:176|304:160,2,96,0|8|0
176,136,94872,1,0
160,96,94982,1,0
176,56,95092,1,0
208,32,95202,2,0,B|256:16|304:32,1,96,8|0
336,48,95533,1,0
368,80,95644,5,0
384,176,95864,1,0
352,280,96085,1,0
248,328,96305,1,0
128,304,96526,1,0
72,184,96747,1,0
136,56,96967,1,0
280,16,97188,1,0
424,80,97408,6,0,B|424:224,1,144
424,224,97849,1,8
496,304,98070,1,0
464,328,98180,1,0
424,336,98291,1,0
384,328,98401,1,0
352,304,98511,1,8
240,304,98732,2,0,B|184:304,1,48,0|8
80,304,99063,1,8
80,304,99173,6,0,B|16:304,2,48,0|0|8
136,208,99614,1,0
152,176,99724,1,8
208,80,99945,2,0,B|256:80,2,48
192,48,100276,1,8
336,48,100497,1,0
352,80,100607,1,8
368,112,100717,1,8
464,160,100938,6,0,B|456:208|400:240|344:216,1,144
351,218,101379,1,8
392,328,101599,1,0
352,328,101710,1,0
312,320,101820,1,0
280,296,101930,1,0
256,264,102041,1,8
176,328,102261,2,0,B|112:328,1,48,0|8
24,328,102592,1,8
24,328,102702,5,0
24,288,102813,1,0
24,248,102923,1,8
128,248,103144,1,0
128,200,103254,1,0
128,152,103364,1,8
240,152,103585,1,0
240,96,103695,1,8
240,40,103805,1,8
360,40,104026,1,8
360,40,104136,1,8
360,40,104247,1,8
360,160,104467,6,0,B|360:304,1,144
360,304,104908,1,8
448,176,105129,1,0
408,144,105239,1,0
360,128,105349,1,0
312,144,105460,1,0
272,176,105570,1,8
208,312,105791,2,0,B|176:376,1,48,0|8
112,192,106122,1,8
112,192,106232,6,0,B|80:256,2,48,0|0|8
176,56,106673,1,0
216,56,106783,2,0,B|320:56,1,96,8|0
352,56,107114,2,0,B|416:56,2,48,0|0|8
504,120,107555,2,0,B|456:120,2,48,0|8|8
352,184,107997,5,0
472,288,108217,1,0
320,336,108438,1,8
200,232,108658,1,8
352,184,108879,2,0,B|336:256,1,48
352,184,109099,2,0,B|406:233,1,48
352,184,109320,2,0,B|422:161,1,48,8|8
352,184,109541,2,0,B|368:112,1,48,8|8
312,176,109761,5,0
272,168,109872,1,0
232,160,109982,1,8
256,280,110202,1,0
225,253,110313,1,0
194,226,110423,1,8
152,344,110644,1,0
138,305,110755,1,8
125,266,110865,1,8
32,336,111085,1,8
39,295,111196,1,8
47,254,111306,1,8
24,104,111526,5,0
24,104,111636,2,0,B|64:80|120:80,1,96,0|8
124,88,111967,1,0
124,88,112077,2,0,B|185:80|225:120,1,96,0|8
222,118,112408,1,0
222,118,112519,2,0,B|264:151|272:207,1,96,0|8
279,206,112849,1,0
279,206,112960,2,0,B|289:263|249:303,1,96,0|8
214,314,113291,5,0
214,314,113401,2,0,B|256:282|312:298,1,96,8|8
346,307,113732,1,0
346,307,113842,2,0,B|401:317|441:285,1,96,8|8
444,242,114173,1,0
444,242,114283,2,0,B|482:205|480:155,1,96,8|8
455,116,114614,1,0
455,116,114724,2,0,B|464:64|432:16,1,96,8|8
408,40,115055,5,0
376,56,115166,1,0
328,136,115386,1,8
304,160,115497,1,0
280,184,115607,1,0
240,272,115827,1,8
224,304,115938,1,0
208,336,116048,1,0
96,352,116269,1,8
56,368,116379,1,0
16,352,116489,1,8
16,312,116599,1,8
128,216,116820,5,4
280,320,117041,1,4
384,168,117261,1,4
232,64,117482,1,4
