osu file format v12

[General]
AudioFilename: Hakkenden Touhou Hakken Ibun Ending Song [HD].mp3
AudioLeadIn: 0
PreviewTime: 46067
Countdown: 0
SampleSet: Soft
StackLeniency: 0.7
Mode: 0
LetterboxInBreaks: 0
WidescreenStoryboard: 0

[Editor]
DistanceSpacing: 0.95
BeatDivisor: 4
GridSize: 4

[Metadata]
Title:String of pain (TV Size)
TitleUnicode:String of pain (TV Size)
Artist:Kakihara Tetsuya
ArtistUnicode:柿原徹也
Creator:HabiHolic
Version:Insane
Source:Hakkenden: Touhou Hakken Ibun
Tags:Niva narangd -iCo- Ending Bandai Visual Studio Deen
BeatmapID:233883
BeatmapSetID:85000

[Difficulty]
HPDrainRate:6
CircleSize:4
OverallDifficulty:7
ApproachRate:9
SliderMultiplier:1.8
SliderTickRate:2

[Events]
//Background and Video events
Video,0,"Hakkenden Touhou Hakken Ibun Ending Song [HD].avi"
0,0,"BG.jpg",0,0
//Break Periods
//Storyboard Layer 0 (Background)
//Storyboard Layer 1 (Fail)
//Storyboard Layer 2 (Pass)
//Storyboard Layer 3 (Foreground)
//Storyboard Sound Samples
//Background Colour Transformations
3,100,163,162,255

[TimingPoints]
210,342.857142857143,4,1,0,80,1,0
3124,-100,4,2,1,80,0,0
13924,-100,4,2,0,60,0,0
14010,-100,4,2,1,60,0,0
24895,-100,4,2,0,60,0,0
24981,-100,4,2,1,60,0,0
35695,-100,4,2,0,60,0,0
35781,-100,4,2,1,60,0,0
37067,-100,4,2,0,60,0,0
37152,-100,4,2,1,60,0,0
39810,-100,4,2,0,60,0,0
39895,-100,4,2,1,60,0,0
41181,-100,4,2,0,60,0,0
41267,-100,4,2,1,60,0,0
42552,-100,4,2,0,60,0,0
42638,-100,4,2,1,60,0,0
46838,-100,4,2,0,80,0,1
46924,-100,4,2,1,80,0,1
57810,-100,4,2,0,80,0,1
57895,-100,4,2,1,80,0,1
68781,-100,4,2,0,80,0,1
68867,-100,4,2,1,80,0,1
71524,-100,4,2,0,80,0,0
71607,-100,4,2,1,80,0,0
82495,-100,4,2,0,5,0,0

[Colours]
Combo1 : 167,240,15
Combo2 : 128,64,64
Combo3 : 50,83,237
Combo4 : 170,167,30

[HitObjects]
268,64,2952,1,4,0:0:0:0:
360,36,3124,1,0,0:0:0:0:
452,56,3295,2,0,P|460:100|452:144,1,90,8|0,0:0|0:0,0:0:0:0:
272,248,3638,2,0,P|308:216|358:202,1,90,0|0,0:0|0:0,0:0:0:0:
440,244,3981,1,8,0:0:0:0:
208,316,4152,6,0,P|168:336|120:336,1,90,0|0,0:0|0:0,0:0:0:0:
208,172,4495,2,0,P|252:156|300:160,1,90,0|8,0:0|0:0,0:0:0:0:
384,164,4838,1,0,0:0:0:0:
128,240,5009,2,0,P|100:200|92:160,1,90,0|0,0:0|0:0,0:0:0:0:
188,20,5352,2,0,P|180:64|156:104,1,90,8|0,0:0|0:0,0:0:0:0:
220,268,5695,6,0,P|288:316|384:308,1,180,0|8,0:0|0:0,0:0:0:0:
440,236,6209,1,0,0:0:0:0:
408,144,6381,2,0,P|400:100|408:52,2,90,0|0|8,0:0|0:0|0:0,0:0:0:0:
304,204,6895,2,0,P|216:224|164:304,1,180,0|0,0:0|0:0,0:0:0:0:
72,144,7409,2,0,P|160:124|209:54,1,180,8|0,0:0|0:0,0:0:0:0:
296,116,7924,1,0,0:0:0:0:
388,56,8095,5,8,0:0:0:0:
409,79,8181,1,0,0:0:0:0:
422,107,8267,1,0,0:0:0:0:
427,138,8352,1,0,0:0:0:0:
416,172,8438,2,0,P|392:212|352:240,1,90,0|0,0:0|0:0,0:0:0:0:
212,276,8781,6,0,P|248:304|300:308,1,90,8|0,0:0|0:0,0:0:0:0:
236,188,9124,2,0,P|192:176|148:184,1,90,0|0,0:0|0:0,0:0:0:0:
80,252,9467,1,8,0:0:0:0:
28,168,9638,2,0,P|48:88|136:60,1,180,0|0,0:0|0:0,0:0:0:0:
232,32,10152,2,0,P|276:48|328:36,1,90,8|0,0:0|0:0,0:0:0:0:
464,152,10495,2,0,P|416:144|364:148,1,90,0|0,0:0|0:0,0:0:0:0:
424,264,10838,1,8,0:0:0:0:
424,264,11010,1,0,0:0:0:0:
308,240,11181,6,0,P|284:200|248:168,1,90,0|0,0:0|0:0,0:0:0:0:
220,184,11438,1,0,0:0:0:0:
180,192,11524,2,0,P|148:160|128:116,1,90,8|0,0:0|0:0,0:0:0:0:
128,280,11867,2,0,P|104:320|68:348,2,90,0|0|8,0:0|0:0|0:0,0:0:0:0:
220,288,12381,2,0,P|288:328|388:296,1,180,0|0,0:0|0:0,0:0:0:0:
456,240,12895,2,0,P|476:284|480:336,1,90,8|0,0:0|0:0,0:0:0:0:
372,184,13238,2,0,P|328:172|284:172,1,90
192,208,13581,1,8,0:0:0:0:
108,112,13752,1,0,0:0:0:0:
224,80,13924,6,0,P|264:60|312:60,1,90,4|0,0:0|0:0,0:0:0:0:
408,48,14267,1,8,0:0:0:0:
460,128,14438,1,0,0:0:0:0:
464,224,14610,2,0,P|424:316|352:356,1,180,0|8,0:0|0:0,0:0:0:0:
164,352,15124,2,0,P|98:314|58:222,1,180,0|0,0:0|0:0,0:0:0:0:
80,140,15638,1,8,0:0:0:0:
144,64,15810,1,0,0:0:0:0:
144,64,15895,1,0,0:0:0:0:
144,64,15981,2,0,P|192:76|232:68,1,90,0|0,0:0|0:0,0:0:0:0:
407,76,16324,2,0,P|359:64|320:72,1,90,8|0,0:0|0:0,0:0:0:0:
321,71,16667,1,0,0:0:0:0:
428,228,17010,6,0,P|432:272|416:316,1,90,8|0,0:0|0:0,0:0:0:0:
388,324,17267,1,0,0:0:0:0:
352,328,17352,2,0,P|352:228|384:152,1,180,0|8,0:0|0:0,0:0:0:0:
220,116,17867,2,0,P|220:216|188:292,1,180,0|0,0:0|0:0,0:0:0:0:
96,280,18381,1,8,0:0:0:0:
36,208,18552,2,0,P|68:168|104:152,1,90,0|0,0:0|0:0,0:0:0:0:
226,296,18895,2,0,P|194:336|160:352,2,90,0|8|0,0:0|0:0|0:0,0:0:0:0:
164,220,19410,6,0,P|248:200|318:263,1,180,0|8,0:0|0:0,0:0:0:0:
392,192,19924,1,0,0:0:0:0:
392,192,20010,1,0,0:0:0:0:
392,192,20095,1,0,0:0:0:0:
328,124,20267,2,0,P|316:76|324:36,1,90,0|8,0:0|0:0,0:0:0:0:
476,224,20610,2,0,P|428:292|332:308,1,180,0|0,0:0|0:0,0:0:0:0:
244,276,21124,1,8,0:0:0:0:
144,264,21295,5,0,0:0:0:0:
114,297,21381,1,0,0:0:0:0:
84,331,21467,1,0,0:0:0:0:
104,176,21638,2,0,P|96:128|100:88,1,90,0|8,0:0|0:0,0:0:0:0:
216,32,21981,2,0,P|248:132|232:212,1,180,0|0,0:0|0:0,0:0:0:0:
264,320,22495,6,0,P|304:332|356:316,1,90,8|0,0:0|0:0,0:0:0:0:
480,192,22838,2,0,P|440:212|420:256,1,90,0|0,0:0|0:0,0:0:0:0:
468,332,23181,1,8,0:0:0:0:
384,116,23352,1,0,0:0:0:0:
280,104,23524,6,0,P|252:68|252:20,1,90,0|0,0:0|0:0,0:0:0:0:
364,144,23867,2,0,P|344:188|304:216,1,90,8|0,0:0|0:0,0:0:0:0:
224,260,24210,2,0,P|140:284|72:352,1,180,0|8,0:0|0:0,0:0:0:0:
28,236,24724,2,0,P|24:184|28:136,1,90,0|4,0:0|0:0,0:0:0:0:
96,56,25238,5,0,0:0:0:0:
200,32,25410,1,0,0:0:0:0:
276,108,25581,2,0,P|368:120|460:88,1,180,0|8,0:0|0:0,0:0:0:0:
408,216,26095,2,0,P|316:204|234:229,1,180,0|0,0:0|0:0,0:0:0:0:
176,292,26610,1,8,0:0:0:0:
88,268,26781,2,0,L|60:356,1,90,0|0,0:0|0:0,0:0:0:0:
112,180,27124,1,0,0:0:0:0:
188,128,27295,2,0,L|212:36,1,90,8|0,0:0|0:0,0:0:0:0:
112,180,27638,1,0,0:0:0:0:
340,256,27981,6,0,P|384:268|432:264,1,90,8|0,0:0|0:0,0:0:0:0:
456,244,28238,1,0,0:0:0:0:
456,200,28324,2,0,P|368:168|260:168,1,180,0|8,0:0|0:0,0:0:0:0:
200,132,28838,2,0,P|176:88|144:64,1,90,0|0,0:0|0:0,0:0:0:0:
144,204,29181,2,0,P|176:244|212:268,1,90,0|8,0:0|0:0,0:0:0:0:
296,296,29524,2,0,P|384:256|472:256,2,180,0|0|0,0:0|0:0|0:0,0:0:0:0:
160,324,30381,6,0,P|120:336|72:336,1,90
44,256,30724,1,8,0:0:0:0:
220,252,30895,2,0,P|264:244|312:252,1,90
356,328,31238,1,0,0:0:0:0:
444,308,31410,1,8,0:0:0:0:
456,216,31581,2,0,P|472:128|452:40,1,180,0|0,0:0|0:0,0:0:0:0:
368,168,32095,1,8,0:0:0:0:
308,240,32267,2,0,P|256:252|220:252,1,90,0|0,0:0|0:0,0:0:0:0:
44,232,32610,2,0,P|92:224|140:228,1,90,0|8,0:0|0:0,0:0:0:0:
160,320,32952,5,0,0:0:0:0:
160,320,33038,1,0,0:0:0:0:
160,320,33124,2,0,P|204:332|248:332,1,90,0|0,0:0|0:0,0:0:0:0:
336,308,33467,1,8,0:0:0:0:
416,252,33638,1,0,0:0:0:0:
468,172,33810,2,0,L|476:80,1,90,0|0,0:0|0:0,0:0:0:0:
380,52,34152,2,0,L|384:148,1,90,8|0,0:0|0:0,0:0:0:0:
280,228,34495,6,0,P|236:240|188:236,1,90
172,148,34838,1,8,0:0:0:0:
200,320,35010,1,0,0:0:0:0:
296,348,35181,2,0,P|340:348|392:336,1,90,0|0,0:0|0:0,0:0:0:0:
448,272,35524,1,8,0:0:0:0:
340,52,35695,6,0,P|400:96|412:196,1,180,4|0,0:0|0:0,0:0:0:0:
384,224,36124,1,0,0:0:0:0:
344,232,36210,1,8,0:0:0:0:
292,312,36381,5,0,0:0:0:0:
204,284,36552,2,0,P|200:232|216:192,1,90,0|0,0:0|0:0,0:0:0:0:
268,128,36895,1,8,0:0:0:0:
380,328,37067,2,0,P|432:268|452:168,1,180,4|0,0:0|0:0,0:0:0:0:
452,174,37581,1,8,0:0:0:0:
400,92,37752,6,0,P|444:84|488:92,1,90,0|0,0:0|0:0,0:0:0:0:
320,144,38095,2,0,P|268:152|228:148,1,90,0|8,0:0|0:0,0:0:0:0:
176,80,38438,1,0,0:0:0:0:
176,80,38524,1,0,0:0:0:0:
176,80,38610,2,0,P|160:128|136:160,1,90,0|0,0:0|0:0,0:0:0:0:
224,264,38952,2,0,P|128:260|60:200,1,180,8|0,0:0|0:0,0:0:0:0:
65,208,39467,1,0,0:0:0:0:
108,336,39638,1,8,0:0:0:0:
212,352,39809,6,0,P|304:360|396:348,1,180,4|0,0:0|0:0,0:0:0:0:
456,260,40324,2,0,P|468:216|464:172,1,90,8|0,0:0|0:0,0:0:0:0:
384,64,40667,2,0,P|376:108|388:160,1,90,0|0,0:0|0:0,0:0:0:0:
360,252,41010,1,8,0:0:0:0:
335,271,41095,1,0,0:0:0:0:
300,280,41181,2,0,P|280:236|280:196,1,90,4|0,0:0|0:0,0:0:0:0:
224,124,41524,5,0,0:0:0:0:
392,160,41695,2,0,P|348:168|304:160,1,90,8|0,0:0|0:0,0:0:0:0:
224,124,42038,1,0,0:0:0:0:
348,236,42209,2,0,P|352:280|340:336,1,90,0|8,0:0|0:0,0:0:0:0:
260,352,42552,2,0,P|160:360|72:352,1,180,4|0,0:0|0:0,0:0:0:0:
56,272,43067,1,8,0:0:0:0:
60,188,43238,1,0,0:0:0:0:
60,188,43324,1,0,0:0:0:0:
60,188,43409,2,0,P|64:144|56:96,1,90,0|0,0:0|0:0,0:0:0:0:
128,48,43752,1,8,0:0:0:0:
216,96,43924,6,0,P|304:120|376:68,1,180,4|0,0:0|0:0,0:0:0:0:
472,92,44438,2,0,P|484:136|480:184,1,90,8|0,0:0|0:0,0:0:0:0:
392,208,44781,1,0,0:0:0:0:
312,352,44952,2,0,P|300:308|304:260,1,90,0|8,0:0|0:0,0:0:0:0:
360,120,45295,2,0,P|276:80|184:88,1,180,4|0,0:0|0:0,0:0:0:0:
100,40,45810,1,0,0:0:0:0:
88,140,46152,5,0,0:0:0:0:
88,140,46495,1,0,0:0:0:0:
88,140,46838,6,0,P|100:180|140:220,1,90,4|0,0:0|0:0,0:0:0:0:
216,176,47181,1,8,0:0:0:0:
304,128,47352,1,0,0:0:0:0:
80,316,47524,2,0,P|129:323|169:307,1,90,0|0,0:0|0:0,0:0:0:0:
244,272,47867,1,8,0:0:0:0:
244,272,48038,1,0,0:0:0:0:
168,156,48209,6,0,P|232:100|324:100,1,180,0|8,0:0|0:0,0:0:0:0:
356,180,48724,2,0,P|292:236|200:236,1,180,0|0,0:0|0:0,0:0:0:0:
200,236,49238,1,8,0:0:0:0:
144,312,49409,2,0,L|44:320,1,90,0|0,0:0|0:0,0:0:0:0:
228,344,49752,1,0,0:0:0:0:
298,290,49924,2,0,L|388:280,1,90,8|0,0:0|0:0,0:0:0:0:
228,344,50267,1,0,0:0:0:0:
144,240,50438,6,0,L|48:248,1,90,0|8,0:0|0:0,0:0:0:0:
212,176,50781,1,0,0:0:0:0:
298,158,50952,2,0,L|388:152,1,90
212,176,51295,1,8,0:0:0:0:
288,64,51467,1,0,0:0:0:0:
384,56,51638,6,0,P|432:64|464:96,1,90,0|0,0:0|0:0,0:0:0:0:
472,176,51981,2,0,P|444:212|400:232,1,90,8|0,0:0|0:0,0:0:0:0:
340,288,52324,1,0,0:0:0:0:
340,288,52409,1,0,0:0:0:0:
340,288,52495,2,0,P|284:296|248:312,1,90,0|8,0:0|0:0,0:0:0:0:
132,192,52838,2,0,P|176:208|208:244,1,90,0|0,0:0|0:0,0:0:0:0:
80,320,53181,2,0,P|120:312|168:316,1,90,0|8,0:0|0:0,0:0:0:0:
32,224,53524,2,0,P|40:128|96:56,1,180,0|0,0:0|0:0,0:0:0:0:
184,68,54038,5,8,0:0:0:0:
272,28,54209,1,0,0:0:0:0:
360,60,54381,2,0,P|404:64|448:56,2,90,0|0|8,0:0|0:0|0:0,0:0:0:0:
344,156,54895,2,8,P|368:248|440:288,1,180,0|0,0:0|0:0,0:0:0:0:
245,251,55409,2,0,P|221:159|152:120,1,180,8|0,0:0|0:0,0:0:0:0:
124,136,55838,1,0,0:0:0:0:
96,160,55924,1,0,0:0:0:0:
52,252,56095,6,0,P|88:280|130:291,1,90,8|0,0:0|0:0,0:0:0:0:
224,336,56438,2,0,P|272:348|312:346,1,90,0|0,0:0|0:0,0:0:0:0:
404,312,56781,2,0,P|448:292|478:263,1,90,8|0,0:0|0:0,0:0:0:0:
476,176,57124,1,0,0:0:0:0:
392,136,57295,1,0,0:0:0:0:
240,144,57467,1,8,0:0:0:0:
261,160,57552,1,0,0:0:0:0:
282,177,57638,1,0,0:0:0:0:
304,193,57724,1,0,0:0:0:0:
328,208,57809,6,0,P|320:252|328:296,1,90,4|0,0:0|0:0,0:0:0:0:
416,320,58152,2,0,P|456:300|500:295,1,90,8|0,0:0|0:0,0:0:0:0:
252,352,58495,2,0,P|156:360|68:348,1,180,0|8,0:0|0:0,0:0:0:0:
72,260,59009,1,0,0:0:0:0:
88,82,59181,2,0,L|100:172,1,90
72,260,59524,1,8,0:0:0:0:
160,284,59695,2,0,B|232:284|232:284|248:272|248:272|336:272,1,180,0|0,0:0|0:0,0:0:0:0:
412,312,60209,1,8,0:0:0:0:
488,224,60381,6,0,P|436:216|396:228,1,90,0|0,0:0|0:0,0:0:0:0:
320,292,60724,1,0,0:0:0:0:
236,348,60895,2,0,B|204:292|240:228|240:228|196:188,2,180,8|0|8,0:0|0:0|0:0,0:0:0:0:
296,176,61752,1,0,0:0:0:0:
296,176,61924,2,0,L|216:104,1,90
364,236,62267,1,8,0:0:0:0:
452,216,62438,2,0,P|456:264|448:304,1,90,0|0,0:0|0:0,0:0:0:0:
368,344,62781,1,0,0:0:0:0:
280,336,62952,2,0,P|236:328|192:332,1,90,8|0,0:0|0:0,0:0:0:0:
108,276,63295,6,0,P|144:188|236:160,1,180,4|8,0:0|0:0,0:0:0:0:
296,200,63809,1,0,0:0:0:0:
384,160,63981,1,0,0:0:0:0:
476,152,64152,2,0,P|480:108|468:64,1,90,0|8,0:0|0:0,0:0:0:0:
440,244,64495,6,0,P|348:272|308:352,1,180,0|0,0:0|0:0,0:0:0:0:
220,360,65010,2,0,L|241:272,1,90
216,84,65352,2,0,L|192:184,1,90
188,200,65609,1,0,0:0:0:0:
180,232,65695,1,8,0:0:0:0:
92,244,65867,6,0,P|68:200|64:160,2,90,0|0|0,0:0|0:0|0:0,0:0:0:0:
240,300,66381,2,0,P|288:292|328:296,1,90,8|0,0:0|0:0,0:0:0:0:
404,252,66724,2,0,P|384:164|416:76,1,180,0|8,0:0|0:0,0:0:0:0:
488,128,67238,1,0,0:0:0:0:
344,44,67409,2,0,P|256:72|168:52,1,180,0|8,0:0|0:0,0:0:0:0:
60,48,67924,2,0,P|54:89|70:133,1,90,0|0,0:0|0:0,0:0:0:0:
168,172,68267,5,0,0:0:0:0:
198,177,68352,1,0,0:0:0:0:
228,187,68438,1,8,0:0:0:0:
256,202,68524,1,0,0:0:0:0:
282,220,68609,1,0,0:0:0:0:
305,241,68695,1,0,0:0:0:0:
320,268,68781,2,0,P|328:312|312:364,1,90,4|0,0:0|0:0,0:0:0:0:
232,332,69124,5,8,0:0:0:0:
232,332,69209,1,0,0:0:0:0:
232,332,69295,2,0,L|128:344,1,90,0|0,0:0|0:0,0:0:0:0:
24,272,69638,2,0,L|120:260,2,90,0|8|4,0:0|0:0|0:0,0:0:0:0:
272,116,71524,6,0,P|224:152|96:152,1,180,4|8,0:0|0:0,0:0:0:0:
32,200,72038,1,0,0:0:0:0:
32,200,72124,1,0,0:0:0:0:
32,200,72209,2,0,P|24:244|32:288,1,90,0|0,0:0|0:0,0:0:0:0:
124,300,72552,1,8,0:0:0:0:
308,316,72724,2,0,L|208:328,1,90,0|0,0:0|0:0,0:0:0:0:
124,300,73067,1,0,0:0:0:0:
168,208,73238,6,0,P|212:196|264:204,1,90,8|0,0:0|0:0,0:0:0:0:
344,164,73581,1,0,0:0:0:0:
428,124,73752,1,0,0:0:0:0:
464,208,73924,2,0,P|472:252|460:300,1,90,8|0,0:0|0:0,0:0:0:0:
384,340,74267,2,0,P|336:348|288:340,1,90
216,284,74609,2,0,P|168:204|92:168,1,180,8|0,0:0|0:0,0:0:0:0:
80,132,75038,1,0,0:0:0:0:
68,96,75124,2,0,L|164:132,1,90,0|8,0:0|0:0,0:0:0:0:
328,124,75467,6,0,L|240:92,2,90,0|0|0,0:0|0:0|0:0,0:0:0:0:
420,108,75981,1,8,0:0:0:0:
480,176,76152,1,0,0:0:0:0:
456,268,76324,1,0,0:0:0:0:
450,289,76409,1,0,0:0:0:0:
440,309,76495,1,0,0:0:0:0:
426,327,76581,1,0,0:0:0:0:
408,341,76667,1,0,0:0:0:0:
388,350,76752,1,0,0:0:0:0:
366,355,76838,1,0,0:0:0:0:
344,355,76924,1,0,0:0:0:0:
324,352,77009,6,0,L|232:352,1,90,4|0,0:0|0:0,0:0:0:0:
164,300,77352,2,0,P|120:212|128:132,1,180,8|0,0:0|0:0,0:0:0:0:
108,104,77781,1,0,0:0:0:0:
84,80,77867,2,0,L|64:180,1,90,0|8,0:0|0:0,0:0:0:0:
184,56,78209,2,0,P|228:68|272:68,1,90,0|0,0:0|0:0,0:0:0:0:
360,40,78552,1,0,0:0:0:0:
452,68,78724,2,0,P|464:112|464:160,1,90,8|0,0:0|0:0,0:0:0:0:
412,232,79067,5,0,0:0:0:0:
432,320,79238,1,0,0:0:0:0:
340,292,79409,2,0,P|324:248|324:200,1,90,8|0,0:0|0:0,0:0:0:0:
200,64,79752,1,0,0:0:0:0:
200,64,79838,1,0,0:0:0:0:
200,64,79924,2,0,P|220:108|220:160,1,90,0|8,0:0|0:0,0:0:0:0:
148,196,80267,1,0,0:0:0:0:
68,248,80438,2,0,P|116:332|192:356,1,180,0|8,0:0|0:0,0:0:0:0:
292,328,80952,6,0,P|336:332|384:324,1,90,0|0,0:0|0:0,0:0:0:0:
316,240,81295,2,0,P|272:232|224:244,2,90,0|8|0,0:0|0:0|0:0,0:0:0:0:
396,208,81809,1,0,0:0:0:0:
456,144,81981,1,0,0:0:0:0:
444,56,82152,1,8,0:0:0:0:
364,8,82324,1,0,0:0:0:0:
256,192,82495,12,2,87810,0:0:0:0:
