osu file format v14

[General]
AudioFilename: 01 .mp3
AudioLeadIn: 0
PreviewTime: 35655
Countdown: 0
SampleSet: Normal
StackLeniency: 0.7
Mode: 0
LetterboxInBreaks: 0
WidescreenStoryboard: 0

[Editor]
Bookmarks: 20579,90899
DistanceSpacing: 1.3
BeatDivisor: 4
GridSize: 4
TimelineZoom: 1

[Metadata]
Title:Dandigi
TitleUnicode:ダンディギ
Artist:Kakihara Tetsuya
ArtistUnicode:柿原徹也
Creator:nadapan
Version:Normal
Source:
Tags:Dandigi Dan ダンディギ・ダン 佐伯youthK Saeki youthK 宮崎誠 Miyazaki Makoto Kiramune
BeatmapID:509186
BeatmapSetID:215179

[Difficulty]
HPDrainRate:4
CircleSize:3
OverallDifficulty:4
ApproachRate:4
SliderMultiplier:1.1
SliderTickRate:1

[Events]
//Background and Video events
0,0,"tumblr_na0577u3S91qc1lo0o1_500.jpg",0,0
//Break Periods
2,83655,89535
2,154895,160575
2,193095,199455
//Storyboard Layer 0 (Background)
//Storyboard Layer 1 (Fail)
//Storyboard Layer 2 (Pass)
//Storyboard Layer 3 (Foreground)
//Storyboard Sound Samples

[TimingPoints]
1095,480,4,1,0,59,1,0
20295,-100,4,2,0,59,0,0
52935,-100,4,1,0,59,0,1
64455,-100,4,1,0,59,0,0
68295,-100,4,1,0,59,0,1
81735,-100,4,1,0,59,0,0
123975,-100,4,1,0,59,0,1
135495,-100,4,1,0,59,0,0
139335,-100,4,1,0,59,0,1
152775,-100,4,1,0,59,0,0
200775,-100,4,2,0,59,0,0
214215,-100,4,1,0,59,0,1
225735,-100,4,1,0,59,0,0
229575,-100,4,1,0,59,0,1
243015,-100,4,1,0,59,0,0
260775,-100,4,1,0,50,0,0
262215,-100,4,1,0,40,0,0
263655,-100,4,1,0,30,0,0
265095,-100,4,1,0,20,0,0
266535,-100,4,1,0,10,0,0
267975,-100,4,1,0,5,0,0

[Colours]
Combo1 : 27,104,248
Combo2 : 255,119,187
Combo3 : 17,213,96
Combo4 : 240,0,0
Combo5 : 0,240,240
Combo6 : 175,89,204

[HitObjects]
127,91,1095,5,0,0:0:0:0:
340,284,2055,1,0,0:0:0:0:
56,312,3015,6,0,L|6:239,2,82.5
128,324,3975,1,0,0:0:0:0:
400,232,4935,6,0,P|432:232|476:208,1,82.5
408,128,5655,1,0,0:0:0:0:
408,128,5895,1,0,0:0:0:0:
140,44,6615,1,0,0:0:0:0:
140,44,6855,1,0,0:0:0:0:
152,188,7335,2,0,P|167:253|195:285,1,110
292,180,8295,2,0,L|362:202,1,55
408,164,8775,6,0,P|400:92|364:68,1,110
304,56,9495,1,0,0:0:0:0:
232,52,9735,2,0,L|109:52,1,110
120,200,10695,2,0,L|244:200,1,110
224,344,11655,2,0,L|95:344,1,110
96,200,12615,6,0,L|153:121,2,82.5
92,272,13575,1,0,0:0:0:0:
296,212,14295,1,0,0:0:0:0:
296,212,14535,1,0,0:0:0:0:
204,320,15015,2,0,P|167:338|87:333,1,110
144,200,15975,2,0,L|89:240,1,55
48,184,16455,5,0,0:0:0:0:
132,68,16935,1,0,0:0:0:0:
200,40,17175,1,0,0:0:0:0:
200,40,17415,2,0,P|264:48|316:84,1,110
416,156,18375,5,0,0:0:0:0:
288,220,18855,2,0,L|176:276,1,110
52,308,19815,1,4,2:0:0:0:
140,196,20295,6,0,P|144:124|175:83,1,110
284,172,21255,2,0,P|290:226|269:276,1,110
216,320,21975,1,0,3:0:0:0:
148,336,22215,2,0,P|94:345|44:324,1,110
24,256,22935,1,0,3:0:0:0:
60,192,23175,2,0,L|119:205,2,55,0|0|0,0:0|2:0|0:0,0:0:0:0:
76,40,24135,6,0,L|16:84,2,55,0|0|0,0:0|2:0|0:0,0:0:0:0:
144,64,24855,1,0,3:0:0:0:
212,92,25095,2,0,P|264:96|320:76,1,110
364,212,26055,6,0,P|310:202|261:224,1,110
208,272,26775,1,0,3:0:0:0:
160,324,27015,2,0,P|104:336|52:328,1,110
104,196,27975,5,4,2:0:0:0:
188,80,28455,1,0,0:0:0:0:
304,160,28935,2,0,P|248:171|197:216,1,110
308,304,29895,6,0,P|258:339|202:341,1,110
152,300,30615,1,2,0:0:0:0:
112,240,30855,2,0,P|84:190|95:140,1,110
144,88,31575,1,2,0:0:0:0:
212,64,31815,2,0,L|188:10,2,55,0|0|0,0:0|2:0|0:0,0:0:0:0:
356,79,32775,2,0,B|416:189,1,110
404,248,33495,1,2,3:0:0:0:
356,300,33735,5,4,2:0:0:0:
272,184,34215,1,4,2:0:0:0:
200,308,34695,1,4,2:0:0:0:
128,32,35655,6,0,P|192:20|280:68,1,165,0|0,0:0|3:0,0:0:0:0:
292,136,36615,2,0,P|346:165|405:158,1,110,0|0,0:0|3:0,0:0:0:0:
432,220,37335,1,0,0:0:0:0:
384,272,37575,6,0,P|340:248|276:248,1,110
232,192,38295,1,0,0:0:0:0:
176,152,38535,1,0,0:0:0:0:
172,296,39015,1,0,0:0:0:0:
64,200,39495,6,0,P|28:268|28:304,2,110,0|0|0,0:0|3:0|0:0,0:0:0:0:
192,264,40935,2,0,P|228:196|228:160,1,110,0|0,0:0|3:0,0:0:0:0:
212,92,41655,1,0,3:0:0:0:
284,84,41895,2,0,P|346:93|391:113,2,110,0|0|0,0:0|0:0|0:0,0:0:0:0:
140,80,43335,6,0,P|84:120|64:164,1,110
36,220,44055,1,0,3:0:0:0:
72,280,44295,2,0,P|112:336|156:356,1,110
208,224,45255,6,0,P|267:214|323:237,1,110
456,224,46215,2,0,P|468:180|448:108,1,110
316,80,47175,2,0,P|259:53|202:67,1,110
176,120,47895,1,0,3:0:0:0:
136,180,48135,2,0,P|68:172|32:148,1,110
124,40,49095,5,4,2:0:0:0:
252,104,49575,2,0,P|312:188|300:308,1,220
180,228,51015,1,4,2:0:0:0:
288,312,52935,6,0,P|324:300|360:280,1,55
380,232,53415,1,8,0:0:0:0:
344,92,53895,2,0,L|392:44,2,55,0|0|8,0:0|2:0|0:0,0:0:0:0:
280,128,54615,1,0,3:0:0:0:
208,116,54855,6,0,L|140:96,1,55,0|0,0:0|3:0,0:0:0:0:
104,148,55335,1,8,0:0:0:0:
88,288,55815,2,0,L|32:336,2,55,0|0|8,0:0|3:0|0:0,0:0:0:0:
140,240,56535,1,0,0:0:0:0:
208,212,56775,6,0,L|316:176,1,110,0|8,0:0|0:0,0:0:0:0:
344,240,57495,2,0,L|520:184,1,165,0|8,0:0|0:0,0:0:0:0:
484,120,58455,1,0,0:0:0:0:
424,84,58695,6,0,L|408:28,2,55,0|0|8,0:0|3:0|0:0,0:0:0:0:
376,136,59415,1,0,0:0:0:0:
312,168,59655,2,0,P|292:232|308:292,1,110,0|8,0:0|0:0,0:0:0:0:
260,332,60375,1,0,0:0:0:0:
188,332,60615,6,0,P|130:335|68:312,1,110,4|8,2:0|0:0,0:0:0:0:
148,204,61575,1,0,0:0:0:0:
148,132,61815,2,0,L|148:68,2,55,0|8|0,0:0|0:0|0:0,0:0:0:0:
216,148,62535,5,0,0:0:0:0:
280,116,62775,1,0,0:0:0:0:
344,88,63015,2,0,L|368:32,2,55,8|0|0,0:0|0:0|0:0,0:0:0:0:
348,160,63735,2,0,L|364:232,1,55,0|8,0:0|0:0,0:0:0:0:
260,316,64455,5,0,0:0:0:0:
164,208,64935,1,0,0:0:0:0:
68,104,65415,2,0,L|24:56,2,55,0|0|0,0:0|0:0|0:0,0:0:0:0:
140,96,66135,1,0,0:0:0:0:
272,148,66615,2,0,L|332:167,2,55,0|0|0,0:0|0:0|0:0,0:0:0:0:
224,200,67335,1,0,0:0:0:0:
344,276,67815,1,4,2:0:0:0:
208,324,68295,6,0,L|136:360,1,55
112,292,68775,1,8,0:0:0:0:
96,220,69015,2,0,P|104:168|132:104,1,110
180,72,69735,1,8,0:0:0:0:
252,64,69975,1,0,2:0:0:0:
324,76,70215,6,0,P|368:92|380:112,1,55
376,168,70695,1,8,0:0:0:0:
308,296,71175,2,0,L|372:344,2,55,0|0|8,0:0|3:0|0:0,0:0:0:0:
248,256,71895,1,0,0:0:0:0:
192,212,72135,6,0,L|88:136,1,110,0|8,0:0|0:0,0:0:0:0:
52,100,72855,2,0,P|8:132|12:252,1,165,0|8,0:0|0:0,0:0:0:0:
56,280,73815,1,0,0:0:0:0:
124,304,74055,6,0,L|192:348,2,55,0|0|8,0:0|3:0|0:0,0:0:0:0:
116,232,74775,2,0,P|112:184|140:120,1,110
204,140,75495,1,8,0:0:0:0:
268,172,75735,1,0,0:0:0:0:
340,176,75975,2,0,P|360:136|324:64,1,110,4|8,2:0|0:0,0:0:0:0:
120,96,76935,6,0,L|64:144,1,55,0|0,0:0|3:0,0:0:0:0:
116,192,77415,2,0,L|160:248,1,55,8|0,0:0|3:0,0:0:0:0:
216,212,77895,5,0,0:0:0:0:
280,180,78135,2,0,L|324:144,2,55,0|8|0,0:0|0:0|0:0,0:0:0:0:
216,212,78855,1,0,0:0:0:0:
212,140,79095,2,0,L|160:92,2,55,0|8|0,3:0|0:0|3:0,0:0:0:0:
284,264,80055,6,0,L|336:212,1,55
296,84,80775,2,0,L|360:148,2,82.5,0|0|0,0:0|0:0|0:0,0:0:0:0:
228,64,81735,5,4,2:0:0:0:
136,284,90855,5,4,2:0:0:0:
172,144,91335,6,0,P|216:116|288:104,1,110
328,148,92055,1,0,3:0:0:0:
344,216,92295,2,0,P|292:264|240:292,1,110
188,300,93015,1,0,3:0:0:0:
132,252,93255,6,0,P|88:212|80:200,1,55
116,148,93735,2,0,L|92:80,2,55,0|0|0,0:0|3:0|0:0,0:0:0:0:
188,136,94455,2,0,L|260:100,1,55,0|0,0:0|3:0,0:0:0:0:
376,84,95175,5,0,0:0:0:0:
237,112,95655,1,0,0:0:0:0:
268,176,95895,2,0,L|304:228,1,55,0|0,2:0|0:0,0:0:0:0:
264,284,96375,1,0,3:0:0:0:
192,292,96615,2,0,L|128:292,1,55,0|0,0:0|3:0,0:0:0:0:
64,284,97095,2,0,P|36:256|28:172,1,110
168,192,98055,2,0,P|162:138|127:96,1,110
56,88,98775,1,4,2:0:0:0:
268,64,99495,6,0,L|268:4,2,55,0|0|0,0:0|0:0|0:0,0:0:0:0:
264,136,100215,1,0,0:0:0:0:
200,168,100455,2,0,L|144:196,1,55,0|0,0:0|0:0,0:0:0:0:
88,228,100935,6,0,P|72:264|120:320,1,110,0|0,3:0|0:0,0:0:0:0:
180,304,101655,1,0,0:0:0:0:
248,284,101895,2,0,L|304:240,1,55,0|0,3:0|0:0,0:0:0:0:
288,180,102375,2,0,L|344:136,1,55,0|0,3:0|0:0,0:0:0:0:
352,76,102855,5,4,2:0:0:0:
212,48,103335,2,0,L|152:60,1,55,0|0,0:0|3:0,0:0:0:0:
116,116,103815,2,0,P|128:156|196:200,1,110
316,152,104775,5,4,2:0:0:0:
420,248,105255,1,4,2:0:0:0:
284,296,105735,1,4,2:0:0:0:
436,60,106695,6,0,P|376:32|320:36,1,110,0|0,3:0|0:0,0:0:0:0:
352,176,107655,2,0,P|300:192|240:184,1,110,0|0,3:0|0:0,0:0:0:0:
108,232,108615,1,0,3:0:0:0:
108,232,108855,1,0,3:0:0:0:
108,232,109095,2,0,P|156:256|216:260,1,110,0|0,3:0|0:0,0:0:0:0:
236,120,110055,1,0,0:0:0:0:
376,96,110535,6,0,P|416:160|420:196,2,110,0|0|0,0:0|0:0|0:0,0:0:0:0:
276,196,111975,2,0,P|240:216|204:224,1,55,0|0,0:0|3:0,0:0:0:0:
160,240,112455,2,0,L|96:264,2,55,0|0|0,0:0|3:0|0:0,0:0:0:0:
176,96,113415,1,0,0:0:0:0:
276,196,113895,1,0,0:0:0:0:
224,328,114375,6,0,P|272:344|332:328,1,110
360,264,115095,1,0,3:0:0:0:
372,192,115335,2,0,P|380:148|360:80,1,110
224,56,116295,2,0,P|176:60|128:104,1,110
144,168,117015,1,0,3:0:0:0:
184,228,117255,1,0,0:0:0:0:
92,340,117735,1,0,0:0:0:0:
232,320,118215,6,0,B|280:292|312:352|352:296,2,110
144,224,119655,1,0,0:0:0:0:
272,164,120135,5,4,2:0:0:0:
272,164,122055,5,4,2:0:0:0:
392,64,123975,6,0,L|340:108,1,55,0|0,0:0|3:0,0:0:0:0:
344,172,124455,1,8,0:0:0:0:
436,280,124935,2,0,L|492:332,2,55,0|0|8,0:0|3:0|0:0,0:0:0:0:
368,256,125655,1,0,0:0:0:0:
296,260,125895,6,0,L|224:260,1,55,0|0,0:0|3:0,0:0:0:0:
216,192,126375,1,8,0:0:0:0:
256,56,126855,2,0,P|196:48|132:76,1,110,0|8,0:0|0:0,0:0:0:0:
116,128,127575,1,0,3:0:0:0:
112,200,127815,6,0,P|144:268|176:288,1,110,0|8,0:0|0:0,0:0:0:0:
232,252,128535,2,0,P|292:268|356:264,1,110
384,212,129255,1,8,0:0:0:0:
404,144,129495,1,0,0:0:0:0:
352,96,129735,6,0,P|320:76|232:88,1,110,0|8,0:0|0:0,0:0:0:0:
220,144,130455,2,0,P|196:172|116:192,1,110
68,152,131175,1,8,0:0:0:0:
84,84,131415,2,0,P|124:44|144:40,1,55,0|4,0:0|2:0,0:0:0:0:
260,72,132135,1,8,0:0:0:0:
404,96,132615,2,0,L|456:52,2,55,0|0|8,0:0|3:0|0:0,0:0:0:0:
344,136,133335,1,0,0:0:0:0:
288,180,133575,6,0,P|232:212|168:224,1,110,0|8,0:0|0:0,0:0:0:0:
144,280,134295,2,0,L|184:324,2,55,0|0|0,3:0|0:0|3:0,0:0:0:0:
100,224,135015,1,8,0:0:0:0:
140,164,135255,1,0,0:0:0:0:
180,104,135495,5,0,0:0:0:0:
276,208,135975,1,0,0:0:0:0:
368,100,136455,1,0,0:0:0:0:
368,100,136695,1,0,3:0:0:0:
368,100,136935,2,0,L|368:176,1,55
328,292,137655,2,0,L|276:332,1,55
212,320,138135,2,0,P|140:288|124:252,2,110
256,260,139335,6,0,L|264:200,1,55
300,148,139815,1,8,0:0:0:0:
440,128,140295,2,0,P|472:144|500:148,2,55,0|0|8,0:0|3:0|0:0,0:0:0:0:
376,96,141015,1,0,0:0:0:0:
308,72,141255,6,0,P|264:68|232:80,1,55,0|0,0:0|3:0,0:0:0:0:
184,84,141735,1,8,0:0:0:0:
84,180,142215,2,0,L|32:236,1,55,0|0,0:0|3:0,0:0:0:0:
72,288,142695,2,0,L|120:320,1,55,8|0,0:0|3:0,0:0:0:0:
180,284,143175,6,0,L|224:240,1,55,0|0,0:0|3:0,0:0:0:0:
192,180,143655,1,8,0:0:0:0:
240,128,143895,1,0,0:0:0:0:
288,76,144135,1,0,0:0:0:0:
344,124,144375,2,0,L|372:184,1,55,0|8,3:0|0:0,0:0:0:0:
360,244,144855,2,0,P|328:292|272:324,1,110
220,284,145575,1,8,0:0:0:0:
168,236,145815,2,0,P|104:256|44:260,1,110
48,188,146535,1,8,0:0:0:0:
92,52,147015,6,0,P|128:48|200:72,1,110,4|8,2:0|0:0,0:0:0:0:
264,96,147735,1,0,0:0:0:0:
316,148,147975,2,0,L|288:220,1,55,0|0,0:0|3:0,0:0:0:0:
360,232,148455,2,0,L|340:300,1,55,8|0,0:0|3:0,0:0:0:0:
280,316,148935,5,0,0:0:0:0:
212,292,149175,1,0,3:0:0:0:
152,252,149415,2,0,P|108:216|92:160,1,110,8|0,0:0|0:0,0:0:0:0:
232,136,150375,1,8,0:0:0:0:
444,100,151095,5,0,0:0:0:0:
444,100,151335,1,0,0:0:0:0:
392,232,151815,2,0,L|344:312,1,82.5
248,272,152535,1,0,0:0:0:0:
248,272,152775,1,4,2:0:0:0:
408,32,153735,5,0,0:0:0:0:
280,92,154215,1,0,0:0:0:0:
400,168,154695,1,4,2:0:0:0:
168,280,161895,5,4,2:0:0:0:
132,140,162375,6,0,P|192:136|248:160,1,110,0|0,3:0|2:0,0:0:0:0:
284,208,163095,1,0,3:0:0:0:
348,240,163335,2,0,P|400:220|436:172,1,110,4|0,2:0|2:0,0:0:0:0:
400,116,164055,1,0,0:0:0:0:
344,72,164295,2,0,P|288:68|228:100,1,110,0|0,2:0|3:0,0:0:0:0:
224,160,165015,2,0,P|180:228|88:260,1,165,0|0,3:0|3:0,0:0:0:0:
88,116,166215,5,0,3:0:0:0:
88,116,166695,1,0,3:0:0:0:
220,64,167175,1,0,3:0:0:0:
220,64,167655,1,0,3:0:0:0:
364,64,168135,2,0,L|432:64,2,55,0|0|0,3:0|3:0|3:0,0:0:0:0:
336,200,169095,2,0,L|216:200,1,110,0|0,3:0|3:0,0:0:0:0:
84,176,170055,6,0,P|57:223|65:291,1,110,0|0,3:0|2:0,0:0:0:0:
100,336,170775,1,0,3:0:0:0:
164,300,171015,2,0,P|218:304|271:289,2,110,4|0|0,2:0|3:0|2:0,0:0:0:0:
140,232,172215,1,0,2:0:0:0:
160,164,172455,2,0,P|188:140|276:144,1,110,0|0,3:0|2:0,0:0:0:0:
312,180,173175,2,0,L|328:252,2,55,0|0|0,3:0|2:0|3:0,0:0:0:0:
332,112,173895,5,0,3:0:0:0:
332,112,174375,1,0,3:0:0:0:
468,152,174855,2,0,L|416:272,1,110,0|0,3:0|3:0,0:0:0:0:
288,296,175815,1,0,3:0:0:0:
288,296,176295,1,0,3:0:0:0:
148,328,176775,2,0,L|72:344,2,55,0|0|0,3:0|3:0|3:0,0:0:0:0:
212,200,177735,6,0,P|224:148|272:100,1,110,4|0,2:0|0:0,0:0:0:0:
308,52,178455,2,0,L|268:0,2,55,0|0|0,0:0|3:0|0:0,0:0:0:0:
344,112,179175,2,0,P|392:88|456:92,1,110
468,160,179895,2,0,L|508:224,2,55,0|0|0,3:0|0:0|3:0,0:0:0:0:
400,180,180615,2,0,P|371:226|367:281,1,110
224,320,181575,5,0,3:0:0:0:
296,196,182055,1,0,3:0:0:0:
152,196,182535,1,0,3:0:0:0:
228,84,183015,1,0,3:0:0:0:
88,48,183495,2,0,L|88:160,1,110,0|0,3:0|3:0,0:0:0:0:
188,264,184455,2,0,L|188:128,1,110,0|0,3:0|3:0,0:0:0:0:
268,36,185415,6,0,P|312:12|336:12,2,55,0|0|8,3:0|0:0|1:0,0:0:0:0:
268,108,186135,2,0,P|272:144|296:176,1,55,0|0,0:0|3:0,0:0:0:0:
324,216,186615,1,0,0:0:0:0:
372,164,186855,2,0,L|424:112,1,55,8|0,0:0|0:0,0:0:0:0:
460,72,187335,6,0,L|508:108,2,55,0|0|8,3:0|0:0|1:0,0:0:0:0:
396,36,188055,1,0,3:0:0:0:
324,40,188295,2,0,P|268:56|212:96,1,110,0|8,0:0|0:0,0:0:0:0:
124,184,189255,6,0,L|172:256,1,82.5
328,332,190215,2,0,L|276:256,1,82.5,4|0,2:0|0:0,0:0:0:0:
384,116,191175,5,0,0:0:0:0:
248,164,191655,1,0,0:0:0:0:
280,24,192135,1,4,2:0:0:0:
104,84,200775,6,0,L|208:148,1,110,0|0,3:0|3:0,0:0:0:0:
264,116,201495,1,0,2:0:0:0:
264,116,201735,1,0,2:0:0:0:
328,244,202215,1,0,2:0:0:0:
196,300,202695,2,0,L|172:364,2,55,0|0|0,3:0|2:0|3:0,0:0:0:0:
152,164,203655,1,0,2:0:0:0:
260,68,204135,1,0,2:0:0:0:
360,172,204615,5,0,2:0:0:0:
440,288,205095,2,0,L|484:340,2,55,0|0|0,2:0|3:0|2:0,0:0:0:0:
296,296,206055,1,0,2:0:0:0:
188,200,206535,5,4,2:0:0:0:
188,200,208455,5,4,2:0:0:0:
224,60,208935,2,0,P|276:48|332:56,2,110,0|0|0,3:0|3:0|3:0,0:0:0:0:
284,192,210375,5,4,2:0:0:0:
248,252,210615,2,0,L|256:316,2,55
200,200,211335,2,0,L|220:92,1,110,0|0,0:0|0:0,0:0:0:0:
72,88,212295,5,4,2:0:0:0:
352,32,214215,6,0,P|404:56|416:72,1,55,4|0,2:0|0:0,0:0:0:0:
404,124,214695,1,8,0:0:0:0:
356,260,215175,6,0,P|316:284|288:296,2,55,0|0|8,0:0|2:0|0:0,0:0:0:0:
360,188,215895,1,0,0:0:0:0:
316,132,216135,2,0,L|256:128,1,55
208,176,216615,1,8,0:0:0:0:
96,88,217095,2,0,L|48:44,2,55,0|0|8,0:0|0:0|0:0,0:0:0:0:
108,160,217815,1,0,0:0:0:0:
92,228,218055,6,0,L|32:248,2,55,0|0|8,0:0|2:0|0:0,0:0:0:0:
164,244,218775,2,0,P|216:232|288:328,1,165,0|8,0:0|0:0,0:0:0:0:
208,312,219735,2,0,L|303:177,1,165,0|8,0:0|0:0,0:0:0:0:
256,116,220695,2,0,P|336:108|380:180,1,165,0|8,0:0|0:0,0:0:0:0:
432,220,221655,1,0,0:0:0:0:
468,156,221895,6,0,L|512:120,2,55,4|0|8,2:0|2:0|0:0,0:0:0:0:
412,112,222615,1,0,0:0:0:0:
352,76,222855,2,0,P|300:52|232:52,1,110,0|8,0:0|0:0,0:0:0:0:
188,92,223575,1,0,3:0:0:0:
128,132,223815,6,0,L|56:104,2,55,0|0|8,0:0|0:0|0:0,0:0:0:0:
140,204,224535,2,0,P|152:268|188:308,1,110
252,292,225255,1,8,0:0:0:0:
352,196,225735,5,0,0:0:0:0:
288,68,226215,1,0,0:0:0:0:
432,60,226695,1,0,0:0:0:0:
432,60,226935,2,0,L|464:116,1,55
444,180,227415,5,0,0:0:0:0:
344,280,227895,2,0,L|284:256,1,55
232,220,228375,1,0,0:0:0:0:
160,96,228855,1,0,0:0:0:0:
92,224,229335,1,2,2:0:0:0:
88,296,229575,6,0,L|148:324,1,55
208,300,230055,1,8,0:0:0:0:
328,224,230535,2,0,L|287:113,1,110
236,72,231255,1,0,3:0:0:0:
192,128,231495,6,0,L|220:196,1,55,0|0,0:0|3:0,0:0:0:0:
164,228,231975,1,8,0:0:0:0:
100,196,232215,1,0,0:0:0:0:
64,136,232455,2,0,P|76:80|132:32,1,110,0|8,0:0|0:0,0:0:0:0:
248,68,233415,6,0,L|204:136,2,55,0|0|8,0:0|2:0|0:0,0:0:0:0:
316,44,234135,1,0,0:0:0:0:
388,40,234375,2,0,P|424:80|434:133,1,110,0|8,2:0|0:0,0:0:0:0:
384,184,235095,1,0,3:0:0:0:
316,208,235335,2,0,B|268:172|192:208|192:208|148:176,2,165,0|0|8,0:0|0:0|0:0,0:0:0:0:
264,340,237255,1,4,2:0:0:0:
264,340,237735,1,8,0:0:0:0:
316,208,238215,6,0,L|360:148,2,55,0|0|8,0:0|0:0|0:0,0:0:0:0:
368,260,238935,2,0,L|339:307,1,55,0|0,0:0|0:0,0:0:0:0:
208,252,239655,2,0,P|152:220|124:176,1,110,8|0,0:0|0:0,0:0:0:0:
252,116,240615,1,8,0:0:0:0:
252,116,240855,1,0,0:0:0:0:
384,64,241335,5,0,0:0:0:0:
384,64,241575,1,0,0:0:0:0:
372,208,242055,1,0,0:0:0:0:
228,208,242535,1,0,0:0:0:0:
304,328,243015,5,4,2:0:0:0:
140,88,244935,6,0,P|200:100|232:136,1,110
268,196,245655,1,0,3:0:0:0:
256,268,245895,1,0,3:0:0:0:
392,304,246375,2,0,L|404:232,1,55,0|0,0:0|0:0,0:0:0:0:
384,180,246855,6,0,P|352:136|300:112,1,110,0|0,3:0|0:0,0:0:0:0:
232,100,247575,1,0,3:0:0:0:
160,112,247815,1,0,0:0:0:0:
80,232,248295,1,0,0:0:0:0:
220,268,248775,6,0,P|268:280|336:276,1,110
396,252,249495,1,0,3:0:0:0:
364,112,249975,2,0,L|324:64,1,55
264,96,250455,1,0,0:0:0:0:
124,132,250935,5,0,3:0:0:0:
96,196,251175,1,0,3:0:0:0:
104,268,251415,1,0,3:0:0:0:
228,200,251895,1,0,2:0:0:0:
352,76,252615,5,0,3:0:0:0:
408,124,252855,2,0,P|440:164|448:204,2,82.5,0|0|0,2:0|3:0|2:0,0:0:0:0:
348,160,253815,2,0,L|252:232,1,110,0|0,0:0|3:0,0:0:0:0:
196,196,254535,6,0,L|160:144,2,55,0|0|0,0:0|3:0|0:0,0:0:0:0:
180,264,255255,2,0,P|160:308|180:372,1,110
248,356,255975,2,0,P|312:332|316:332,1,55
352,288,256455,5,0,0:0:0:0:
420,164,256935,1,0,0:0:0:0:
280,144,257415,2,0,L|236:100,1,55
112,44,258135,5,0,0:0:0:0:
100,188,258615,2,0,L|168:188,1,55
216,320,259335,1,0,0:0:0:0:
216,320,259575,1,0,0:0:0:0:
292,200,260055,1,4,2:0:0:0:
256,192,260295,12,2,267975,2:0:0:0:
