osu file format v14

[General]
AudioFilename: 01 .mp3
AudioLeadIn: 0
PreviewTime: 35655
Countdown: 0
SampleSet: Normal
StackLeniency: 0.7
Mode: 0
LetterboxInBreaks: 0
WidescreenStoryboard: 0

[Editor]
Bookmarks: 90899
DistanceSpacing: 1.1
BeatDivisor: 4
GridSize: 4
TimelineZoom: 1

[Metadata]
Title:Dandigi
TitleUnicode:ダンディギ
Artist:Kakihara Tetsuya
ArtistUnicode:柿原徹也
Creator:nadapan
Version:Easy
Source:
Tags:Dandigi Dan ダンディギ・ダン 佐伯youthK Saeki youthK 宮崎誠 Miyazaki Makoto Kiramune
BeatmapID:505447
BeatmapSetID:215179

[Difficulty]
HPDrainRate:3
CircleSize:3
OverallDifficulty:3
ApproachRate:1
SliderMultiplier:0.9
SliderTickRate:1

[Events]
//Background and Video events
0,0,"tumblr_na0577u3S91qc1lo0o1_500.jpg",0,0
//Break Periods
2,83655,89175
2,154894,160695
2,193095,199095
//Storyboard Layer 0 (Background)
//Storyboard Layer 1 (Fail)
//Storyboard Layer 2 (Pass)
//Storyboard Layer 3 (Foreground)
//Storyboard Sound Samples

[TimingPoints]
1095,480,4,1,0,59,1,0
20295,-100,4,2,0,59,0,0
52935,-100,4,1,0,59,0,1
64455,-100,4,1,0,59,0,0
68295,-100,4,1,0,59,0,1
81735,-100,4,1,0,59,0,0
123975,-100,4,1,0,59,0,1
135495,-100,4,1,0,59,0,0
139335,-100,4,1,0,59,0,1
152775,-100,4,1,0,59,0,0
200775,-100,4,2,0,59,0,0
214215,-100,4,1,0,59,0,1
225735,-100,4,1,0,59,0,0
229575,-100,4,1,0,59,0,1
243015,-100,4,1,0,59,0,0
260775,-100,4,1,0,50,0,0
262215,-100,4,1,0,40,0,0
263655,-100,4,1,0,30,0,0
265095,-100,4,1,0,20,0,0
266535,-100,4,1,0,10,0,0
267975,-100,4,1,0,5,0,0

[Colours]
Combo1 : 27,104,248
Combo2 : 255,119,187
Combo3 : 17,213,96
Combo4 : 240,0,0
Combo5 : 0,240,240
Combo6 : 175,89,204

[HitObjects]
328,264,1095,6,0,P|256:312|184:264,1,180
160,72,3015,2,0,L|224:36,2,67.5,0|0|0,0:0|3:0|0:0,0:0:0:0:
156,120,3975,1,0,0:0:0:0:
344,184,4935,6,0,P|320:216|260:232,1,90,0|0,3:0|0:0,0:0:0:0:
260,136,5895,1,0,0:0:0:0:
156,244,6615,6,0,L|108:244,1,45,0|0,0:0|0:0,0:0:0:0:
80,148,7335,2,0,L|172:148,1,90,0|0,0:0|0:0,0:0:0:0:
176,48,8295,1,0,0:0:0:0:
276,44,8775,5,0,0:0:0:0:
344,116,9255,2,0,P|328:208|256:272,1,180
168,260,10695,2,0,P|132:236|116:184,1,90
212,176,11655,2,0,P|208:128|184:84,1,90,0|0,0:0|0:0,0:0:0:0:
92,68,12615,6,0,L|36:116,2,67.5,0|0|0,0:0|0:0|0:0,0:0:0:0:
132,40,13575,1,0,0:0:0:0:
280,68,14295,6,0,L|344:68,1,45,0|0,0:0|0:0,0:0:0:0:
328,168,15015,2,0,L|232:168,1,90,0|0,0:0|0:0,0:0:0:0:
172,92,15975,1,0,0:0:0:0:
76,120,16455,5,0,0:0:0:0:
168,236,17175,2,0,L|212:284,1,45
264,344,17895,1,0,0:0:0:0:
340,280,18375,6,0,L|268:208,1,90
208,148,19335,1,0,0:0:0:0:
276,76,19815,1,4,2:0:0:0:
336,156,20295,6,0,L|372:192,1,45,0|0,2:0|0:0,0:0:0:0:
256,284,21255,2,0,P|208:304|152:292,1,90,0|0,3:0|3:0,0:0:0:0:
84,256,22215,2,0,L|32:280,2,45,0|0|0,2:0|2:0|2:0,0:0:0:0:
168,212,23175,2,0,L|248:172,1,90,0|0,0:0|3:0,0:0:0:0:
272,76,24135,6,0,P|308:92|344:144,1,90
249,172,25095,2,0,L|309:264,1,90,0|0,0:0|0:0,0:0:0:0:
220,308,26055,1,0,0:0:0:0:
160,228,26535,1,0,0:0:0:0:
120,136,27015,2,0,P|140:88|176:60,1,90
220,148,27975,5,4,2:0:0:0:
316,128,28455,1,0,0:0:0:0:
388,200,28935,2,0,L|428:240,2,45,0|0|0,2:0|2:0|2:0,0:0:0:0:
292,220,29895,2,0,P|260:260|248:308,2,90,0|0|0,0:0|2:0|0:0,0:0:0:0:
340,132,31335,1,0,3:0:0:0:
440,124,31815,6,0,P|433:168|408:205,1,90
312,220,32775,2,0,L|248:220,2,45,0|0|0,2:0|2:0|2:0,0:0:0:0:
320,320,33735,2,0,L|224:320,1,90,4|4,2:0|2:0,0:0:0:0:
164,244,34695,1,4,2:0:0:0:
256,64,35655,6,2,B|288:104|332:104|332:104|332:156|372:188,1,180,0|0,0:0|0:0,0:0:0:0:
412,272,37095,1,0,3:0:0:0:
312,280,37575,2,0,P|260:248|244:212,1,90
212,132,38535,2,0,P|164:120|124:132,1,90
68,212,39495,6,2,B|100:252|68:300|68:300|112:300|156:340,1,180,0|0,0:0|0:0,0:0:0:0:
172,236,40935,1,0,3:0:0:0:
204,144,41415,2,0,P|244:120|300:120,1,90
272,216,42375,1,0,0:0:0:0:
256,312,42855,1,0,0:0:0:0:
156,324,43335,6,2,B|108:284|112:232|112:232|40:188,1,180,0|0,0:0|0:0,0:0:0:0:
104,112,44775,1,0,3:0:0:0:
184,172,45255,2,0,P|204:120|196:76,1,90
104,112,46215,1,0,0:0:0:0:
88,208,46695,1,0,0:0:0:0:
88,308,47175,6,0,B|140:324|181:261|181:261|224:316,1,180
312,272,48615,1,0,3:0:0:0:
372,192,49095,1,4,2:0:0:0:
228,56,50055,2,0,P|190:80|171:120,1,90
268,144,51015,1,4,2:0:0:0:
268,144,52935,5,0,0:0:0:0:
184,92,53415,1,8,0:0:0:0:
96,44,53895,2,0,P|84:104|100:148,2,90,0|8|0,0:0|0:0|0:0,0:0:0:0:
184,92,55335,5,8,0:0:0:0:
284,88,55815,2,0,P|320:64|332:52,2,45,0|0|8,2:0|0:0|1:0,2:0:0:0:
220,164,56775,6,8,P|176:212|160:292,2,135,0|0|8,0:0|0:0|0:0,0:0:0:0:
308,212,58695,2,0,L|380:268,2,90,0|8|0,0:0|0:0|0:0,0:0:0:0:
228,152,60135,1,8,0:0:0:0:
248,56,60615,6,0,L|296:24,2,45,4|0|8,2:0|2:0|0:0,0:0:0:0:
160,100,61575,2,0,P|116:144|100:188,1,90,0|8,0:0|0:0,0:0:0:0:
128,264,62535,1,0,0:0:0:0:
208,208,63015,2,0,P|227:259|216:308,2,90,8|0|8,0:0|0:0|0:0,0:0:0:0:
260,124,64455,6,0,L|350:124,1,90,0|0,0:0|0:0,0:0:0:0:
352,224,65415,2,0,L|307:224,1,45,0|0,0:0|0:0,0:0:0:0:
236,292,66135,1,0,0:0:0:0:
136,292,66615,2,0,L|136:236,1,45,0|0,0:0|0:0,0:0:0:0:
140,148,67335,2,0,B|180:131|180:131|220:155,1,90,0|4,0:0|2:0,0:0:0:0:
312,188,68295,5,0,0:0:0:0:
400,140,68775,1,8,0:0:0:0:
492,100,69255,2,0,P|500:140|480:200,2,90,0|8|0,0:0|0:0|0:0,0:0:0:0:
400,140,70695,1,8,0:0:0:0:
316,84,71175,2,0,L|316:28,2,45,0|0|8,2:0|2:0|0:0,0:0:0:0:
316,184,72135,5,0,0:0:0:0:
256,264,72615,2,0,P|320:284|352:276,2,90,8|0|8,0:0|0:0|0:0,0:0:0:0:
316,184,74055,1,0,0:0:0:0:
312,84,74535,2,0,P|268:44|236:36,1,90,8|0,0:0|0:0,0:0:0:0:
228,136,75495,1,8,0:0:0:0:
316,184,75975,6,0,P|264:228|228:232,1,90,4|8,2:0|0:0,0:0:0:0:
228,136,76935,2,0,P|176:148|140:188,1,90,0|8,0:0|0:0,0:0:0:0:
152,272,77895,2,0,L|224:344,2,90,0|8|0,0:0|0:0|0:0,0:0:0:0:
180,176,79335,1,8,0:0:0:0:
76,68,80055,6,0,L|124:24,1,45,0|0,0:0|0:0,0:0:0:0:
208,40,80775,2,0,L|284:68,2,67.5,0|0|0,0:0|0:0|0:0,0:0:0:0:
176,80,81735,1,4,2:0:0:0:
332,256,90855,5,4,2:0:0:0:
300,164,91335,6,0,P|268:124|228:108,1,90
140,76,92295,2,0,L|92:52,2,45,0|0|0,0:0|0:0|0:0,0:0:0:0:
144,176,93255,2,0,L|100:220,2,45
240,120,94215,2,0,P|280:136|320:176,1,90
228,220,95175,5,0,0:0:0:0:
316,264,95655,1,0,0:0:0:0:
391,327,96135,2,0,P|414:278|408:232,1,90
450,152,97095,2,0,P|393:144|351:161,1,90
268,132,98055,2,0,L|264:76,2,45,0|0|0,3:0|0:0|0:0,0:0:0:0:
272,180,98775,1,4,2:0:0:0:
172,292,99495,5,0,0:0:0:0:
84,340,99975,2,0,P|72:288|84:244,1,90
144,176,100935,2,0,L|182:153,2,45,0|0|0,0:0|3:0|0:0,0:0:0:0:
132,76,101895,2,0,L|92:100,2,45,0|0|0,0:0|3:0|0:0,0:0:0:0:
232,72,102855,6,0,P|276:92|304:128,2,90,4|0|0,2:0|0:0|0:0,0:0:0:0:
212,168,104295,1,0,0:0:0:0:
184,264,104775,2,0,L|268:324,1,90,4|4,2:0|2:0,0:0:0:0:
356,320,105735,1,4,2:0:0:0:
232,168,106695,6,0,B|186:126|186:126|122:110|114:42,1,180,0|0,0:0|0:0,0:0:0:0:
212,32,108135,1,0,0:0:0:0:
288,92,108615,2,0,P|319:123|332:166,2,90
236,176,110055,1,0,0:0:0:0:
228,276,110535,6,0,P|144:216|144:136,1,180,0|0,0:0|0:0,0:0:0:0:
236,176,111975,1,0,0:0:0:0:
312,112,112455,2,0,L|348:84,2,45
236,176,113415,1,0,0:0:0:0:
280,264,113895,1,0,0:0:0:0:
376,240,114375,6,0,P|356:328|272:364,1,180,0|0,0:0|0:0,0:0:0:0:
280,264,115815,1,0,0:0:0:0:
208,196,116295,2,0,L|276:120,1,90
332,56,117255,1,0,0:0:0:0:
400,128,117735,1,0,0:0:0:0:
444,40,118215,6,0,P|493:93|465:203,1,180
400,128,119655,1,0,0:0:0:0:
312,172,120135,1,4,2:0:0:0:
256,192,120615,12,4,122055,2:0:0:0:
376,64,123975,5,0,0:0:0:0:
304,132,124455,1,8,0:0:0:0:
204,140,124935,2,0,L|156:100,2,45,0|0|8,3:0|3:0|0:0,0:0:0:0:
212,240,125895,1,0,0:0:0:0:
156,320,126375,1,8,0:0:0:0:
256,320,126855,2,0,P|292:284|304:236,1,90,0|8,0:0|0:0,0:0:0:0:
212,240,127815,5,0,0:0:0:0:
244,148,128295,2,0,P|288:132|348:148,2,90,0|0|8,0:0|0:0|0:0,0:0:0:0:
296,232,129735,2,0,P|252:260|196:260,1,90,0|8,0:0|0:0,0:0:0:0:
164,256,130455,2,0,P|116:228|100:148,1,135
196,168,131655,5,4,2:0:0:0:
164,76,132135,2,0,P|200:68|260:96,1,90,8|0,0:0|0:0,0:0:0:0:
196,168,133095,1,8,0:0:0:0:
240,256,133575,2,0,P|272:232|292:188,1,90,0|8,0:0|0:0,0:0:0:0:
320,92,134535,1,0,0:0:0:0:
396,156,135015,1,8,0:0:0:0:
356,248,135495,6,0,L|312:340,1,90
224,296,136455,2,0,L|172:260,1,45,0|0,0:0|0:0,0:0:0:0:
140,184,137175,2,0,L|192:104,1,90,0|0,0:0|0:0,0:0:0:0:
288,88,138135,1,0,0:0:0:0:
376,136,138615,1,0,0:0:0:0:
296,260,139335,5,0,0:0:0:0:
220,196,139815,1,8,0:0:0:0:
144,132,140295,2,0,L|104:92,2,45,0|0|8,3:0|3:0|0:0,0:0:0:0:
132,232,141255,1,0,0:0:0:0:
204,304,141735,1,8,0:0:0:0:
300,332,142215,2,0,L|352:356,2,45,0|0|8,3:0|3:0|0:0,0:0:0:0:
204,304,143175,6,0,P|124:316|72:280,2,135,0|0|8,0:0|0:0|0:0,0:0:0:0:
152,220,145095,2,0,P|152:172|172:136,2,90,0|8|0,0:0|0:0|0:0,0:0:0:0:
248,200,146535,1,8,0:0:0:0:
336,156,147015,5,4,2:0:0:0:
372,248,147495,2,0,P|408:224|432:172,1,90,8|0,0:0|0:0,0:0:0:0:
336,156,148455,1,8,0:0:0:0:
248,200,148935,2,0,L|152:244,2,90,0|8|0,0:0|0:0|0:0,0:0:0:0:
336,156,150375,1,8,0:0:0:0:
168,104,151095,6,0,L|116:128,1,45,0|0,0:0|0:0,0:0:0:0:
132,220,151815,2,0,L|172:288,2,67.5,0|0|0,0:0|0:0|0:0,0:0:0:0:
112,172,152775,1,4,2:0:0:0:
324,120,153735,6,0,L|396:172,2,90,0|0|4,0:0|0:0|2:0,0:0:0:0:
260,92,162375,6,0,P|352:132|372:220,1,180,0|4,3:0|2:0,0:0:0:0:
278,229,163815,2,0,P|198:209|166:113,1,180,0|0,3:0|2:0,0:0:0:0:
263,131,165255,6,0,L|135:259,1,180,0|0,3:0|2:0,0:0:0:0:
206,327,166695,1,0,3:0:0:0:
288,272,167175,2,0,L|360:196,1,90,0|0,3:0|3:0,0:0:0:0:
344,104,168135,5,0,3:0:0:0:
264,160,168615,1,0,3:0:0:0:
252,60,169095,2,0,P|204:80|172:116,1,90,0|0,3:0|3:0,0:0:0:0:
264,160,170055,6,0,B|280:212|320:228|320:228|284:252|288:320,1,180,0|4,3:0|2:0,0:0:0:0:
388,300,171495,2,0,P|420:208|380:144,1,180,0|0,3:0|2:0,0:0:0:0:
304,80,172935,6,0,B|220:44|220:44|136:84,1,180,0|0,3:0|2:0,0:0:0:0:
112,176,174375,1,0,3:0:0:0:
64,264,174855,2,0,P|112:276|168:256,1,90,0|0,3:0|3:0,0:0:0:0:
112,176,175815,5,0,3:0:0:0:
208,144,176295,1,0,3:0:0:0:
236,240,176775,2,0,P|276:216|304:176,1,90,0|0,3:0|3:0,0:0:0:0:
356,104,177735,6,0,L|428:160,2,90,4|0|0,2:0|2:0|3:0,0:0:0:0:
272,52,179175,1,0,0:0:0:0:
172,48,179655,6,0,P|188:108|220:136,1,90,0|0,3:0|2:0,2:0:0:0:
292,176,180615,2,0,L|332:128,2,45,0|0|0,3:0|2:0|3:0,0:0:0:0:
240,261,181575,6,0,L|220:320,2,45,0|0|0,3:0|2:0|3:0,0:0:0:0:
168,192,182535,2,0,P|176:148|216:112,1,90,0|0,3:0|3:0,0:0:0:0:
304,96,183495,6,0,L|332:48,2,45,0|0|0,3:0|2:0|3:0,0:0:0:0:
352,184,184455,2,0,P|364:228|344:272,1,90,0|0,3:0|3:0,0:0:0:0:
252,244,185415,6,0,L|196:236,2,45,0|0|8,3:0|3:0|0:0,0:0:0:0:
348,268,186375,2,0,P|328:308|284:336,1,90,0|8,3:0|0:0,0:0:0:0:
252,244,187335,5,0,0:0:0:0:
232,148,187815,2,0,P|192:164|160:216,1,90,8|0,0:0|0:0,0:0:0:0:
164,300,188775,1,8,0:0:0:0:
264,288,189255,6,0,L|344:304,1,67.5
368,212,190215,1,4,2:0:0:0:
160,124,191175,6,0,L|232:48,2,90,0|0|4,0:0|0:0|2:0,0:0:0:0:
328,96,200775,6,0,P|372:144|376:184,2,90,0|0|0,2:0|2:0|2:0,0:0:0:0:
280,180,202215,1,0,2:0:0:0:
244,272,202695,2,0,P|200:240|180:192,1,90,0|0,2:0|2:0,0:0:0:0:
280,180,203655,1,0,2:0:0:0:
236,92,204135,1,0,2:0:0:0:
144,56,204615,5,0,2:0:0:0:
80,132,205095,2,0,P|52:184|56:224,2,90,0|0|0,2:0|2:0|2:0,0:0:0:0:
152,200,206535,5,4,2:0:0:0:
152,200,208455,5,4,2:0:0:0:
232,144,208935,2,0,L|324:88,2,90,0|0|0,0:0|0:0|0:0,0:0:0:0:
152,200,210375,1,4,2:0:0:0:
328,288,211335,2,0,L|412:228,1,90,0|0,3:0|3:0,3:0:0:0:
412,136,212295,1,4,2:0:0:0:
412,136,214215,5,4,2:0:0:0:
316,160,214695,1,8,0:0:0:0:
248,88,215175,2,0,P|220:132|220:188,1,90,0|8,0:0|0:0,0:0:0:0:
316,160,216135,1,0,0:0:0:0:
260,240,216615,1,8,0:0:0:0:
160,228,217095,2,0,L|100:208,2,45,0|0|8,3:0|3:0|0:0,0:0:0:0:
260,240,218055,6,0,P|244:176|176:128,2,135,0|0|8,0:0|0:0|0:0,0:0:0:0:
360,236,219975,6,0,P|360:196|332:136,1,90,0|8,0:0|0:0,0:0:0:0:
384,60,220935,2,0,P|328:52|280:68,1,90,0|8,0:0|0:0,0:0:0:0:
342,150,221895,1,4,2:0:0:0:
296,236,222375,2,0,L|328:288,2,45,8|0|0,0:0|3:0|3:0,0:0:0:0:
236,156,223335,1,8,0:0:0:0:
276,64,223815,6,0,P|176:76|136:156,1,180
236,156,225255,1,8,0:0:0:0:
224,256,225735,6,0,L|212:360,2,90
372,244,227415,2,0,L|416:328,2,90
316,164,228855,1,0,0:0:0:0:
192,80,229575,5,0,0:0:0:0:
144,164,230055,1,8,0:0:0:0:
60,216,230535,2,0,P|116:260|148:264,1,90,0|8,0:0|0:0,0:0:0:0:
232,260,231495,1,0,0:0:0:0:
308,200,231975,1,8,0:0:0:0:
212,180,232455,2,0,P|236:132|272:108,1,90,0|8,2:0|0:0,0:0:0:0:
364,120,233415,6,0,P|404:192|388:252,2,135,0|0|8,0:0|0:0|0:0,0:0:0:0:
304,200,235335,2,0,P|272:240|220:260,2,90,0|8|0,0:0|0:0|0:0,0:0:0:0:
212,160,236775,1,8,0:0:0:0:
284,92,237255,6,0,P|240:64|184:68,1,90,4|8,2:0|0:0,0:0:0:0:
212,160,238215,1,0,0:0:0:0:
148,236,238695,1,8,0:0:0:0:
244,252,239175,1,0,0:0:0:0:
308,176,239655,2,0,L|352:152,2,45,8|0|0,0:0|3:0|3:0,0:0:0:0:
212,160,240615,1,8,0:0:0:0:
88,304,241335,6,0,L|132:340,1,45,0|0,0:0|0:0,0:0:0:0:
220,340,242055,2,0,L|328:340,1,90,0|0,0:0|0:0,0:0:0:0:
332,244,243015,5,4,2:0:0:0:
332,244,244935,6,0,P|260:236|196:204,1,135,0|0,0:0|3:0,0:0:0:0:
100,104,246375,2,0,L|44:128,2,45,0|0|0,0:0|0:0|0:0,0:0:0:0:
240,60,247575,1,0,3:0:0:0:
336,172,248295,1,0,0:0:0:0:
364,268,248775,6,0,P|328:296|232:316,1,135,0|0,0:0|3:0,0:0:0:0:
176,244,249975,2,0,L|132:228,2,45,0|0|0,3:0|3:0|3:0,0:0:0:0:
260,188,250935,2,0,L|272:144,2,45,0|0|0,3:0|2:0|3:0,0:0:0:0:
304,276,251895,1,0,0:0:0:0:
400,160,252615,6,0,P|368:104|304:80,2,135
304,180,254535,2,0,L|268:220,3,45
344,284,255735,2,0,L|396:224,1,67.5
436,176,256455,6,0,L|380:92,1,90
288,100,257415,2,0,L|236:100,1,45
164,160,258135,1,0,0:0:0:0:
80,208,258615,2,0,L|116:256,1,45
164,160,259335,2,0,L|137:124,1,45
76,48,260055,1,4,2:0:0:0:
256,192,260295,12,2,267975,2:0:0:0:
