osu file format v10

[General]
AudioFilename: KiLLER LADY.mp3
AudioLeadIn: 0
PreviewTime: 58936
Countdown: 0
SampleSet: Normal
StackLeniency: 0.7
Mode: 0
LetterboxInBreaks: 1

[Editor]
DistanceSpacing: 0.8
BeatDivisor: 4
GridSize: 4

[Metadata]
Title:KiLLER LADY
TitleUnicode:KiLLER LADY
Artist:Kakichoco
ArtistUnicode:Kakichoco
Creator:Mikarunoel131
Version:Heart Breaker
Source:HachiojiP
Tags:8#Prince q*Left Vocaloid Nico Douga Megpoid Gumi
BeatmapID:149262
BeatmapSetID:47568

[Difficulty]
HPDrainRate:4
CircleSize:3
OverallDifficulty:4
ApproachRate:4
SliderMultiplier:1.6
SliderTickRate:2

[Events]
//Background and Video events
0,0,"KiLLER LADY.jpg"
//Break Periods
2,88088,93160
//Storyboard Layer 0 (Background)
//Storyboard Layer 1 (Fail)
//Storyboard Layer 2 (Pass)
//Storyboard Layer 3 (Foreground)
//Storyboard Sound Samples
//Background Colour Transformations
3,100,163,162,255

[TimingPoints]
616,454.545454545455,4,1,1,70,1,0
43570,-100,4,1,1,40,0,0
44252,-100,4,1,1,70,0,0
58797,-100,4,1,1,80,0,1
87888,-100,4,1,1,80,0,0
94479,-100,4,1,1,40,0,0
95161,-100,4,1,1,60,0,0
100616,-100,4,1,1,40,0,0
102434,-100,4,1,1,70,0,0
110616,-100,4,1,1,50,0,0
111525,-100,4,1,1,70,0,0
112434,-100,4,1,1,50,0,0
113343,-100,4,1,1,40,0,0
115388,-100,4,1,1,60,0,0
116525,-100,4,1,1,40,0,0
116979,-100,4,1,1,80,0,1
129706,-100,4,1,1,60,0,0
131525,-100,4,1,1,70,0,1
131638,-100,4,1,1,50,0,0

[Colours]
Combo1 : 249,249,0
Combo2 : 27,201,252
Combo3 : 102,254,1
Combo4 : 231,1,190
Combo5 : 230,0,0
Combo6 : 222,130,27

[HitObjects]
256,64,15162,2,0,B|216:116|216:116|216:228,1,160,4|8,0:0|0:0,0:0:0
256,332,16071,2,0,B|296:280|296:280|296:168,1,160,0|8,0:0|0:0,0:0:0
168,192,16980,2,0,B|128:176|88:192,2,80,0|0|8,0:0|0:0|0:0,0:0:0
216,312,17889,2,0,B|256:328|296:312,2,80,0|0|8,0:0|0:0|0:0,0:0:0
256,192,18798,6,0,B|300:233|368:165|409:187,1,160,0|8,0:0|0:0,0:0:0
408,60,19707,2,0,B|367:82|299:14|254:55,1,160,0|8,0:0|0:0,0:0:0
128,88,20616,1,0,0:0:0
92,140,20843,1,0,0:0:0
128,196,21071,1,8,0:0:0
240,140,21525,2,0,B|292:140|312:100,2,80,0|0|8,0:0|0:0|0:0,0:0:0
356,192,22434,6,0,B|356:248|412:304|476:284,2,160,0|4|0,0:0|0:0|0:0,0:0:0
256,272,23798,2,0,B|256:112,1,160,8|0,0:0|0:0,0:0:0
156,192,24707,2,0,B|156:248|100:304|36:284,2,160,8|0|8,0:0|0:0|0:0,0:0:0
256,112,26071,5,4,0:0:0
384,336,26980,1,4,0:0:0
128,336,27889,1,4,0:0:0
56,56,29253,6,0,B|116:56|136:132|204:132,1,160,0|4,0:0|0:0,0:0:0
320,132,30162,2,0,B|372:132|396:56|456:56,1,160,8|2,0:0|0:0,0:0:0
436,188,31071,2,0,B|432:240|400:268|400:268|360:244|304:236,1,160,8|0,0:0|0:0,0:0:0
256,144,31980,5,8,0:0:0
256,208,32207,1,0,0:0:0
256,272,32434,1,2,0:0:0
256,144,32889,6,0,B|188:152|188:152|164:112|116:96,1,160,8|0,0:0|0:0,0:0:0
84,220,33798,2,0,B|56:260|100:320,2,80,8|0|2,0:0|0:0|0:0,0:0:0
212,240,34707,2,0,B|244:268|320:212|368:248,2,160,8|4|8,0:0|0:0|0:0,0:0:0
160,200,35843,1,4,0:0:0
256,120,36298,5,4,0:0:0
208,76,36525,1,8,0:0:0
256,36,36752,1,0,0:0:0
304,80,36980,1,4,0:0:0
436,52,37434,6,0,B|400:100|476:164|420:240,1,160,8|2,0:0|0:0,0:0:0
476,328,38343,1,8,0:0:0
352,304,38798,2,0,B|336:340|212:340|200:296,1,160,0|8,0:0|0:0,0:0:0
152,192,39707,6,0,B|110:182|80:212|80:212|40:204|8:244,2,160,2|8|0,0:0|0:0|0:0,0:0:0
208,156,40843,1,0,0:0:0
256,116,41070,1,0,0:0:0
304,156,41298,1,0,0:0:0
360,192,41525,2,0,B|402:182|432:212|432:212|472:204|504:244,2,160,2|8|4,0:0|0:0|0:0,0:0:0
408,108,42775,5,4,0:0:0
360,24,43116,1,4,0:0:0
256,96,43571,2,0,B|296:160|256:204|208:264|256:324,1,240,0|4,0:0|0:0,0:0:0
160,244,44707,6,0,B|120:220|136:164,2,80,8|0|2,0:0|0:0|0:0,0:0:0
256,164,45616,2,0,B|256:248,2,80,8|0|4,0:0|0:0|0:0,0:0:0
352,248,46525,2,0,B|392:224|376:168,2,80,8|0|2,0:0|0:0|0:0,0:0:0
256,332,47434,6,0,B|344:376|424:308,1,160,8|4,0:0|0:0,0:0:0
504,236,48343,2,0,B|428:200|344:252,1,160,8|2,0:0|0:0,0:0:0
256,160,49252,2,0,B|212:136|212:136|176:172|176:172|116:140,1,160,8|4,0:0|0:0,0:0:0
256,160,50162,2,0,B|299:136|299:136|335:172|335:172|388:144,1,160,8|2,0:0|0:0,0:0:0
387,272,51071,2,0,B|411:320|471:324,2,80,8|0|4,0:0|0:0|0:0,0:0:0
256,252,51980,5,8,0:0:0
368,192,52434,1,2,0:0:0
256,128,52889,1,8,0:0:0
144,192,53343,1,4,0:0:0
187,312,53798,2,0,B|187:348|327:348|327:312,2,160,8|2|8,0:0|0:0|0:0,0:0:0
144,192,55162,5,4,0:0:0
192,72,55616,1,4,0:0:0
320,72,56071,1,4,0:0:0
368,192,56525,1,4,0:0:0
368,192,56752,1,0,0:0:0
256,256,57207,5,4,0:0:0
188,192,57548,1,4,0:0:0
256,124,57889,1,4,0:0:0
256,256,58343,2,0,B|228:316|144:264|88:336,1,160,8|4,0:0|0:0,0:0:0
148,188,59252,6,0,B|148:132|256:132|256:64,1,160,8|2,0:0|0:0,0:0:0
255,77,60162,2,0,B|255:133|363:133|363:189,1,160,8|0,0:0|0:0,0:0:0
352,316,61071,6,0,B|392:344|492:320|504:264,2,160,8|2|8,0:0|0:0|0:0,0:0:0
256,232,62434,1,4,0:0:0
160,316,62888,2,0,B|120:344|20:320|8:264,2,160,8|2|8,0:0|0:0|0:0,0:0:0
112,196,64252,2,0,B|200:168|188:64,1,160,0|8,0:0|0:0,0:0:0
323,71,65162,2,0,B|312:168|400:196,1,160,2|8,0:0|0:0,0:0:0
460,308,66071,5,4,0:0:0
332,328,66525,2,0,B|292:348|256:328,2,80,8|0|2,0:0|0:0|0:0,0:0:0
256,228,67434,2,0,B|216:208|180:228,2,80,8|0|2,0:0|0:0|0:0,0:0:0
192,116,68343,6,0,B|132:96|84:136|24:88,2,160,8|2|8,0:0|0:0|0:0,0:0:0
256,128,69480,1,0,0:0:0
320,116,69707,2,0,B|380:96|428:136|488:88,2,160,4|8|2,0:0|0:0|0:0,0:0:0
256,224,71071,2,0,B|260:276|220:320,2,80,0|0|4,0:0|0:0|0:0,0:0:0
128,228,71980,1,4,0:0:0
476,64,73343,6,0,B|428:64|394:146|414:194,1,160,4|8,0:0|0:0,0:0:0
348,192,74025,1,0,0:0:0
284,192,74252,2,0,B|302:147|268:64|220:64,1,160,2|8,0:0|0:0,0:0:0
196,188,75162,2,0,B|160:224|220:312|280:280,2,160,4|8|2,0:0|0:0|0:0,0:0:0
160,64,76525,1,8,0:0:0
96,176,76980,6,0,B|88:236|88:236|96:288|136:324,1,160,4|8,0:0|0:0,0:0:0
196,300,77662,1,0,0:0:0
256,292,77889,1,2,0:0:0
320,304,78116,1,0,0:0:0
378,322,78343,2,0,B|416:288|424:236|424:236|416:172,1,160,8|4,0:0|0:0,0:0:0
332,80,79252,2,0,B|256:104|172:80,2,160,8|2|8,0:0|0:0|0:0,0:0:0
344,208,80616,6,0,B|320:289|344:365,2,160,4|8|2,0:0|0:0|0:0,0:0:0
256,300,81979,1,8,0:0:0
168,208,82434,2,0,B|191:289|167:365,2,160,4|8|2,0:0|0:0|0:0,0:0:0
256,116,83797,2,0,B|256:28,2,80,8|0|4,0:0|0:0|0:0,0:0:0
360,192,84706,5,8,0:0:0
256,264,85161,1,2,0:0:0
152,192,85616,1,8,0:0:0
256,116,86070,6,0,B|360:116|392:16,1,160,4|4,0:0|0:0,0:0:0
256,40,86979,2,0,B|152:40|120:140,2,160,4|0|4,0:0|0:0|0:0,0:0:0
52,64,94480,5,4,0:0:0
108,92,94706,2,0,B|81:133|153:208|201:177,1,160,8|4,0:0|0:0,0:0:0
256,148,95389,1,0,0:0:0
312,180,95616,2,0,B|360:149|432:224|404:268,2,160,8|2|8,0:0|0:0|0:0,0:0:0
256,216,96753,5,0,0:0:0
220,272,96980,2,0,B|220:312|84:312|84:272,1,160,0|8,0:0|0:0,0:0:0
152,164,97889,1,2,0:0:0
256,88,98343,1,8,0:0:0
356,168,98798,6,0,B|392:120|452:136|452:136|512:96,1,160,0|8,0:0|0:0,0:0:0
424,212,99707,2,0,B|400:244|360:256|360:256|340:292|276:312,1,160,2|8,0:0|0:0,0:0:0
256,192,100616,1,4,0:0:0
68,76,101753,6,0,B|68:136|68:136|116:172|116:172|160:136|160:136|160:68,1,240,4|4,0:0|0:0,0:0:0
216,44,102662,6,0,B|256:24|296:44,1,80,0|8,0:0|0:0,0:0:0
308,168,103343,2,0,B|356:188|444:120|408:68,2,160,2|8|4,0:0|0:0|0:0,0:0:0
256,208,104480,1,0,0:0:0
204,168,104707,2,0,B|160:144|60:208|88:264,1,160,8|2,0:0|0:0,0:0:0
200,296,105616,2,0,B|256:352|256:352|312:296,1,160,8|4,0:0|0:0,0:0:0
396,196,106525,6,0,B|448:156|448:156|400:132|380:84,1,160,8|2,0:0|0:0,0:0:0
320,72,107207,1,0,0:0:0
256,60,107434,1,8,0:0:0
192,72,107662,1,0,0:0:0
129,90,107888,2,0,B|112:132|64:156|64:156|116:196,1,160,4|8,0:0|0:0,0:0:0
192,300,108798,5,2,0:0:0
256,316,109025,1,0,0:0:0
320,300,109253,1,8,0:0:0
256,188,109707,1,4,0:0:0
256,36,110616,5,4,0:0:0
52,192,111525,1,4,0:0:0
256,348,112434,1,4,0:0:0
460,192,113343,1,4,0:0:0
256,192,113571,12,0,114934,0:0:0
184,192,115389,5,4,0:0:0
256,128,115730,1,4,0:0:0
328,192,116071,1,4,0:0:0
256,296,116525,2,0,B|304:328|360:300|424:336,1,160,8|4,0:0|0:0,0:0:0
410,329,117206,6,0,B|472:272,1,80,0|8,0:0|0:0,0:0:0
472,212,117662,1,0,0:0:0
420,176,117889,1,2,0:0:0
308,108,118343,5,8,0:0:0
256,72,118571,1,0,0:0:0
204,108,118797,2,0,B|160:112|136:144|136:144|88:152|64:204,2,160,0|8|2,0:0|0:0|0:0,0:0:0
148,224,120161,2,0,B|131:261|83:269|83:269|59:301|15:305,1,160,8|4,0:0|0:0,0:0:0
72,189,121070,6,0,B|76:148|132:120|204:128|212:180,1,160,8|2,0:0|0:0,0:0:0
256,192,121753,1,0,0:0:0
310,156,121979,2,0,B|332:128|380:120|436:148|436:192,1,160,8|0,0:0|0:0,0:0:0
412,312,122889,5,8,0:0:0
348,320,123116,1,0,0:0:0
288,292,123343,2,0,B|248:316|208:304|208:304|168:288|120:312,1,160,2|8,0:0|0:0,0:0:0
72,196,124253,6,0,B|84:124|136:108|136:108|180:128,1,160,4|8,0:0|0:0,0:0:0
212,180,124934,1,0,0:0:0
256,228,125162,1,2,0:0:0
300,180,125389,1,0,0:0:0
334,126,125616,2,0,B|376:108|376:108|428:124|440:196,2,160,0|0|8,0:0|0:0|0:0,0:0:0
256,228,126980,1,2,0:0:0
132,192,127434,6,0,B|164:152|164:152|104:128|104:128|148:72,2,160,8|4|8,0:0|0:0|0:0,0:0:0
256,164,128798,1,2,0:0:0
380,192,129253,2,0,B|348:152|348:152|408:128|408:128|364:72,1,160,8|4,0:0|0:0,0:0:0
256,192,129934,12,4,131525,0:0:0
