osu file format v9

[General]
AudioFilename: fanshi3kami.mp3
AudioLeadIn: 500
PreviewTime: 91094
Countdown: 0
SampleSet: Soft
StackLeniency: 0.7
Mode: 0
LetterboxInBreaks: 1

[Editor]
DistanceSpacing: 1.2
BeatDivisor: 4
GridSize: 8

[Metadata]
Title:Fanshi 3 Kami Goranshin
Artist:Kakeru Hotarubi
Creator:bakabaka
Version:Normal
Source:Touhou
Tags:littlecar3370 Moriya Suwako

[Difficulty]
HPDrainRate:4
CircleSize:4
OverallDifficulty:4
ApproachRate:5
SliderMultiplier:1.2
SliderTickRate:2

[Events]
//Background and Video events
0,0,"suwakoBG.jpg"
//Break Periods
2,40433,51748
2,116725,126450
2,154870,164596
//Storyboard Layer 0 (Background)
//Storyboard Layer 1 (Fail)
//Storyboard Layer 2 (Pass)
//Storyboard Layer 3 (Foreground)
//Storyboard Sound Samples
//Background Colour Transformations
3,100,163,162,255

[TimingPoints]
2088,397.350993377483,4,2,1,79,1,0
3975,-100,4,2,2,79,0,0
4174,-100,4,2,1,79,0,0
7154,-100,4,2,2,79,0,0
7352,-100,4,2,1,79,0,0
7948,-100,4,2,2,79,0,0
8147,-100,4,2,1,79,0,0
11922,-100,4,2,2,79,0,0
12121,-100,4,2,1,79,0,0
14703,-100,4,2,1,51,0,0
15001,-100,4,2,1,70,0,0
27419,-100,4,2,1,60,0,0
27816,-100,4,2,2,79,0,0
28015,-100,4,2,1,79,0,0
40134,-100,4,2,1,50,0,0
40333,-100,4,2,1,71,0,0
52849,-100,4,2,1,61,0,0
53048,-100,4,2,1,71,0,0
54836,-100,4,2,2,71,0,0
55035,-100,4,2,1,71,0,0
55631,-100,4,2,2,71,0,0
55829,-100,4,2,1,71,0,0
59604,-100,4,2,2,71,0,0
59803,-100,4,2,1,71,0,0
61193,-100,4,2,2,71,0,0
61392,-100,4,2,1,71,0,0
63776,-100,4,2,1,49,0,0
63975,-100,4,2,1,69,0,0
65564,-100,4,2,1,61,0,0
65962,-100,4,2,2,61,0,0
66160,-100,4,2,1,61,0,0
66359,-100,4,2,1,80,0,0
69140,-100,4,2,2,80,0,0
69339,-100,4,2,1,80,0,0
70730,-100,4,2,2,80,0,0
70929,-100,4,2,1,80,0,0
75498,-100,4,2,2,80,0,0
75697,-100,4,2,1,80,0,0
78280,-100,4,2,1,60,0,0
78677,-100,4,2,2,80,0,0
78876,-100,4,2,1,80,0,0
80266,-100,4,2,2,80,0,0
80465,-100,4,2,1,80,0,0
85035,-100,4,2,2,80,0,0
85233,-100,4,2,1,80,0,0
91094,-100,4,2,1,60,0,1
91193,-100,4,2,1,80,0,1
92982,-100,4,2,2,80,0,1
93180,-100,4,2,1,80,0,1
94571,-100,4,2,2,80,0,1
94770,-100,4,2,1,80,0,1
95366,-100,4,2,2,80,0,1
95564,-100,4,2,1,80,0,1
103511,-100,4,2,2,51,0,1
103710,-100,4,2,1,60,0,1
103909,-100,4,2,1,81,0,1
105697,-100,4,2,2,81,0,1
105895,-100,4,2,1,81,0,1
108876,-100,4,2,2,81,0,1
109074,-100,4,2,1,81,0,1
116227,-100,4,2,2,49,0,1
116425,-100,4,2,1,40,0,0
129140,-100,4,2,1,59,0,0
129339,-100,4,2,1,79,0,0
131127,-100,4,2,2,79,0,0
131326,-100,4,2,1,79,0,0
131922,-100,4,2,2,79,0,0
132121,-100,4,2,1,79,0,0
135895,-100,4,2,2,79,0,0
136094,-100,4,2,1,79,0,0
139074,-100,4,2,2,79,0,0
139273,-100,4,2,1,79,0,0
140664,-100,4,2,2,79,0,0
140862,-100,4,2,1,79,0,0
141856,-100,4,2,1,49,0,0
142054,-100,4,2,1,79,0,0
143048,-100,4,2,2,79,0,0
143246,-100,4,2,1,79,0,0
151789,-100,4,2,2,79,0,0
151988,-100,4,2,1,79,0,0
152982,-100,4,2,2,41,0,0
153180,-100,4,2,2,81,0,0
153379,-100,4,2,2,41,0,0
153578,-100,4,2,1,81,0,0
153776,-100,4,2,2,39,0,0
153975,-100,4,2,2,81,0,0
154174,-100,4,2,2,31,0,0
154372,-100,4,2,1,80,0,0
154571,-100,4,2,1,60,0,0
154869,-100,4,2,1,69,0,0
167286,-100,4,2,1,60,0,0
167485,-100,4,2,1,78,0,0
179604,-100,4,2,2,51,0,0
180001,-100,4,2,1,59,0,0

[Colours]
Combo1 : 190,125,255
Combo2 : 255,117,117
Combo3 : 255,173,91

[HitObjects]
288,312,2087,1,0
288,312,2485,2,0,B|400:272|400:272|464:160,1,240,8|8
408,112,3478,1,2
344,80,3677,6,0,B|224:88|224:88|128:168,1,240,0|0
272,192,4869,1,8
152,272,5266,6,0,B|272:320,1,120,0|8
408,304,6061,2,0,B|320:224,1,120,0|8
384,184,6657,1,0
336,128,6856,6,0,B|232:56|88:104,2,240,0|2|0
400,256,8842,6,0,B|352:312|272:312,1,120,8|0
288,168,9637,2,0,B|256:112|176:88,1,120,8|0
88,192,10432,6,8,B|128:240|128:320,2,120,8|0|8
232,192,11624,6,0,B|288:296|288:296|352:256|408:296,1,240,0|2
402,292,12816,1,8
256,192,13213,12,4,14803
96,192,15200,6,8,B|88:304|88:304|216:304,1,240
360,296,16392,5,0
464,200,16789,2,8,B|448:80|448:80|328:88,1,240
184,112,17982,6,0,B|136:72|64:88,1,120,0|8
56,232,18776,2,0,B|104:272|176:256,1,120,0|8
256,144,19571,6,0,B|304:128|352:152|400:120,3,120,0|8|0|8
392,272,21160,6,0,B|352:328|264:328,1,120,0|8
144,296,21955,1,0
48,192,22352,1,8
144,296,22750,5,0
112,152,23147,2,0,B|208:56|360:88,1,240,8|8
368,224,24339,6,0,B|400:288|464:328,2,120,0|8|0
368,224,25531,1,8
232,280,25929,5,0
96,232,26326,2,8,B|144:96|280:80,1,240
336,88,27319,1,0
408,80,27518,6,0,B|448:200|416:320,1,240,4|2
288,256,28710,1,8
144,288,29107,6,0,B|48:208,1,120,0|8
40,136,29703,1,0
112,160,29902,2,0,B|208:240,1,120,0|8
256,104,30697,5,0
256,104,31094,2,8,B|288:224|416:280,1,240
416,136,32286,5,0
416,136,32684,2,8,B|296:176|256:320,1,240
192,280,33677,1,0
152,216,33876,6,0,B|88:208|48:288,2,120,0|8|0
256,104,35068,1,8
352,216,35465,6,0,B|416:224|456:144,2,120,0|8|0
232,288,36657,1,8
280,152,37054,6,0,B|256:88|184:64,1,120,0|8
344,48,37849,2,0,B|288:40|232:112,1,120,0|8
192,152,38445,1,0
136,200,38644,6,0,B|160:264|232:304,3,120,0|8|0|8
320,200,40233,5,4
88,184,52948,6,0,B|72:112|120:48,2,120,4|8|0
232,176,54140,1,8
320,64,54538,6,0,B|360:184|304:304,2,240,0|2|0
320,64,56525,5,8
456,120,56922,1,0
456,264,57319,2,0,B|368:184,1,120,8|0
392,328,58114,6,0,B|296:240,2,120,8|0|8
248,312,59306,6,0,B|104:304|64:144,1,240
216,192,60498,1,8
160,56,60895,6,0,B|304:64|344:224,1,240
432,88,62087,1,8
424,232,62485,6,0,B|400:304|296:320,1,120,0|8
368,168,63280,1,0
248,256,63677,1,8
248,256,63876,6,0,B|192:312|96:272,1,120,4|2
112,216,64472,2,0,B|120:152|48:96,2,120,2|2|2
184,96,65664,6,0,B|432:96,1,240,4|0
440,240,66856,1,8
304,192,67253,6,0,B|240:336,1,120,0|8
360,208,68048,2,0,B|232:152,1,120,0|8
184,128,68644,1,0
120,88,68842,6,0,B|80:208|128:336,1,240
232,224,70035,1,8
232,224,70432,6,0,B|312:320|464:320,1,240
416,176,71624,1,8
280,128,72021,6,0,B|320:72|416:72,2,120,0|8|0
184,240,73213,1,8
112,224,73412,1,0
160,168,73611,6,0,B|136:104|64:72,2,120,0|8|0
304,192,74803,1,8
424,272,75200,6,0,B|312:328|176:288,1,240
64,224,76392,1,8
208,192,76789,6,8,B|360:192,1,120,0|8
440,104,77584,2,0,B|296:104,1,120,0|8
248,88,78180,1,0
176,64,78379,6,0,B|88:160|96:304,1,240,4|0
240,264,79571,1,8
368,328,79968,6,0,B|456:232|448:88,1,240
336,192,81160,1,8
240,88,81558,6,0,B|192:128|104:120,3,120,0|8|0|8
96,264,83147,6,0,B|144:224|232:232,3,120,0|8|0|8
264,280,84538,1,0
336,296,84737,6,0,B|472:272|464:88,1,240
328,80,85929,1,8
184,72,86326,6,0,B|104:80|48:160,1,120,0|8
216,168,87121,2,0,B|168:216|160:288,1,120,0|8
304,232,87915,6,0,B|312:304|368:344,2,120,0|8|0
440,192,89107,1,8
304,152,89505,6,0,B|312:80|368:40,2,120,0|8|0
232,128,90498,1,0
160,120,90697,1,8
64,208,91094,6,0,B|80:272|184:320,1,120,4|8
280,320,91889,2,0,B|344:336|416:272,1,120,0|8
464,168,92684,6,0,B|400:160|352:200|352:200|288:80,1,240
152,96,93876,1,8
48,192,94273,6,0,B|160:216|160:216|224:336,2,240,0|2|0
152,96,96260,5,8
256,192,96657,1,0
400,216,97054,6,0,B|400:280|328:344,2,120,8|0|8
256,248,98246,2,0,B|128:248,1,120,0|8
72,120,99041,5,0
216,96,99438,2,0,B|344:48|456:144,1,240,8|8
400,192,100432,1,0
448,248,100631,6,0,B|408:296|328:304,1,120,0|8
200,304,101425,1,0
88,216,101823,1,8
216,160,102220,6,0,B|176:88|88:80,2,120,0|8|0
360,184,103412,1,8
368,112,103611,1,8
424,160,103809,6,0,B|456:232|424:320,1,120,4|8
304,328,104604,2,0,B|272:256|304:168,1,120,0|8
256,72,105399,6,0,B|168:160|168:304,1,240,0|2
96,288,106392,1,0
96,288,106591,1,8
240,288,106988,6,0,B|368:288,1,120,0|8
480,208,107783,2,0,B|336:208,1,120,0|8
376,136,108379,1,2
304,160,108578,6,0,B|208:96|72:112,1,240
176,216,109770,1,8
56,296,110167,6,0,B|112:328|184:296,1,120,0|8
232,168,110962,2,0,B|192:224|112:216,1,120,0|8
264,168,111756,6,0,B|304:112|384:120,1,120,0|8
440,128,112352,1,0
456,200,112551,2,0,B|432:344,1,120,0|8
312,248,113346,6,0,B|264:296|192:304,3,120,0|8|0|8
136,272,114737,1,0
136,272,114935,6,0,B|88:232|72:144,1,120,0|8
80,96,115531,1,0
144,128,115730,2,0,B|184:184|256:192,1,120,0|8
296,144,116326,1,8
312,216,116525,1,4
256,192,127650,12,4,129240
456,264,129637,6,8,B|368:336|184:328,1,240
320,216,130829,6,0,B|192:256|64:144,2,240,0|2|0
272,80,132816,1,8
416,88,133213,1,0
288,152,133611,1,8
144,136,134008,6,0,B|72:168|48:264,3,120,0|8|0|8
200,272,135597,6,0,B|304:320|304:320|336:248|424:256,1,240
432,112,136789,1,8
296,152,137187,6,0,B|280:96|184:64,1,120,0|8
96,168,137982,2,0,B|152:128|216:160,1,120,0|8
152,288,138776,6,0,B|216:320|272:280|272:280|384:320,1,240
280,208,139968,1,8
424,184,140366,6,0,B|312:136|312:136|288:72|208:56,1,240
160,96,141359,2,0,B|96:48,2,60,0|8|0
120,160,141955,6,0,B|80:216|96:288,1,120,4|8
216,200,142750,2,0,B|312:104|472:144,1,240,2|0
464,280,143942,5,8
344,192,144339,2,0,B|288:160|264:72,1,120,0|8
128,112,145134,5,0
128,112,145531,2,0,B|232:192|256:344,1,240,8|8
112,264,146723,5,0
112,264,147121,2,8,B|232:224|264:88,1,240
336,88,148114,1,0
408,112,148313,6,0,B|456:168|456:240,2,120,0|8|0
296,200,149505,1,8
296,200,149902,6,0,B|296:272|216:312,2,120,0|8|0
224,208,150895,1,0
152,224,151094,1,8
248,120,151491,6,0,B|376:80|480:176,1,240
392,288,152684,6,0,B|320:304|272:256,1,120,8|8
208,264,153280,1,2
192,192,153478,2,0,B|120:192|72:296,1,120,8|8
40,208,154074,1,2
56,136,154273,2,0,B|128:144|192:104,1,120,8|4
256,192,165796,12,4,167386
256,296,167783,6,0,B|400:304,1,120,0|2
456,184,168578,1,0
344,96,168975,6,2,B|216:80|96:136,1,240
96,272,170167,1,2
160,312,170366,1,0
160,240,170564,6,0,B|224:224|232:152,1,120,2|0
352,232,171359,2,0,B|312:296|240:304,1,120,2|0
168,192,172154,6,0,B|152:128|96:96,2,120,2|0|2
280,104,173346,1,0
424,88,173743,6,0,B|456:224|368:312,1,240,2|2
256,224,174935,1,0
152,328,175333,6,0,B|152:200,1,120,2|0
80,80,176127,2,0,B|80:208,1,120,2|0
80,200,176723,1,0
152,160,176922,6,0,B|256:72,1,120,2|0
376,192,177717,2,0,B|464:192,2,90,2|0|0
328,240,178511,6,0,B|376:336,2,90,2|0|2
272,288,179306,2,0,B|216:168,1,120,0|8
221,178,180101,5,4
