osu file format v9

[General]
AudioFilename: fanshi3kami.mp3
AudioLeadIn: 500
PreviewTime: 91094
Countdown: 0
SampleSet: Soft
StackLeniency: 0.7
Mode: 0
LetterboxInBreaks: 1

[Editor]
DistanceSpacing: 1.8
BeatDivisor: 4
GridSize: 8

[Metadata]
Title:Fanshi 3 Kami Goranshin
Artist:Kakeru Hotarubi
Creator:bakabaka
Version:Insane
Source:Touhou
Tags:littlecar3370 Moriya Suwako

[Difficulty]
HPDrainRate:8
CircleSize:5
OverallDifficulty:7
ApproachRate:8
SliderMultiplier:1.6
SliderTickRate:2

[Events]
//Background and Video events
0,0,"p742438_ayakashi_(pixiv) kochiya_sanae moriya_suwako touhou yasaka_kanako.jpg"
//Break Periods
2,116725,126900
//Storyboard Layer 0 (Background)
//Storyboard Layer 1 (Fail)
//Storyboard Layer 2 (Pass)
//Storyboard Layer 3 (Foreground)
//Storyboard Sound Samples
//Background Colour Transformations
3,100,163,162,255

[TimingPoints]
2088,397.350993377483,4,2,1,79,1,0
7750,-100,4,2,0,71,0,0
8147,-100,4,2,1,81,0,0
14207,-100,4,2,0,71,0,0
14505,-100,4,2,1,81,0,0
14803,-100,4,2,1,51,0,0
15001,-133.333333333333,4,2,1,70,0,0
27518,-100,4,2,1,60,0,0
27617,-100,4,2,1,79,0,0
40233,-100,4,2,1,50,0,0
40333,-100,4,2,1,71,0,0
46591,-100,4,2,1,49,0,0
46690,-100,4,2,1,71,0,0
52948,-100,4,2,1,61,0,0
53048,-100,4,2,1,71,0,0
65664,-100,4,2,1,61,0,0
66160,-100,4,2,1,80,0,0
71326,-100,4,2,0,71,0,0
71723,-100,4,2,1,80,0,0
77684,-100,4,2,0,69,0,0
78081,-100,4,2,1,80,0,0
78280,-100,4,2,1,60,0,0
78478,-100,4,2,1,80,0,0
84041,-100,4,2,0,71,0,0
84438,-100,4,2,1,79,0,0
90001,-100,4,1,1,61,0,0
90399,-100,4,1,1,70,0,0
90796,-100,4,2,1,80,0,0
91094,-100,4,2,1,60,0,1
91193,-100,4,2,1,80,0,1
103511,-100,4,2,2,51,0,1
103710,-100,4,2,1,60,0,1
103909,-100,4,2,1,81,0,1
106293,-100,4,2,0,69,0,1
106690,-100,4,2,1,81,0,1
116227,-100,4,2,2,49,0,1
116525,-100,4,2,1,40,0,0
129240,-100,4,2,1,81,0,0
140763,-100,4,2,1,60,0,0
141160,-100,4,2,1,49,0,0
141558,-100,4,2,1,39,0,0
141955,-100,4,2,1,49,0,0
142054,-100,4,2,1,79,0,0
152982,-100,4,2,2,51,0,0
153180,-100,4,2,2,81,0,0
153478,-100,4,2,2,49,0,0
153578,-100,4,2,2,81,0,0
153876,-100,4,2,2,51,0,0
153975,-100,4,2,2,81,0,0
154273,-100,4,2,2,51,0,0
154372,-100,4,2,2,80,0,0
154670,-133.333333333333,4,2,1,60,0,0
154968,-133.333333333333,4,2,1,69,0,0
167286,-100,4,2,1,78,0,0
179604,-100,4,2,2,51,0,0
179803,-100,4,2,2,78,0,0
180101,-100,4,2,1,51,0,0

[Colours]
Combo1 : 50,50,101
Combo2 : 125,0,0
Combo3 : 136,68,0

[HitObjects]
192,320,2087,2,0,B|96:280,1,80,0|2
144,200,2485,2,0,B|80:128,1,80,8|0
176,88,2882,1,0
176,88,3081,1,2
264,128,3280,5,8
328,56,3478,2,0,B|400:128|392:232,1,160,0|2
392,296,4074,1,8
304,336,4273,1,0
304,240,4472,2,0,B|248:176,1,80,0|2
216,272,4869,2,0,B|152:336,1,80,8|0
96,256,5266,6,0,B|120:200|72:152|120:88,1,160,0|8
192,160,5862,1,2
288,256,6061,6,0,B|264:200|312:152|264:88,1,160,0|8
368,88,6657,2,0,B|416:80|464:104,2,80,2|0|0
416,176,7253,2,0,B|456:216|448:280,1,80,8|2
376,304,7650,2,0,B|336:264|344:200,1,80,0|8
432,136,8048,2,0,B|472:176|464:240,1,80,8|0
408,320,8445,6,0,B|368:280|376:216,1,80,0|2
280,224,8842,2,0,B|248:264|256:336,1,80,8|0
160,328,9240,2,0,B|104:272|112:176,1,160,0|8
160,64,9836,6,0,B|216:120|208:216,1,160,2|2
120,256,10432,1,8
40,200,10631,1,0
136,192,10829,1,0
112,96,11028,1,2
192,152,11227,2,0,B|280:152,1,80,8|0
336,80,11624,6,0,B|232:80,1,80,0|2
360,152,12021,2,0,B|464:152,1,80,8|0
400,80,12419,6,0,B|400:248,1,160,0|8
400,240,13015,1,0
304,216,13213,5,0
232,152,13412,1,2
256,312,13611,2,0,B|176:312,1,80,8|0
152,216,14008,5,0
152,216,14107,1,0
152,216,14207,1,8
96,288,14405,2,0,B|40:296|32:216,1,80,8|0
37,246,14703,1,0
37,246,14803,1,4
96,96,15200,6,0,B|144:56|224:64,1,119.999996423721,8|0
352,88,15995,2,0,B|408:112|440:192,1,119.999996423721,8|0
408,312,16789,1,8
280,248,17187,2,0,B|352:288,1,59.9999982118607
320,192,17584,2,0,B|248:144,1,59.9999982118607,8|0
216,112,17982,6,0,B|160:88|88:112,1,119.999996423721,0|8
72,176,18578,1,0
144,192,18776,2,0,B|128:264|48:272,1,119.999996423721,0|8
200,248,19571,6,0,B|256:288|336:256,1,119.999996423721,0|8
376,304,20167,1,0
376,232,20366,2,0,B|432:192|432:112,1,119.999996423721,0|8
288,96,21160,6,0,B|224:64|160:112,1,119.999996423721,0|8
112,144,21756,1,0
40,160,21955,1,0
176,192,22352,2,0,B|216:240,1,59.9999982118607,8|0
256,176,22750,6,0,B|304:232,1,59.9999982118607
240,288,23147,2,0,B|192:232,1,59.9999982118607,8|0
232,152,23544,2,0,B|288:88,1,59.9999982118607
264,312,23942,2,0,B|216:368,1,59.9999982118607,8|0
376,256,24339,6,0,B|440:248|464:160,1,119.999996423721,0|8
232,120,25134,2,0,B|168:152,1,59.9999982118607
152,80,25531,2,0,B|72:80,1,59.9999982118607,8|0
32,120,25929,5,0
32,264,26326,1,8
176,256,26723,6,0,B|200:272,2,29.9999991059304,0|0|0
136,192,27121,1,0
144,192,27220,1,0
152,192,27319,1,0
160,192,27419,1,0
168,192,27518,6,0,B|266:192,1,80,0|0
344,192,27915,1,8
344,192,28114,1,2
384,104,28313,2,0,B|224:104,1,160,0|8
224,104,28909,1,2
256,224,29107,6,0,B|256:312,1,80,0|0
280,168,29505,1,8
352,280,29703,2,0,B|328:200,1,80,2|0
432,272,30101,1,0
424,192,30299,2,0,B|360:128,1,80,8|2
280,88,30697,6,0,B|200:40|112:80,1,160,0|8
88,176,31293,1,2
192,136,31491,2,0,B|280:160|304:264,1,160,0|8
240,320,32087,1,2
240,320,32286,6,0,B|128:320,1,80,0|0
216,240,32684,2,0,B|128:240,1,80,8|2
80,320,33081,6,0,B|168:320,1,80,0|2
176,192,33478,2,0,B|96:192,1,80,8|2
40,112,33876,6,0,B|0:200|48:288,1,160,0|8
96,192,34472,1,2
152,112,34670,2,0,B|184:88|240:96,2,80,0|0|8
152,112,35266,1,2
200,192,35465,6,0,B|168:240|176:304,3,80,0|0|8|2
272,256,36260,2,0,B|272:304|320:320,1,80,0|0
392,256,36657,2,0,B|392:208|344:192,1,80,8|2
400,312,37054,6,0,B|480:264|456:160,1,160,0|8
272,128,37849,2,0,B|312:72|376:72,2,120,0|2|0
160,184,38644,6,0,B|160:80,1,80,0|2
72,136,39041,2,0,B|72:216,1,80,8|0
72,88,39438,5,0
160,144,39637,1,2
72,200,39836,1,8
160,144,40035,1,0
80,264,40233,6,0,B|168:264,1,80,4|2
248,224,40631,2,0,B|336:208|384:304,2,160,2|0|2
160,192,41624,1,0
88,136,41823,6,0,B|160:64,1,80,0|0
144,80,42220,2,0,B|232:80,1,80,2|0
320,80,42617,2,0,B|416:96|424:208,1,160,0|2
328,176,43213,1,0
272,256,43412,6,0,B|328:320,2,80,0|2|2
88,304,44207,1,0
128,120,44604,2,0,B|32:120,1,80,2|0
128,192,45001,6,0,B|216:200|248:296,1,160,0|2
256,184,45597,2,0,B|176:200|144:304,1,160
64,192,46193,1,2
176,128,46392,6,0,B|176:32,1,80,0|4
256,96,46789,1,0
256,96,46988,2,0,B|352:88|392:160,1,160,2|0
344,240,47584,1,0
440,240,47783,2,0,B|400:328,1,80,2|0
344,240,48180,5,0
96,192,48578,1,2
96,192,48776,1,0
344,128,49174,2,0,B|256:104,1,80,0|2
176,80,49571,1,0
128,168,49770,6,0,B|48:168,1,80,0|2
144,248,50167,2,0,B|56:248,1,80,2|0
168,176,50564,2,0,B|112:104,1,80
192,256,50962,2,0,B|256:336,1,80,2|0
216,184,51359,5,0
208,184,51458,1,0
200,184,51558,1,0
192,184,51657,1,0
184,184,51756,1,2
176,184,51856,1,0
168,184,51955,1,0
160,184,52054,1,2
152,184,52154,2,0,B|136:128|176:80,1,80
216,184,52551,2,0,B|232:240|192:288,1,80,2|0
296,296,52948,5,4
296,296,53147,1,2
296,296,53346,2,0,B|368:248,1,80,8|0
440,200,53743,1,0
440,200,53942,2,0,B|376:104,1,80,2|8
352,48,54339,6,0,B|264:112,1,80
288,96,54737,1,2
208,144,54935,2,0,B|264:240,1,80,8|0
248,213,55333,5,0
248,213,55531,1,2
176,280,55730,1,8
176,280,55929,1,0
176,280,56127,6,0,B|64:280,1,80,0|2
120,168,56525,2,0,B|200:184,1,80,8|0
96,224,56922,2,0,B|16:184,1,80
104,112,57319,2,0,B|184:176,1,80,8|0
40,184,57717,6,0,B|32:80,1,80,0|2
136,152,58114,2,0,B|160:56,1,80,8|0
264,144,58511,2,0,B|320:64,1,80,0|2
416,176,58909,2,0,B|504:136,1,80,8|0
440,232,59306,5,0
344,256,59505,2,0,B|344:344,2,80,2|8|0
272,152,60101,1,0
272,152,60299,2,0,B|272:40,2,80,0|8|0
200,256,60895,6,0,B|104:256,1,80,0|2
88,128,61293,2,0,B|184:128,1,80,8|0
224,280,61690,2,0,B|128:280,1,80,0|2
104,160,62087,2,0,B|216:160,1,80,8|0
256,224,62485,5,0
336,280,62684,1,2
256,224,62882,1,8
336,168,63081,2,0,B|432:168,1,80
352,96,63478,1,0
272,152,63677,1,8
192,96,63876,6,0,B|96:72|48:176,1,160,8|2
152,192,64472,1,2
136,288,64670,1,2
232,200,64869,1,2
296,312,65068,1,2
312,184,65266,1,2
312,184,65366,1,0
312,184,65465,1,2
384,248,65664,6,0,B|448:192|416:80,1,160,4|8
328,104,66260,1,2
240,72,66458,2,0,B|176:128|208:240,1,160,0|8
296,224,67054,1,2
224,288,67253,6,2,B|120:288,1,80,0|2
80,216,67650,2,0,B|168:216,1,80,8|0
256,216,68048,2,0,B|256:104,1,80,0|2
80,216,68445,2,0,B|80:312,2,80,8|0|0
256,136,69240,6,0,B|240:88|272:56,1,80,8|2
344,112,69637,2,0,B|440:120|456:240,1,160,0|8
352,224,70233,1,2
264,272,70432,6,0,B|176:304|88:264,1,160,0|8
48,192,71028,1,2
144,192,71227,2,0,B|72:120,1,80,0|8
160,80,71624,2,0,B|224:144,1,80,8|0
104,80,72021,5,0
408,112,72419,1,8
352,192,72617,1,2
352,192,72717,1,0
352,192,72816,1,0
296,112,73015,2,0,B|256:96|256:32,2,80,0|8|2
256,200,73611,5,0
152,280,73809,2,0,B|64:280,1,80,2|8
200,216,74207,2,2,B|96:216,2,80,0|0|2
72,152,74803,2,0,B|176:152,1,80,8|0
72,152,75200,5,0
256,328,75597,1,8
440,152,75995,2,0,B|352:152,1,80,0|2
360,248,76392,2,0,B|280:208,1,80,8|0
240,296,76789,6,0,B|184:216,2,80,0|2|8
272,168,77386,2,0,B|328:88,2,80,0|0|8
272,168,77882,1,0
272,168,77982,1,8
200,104,78180,1,0
112,136,78379,6,0,B|24:168,1,80,4|2
24,256,78776,2,0,B|120:216,1,80,8|0
64,104,79174,2,0,B|64:200|136:280,1,160,0|8
114,253,79770,1,0
168,176,79968,5,0
216,256,80167,1,2
216,256,80266,1,0
216,256,80366,2,0,B|304:288,1,80,8|0
376,240,80763,2,0,B|472:240,2,80,0|2|8
376,240,81359,1,0
264,216,81558,6,0,B|192:176|176:72,1,160,0|8
264,56,82154,1,2
264,56,82352,2,0,B|346:54|412:136,1,160,0|8
408,208,82948,1,2
408,208,83147,6,0,B|304:208,1,80,0|0
208,160,83544,2,0,B|312:160,1,80,8|2
360,304,83942,2,0,B|264:304,1,80,0|8
136,240,84339,2,0,B|240:240,1,80,8|0
152,328,84737,6,0,B|56:328|56:224,1,160,0|8
112,144,85333,2,0,B|80:120|24:136,2,80,0|0|2
208,144,85929,1,8
112,72,86127,1,0
208,144,86326,6,0,B|248:112|240:40,1,80,0|2
344,152,86723,2,0,B|312:184|256:184,1,80,8|0
352,288,87121,2,0,B|304:288|272:248,1,80,0|2
192,352,87518,2,0,B|184:296|224:248,1,80,8|0
112,272,87915,1,0
112,272,88313,6,0,B|168:200,1,80,8|0
136,112,88710,1,0
48,144,88909,1,2
136,112,89107,2,0,B|216:80,1,80,8|0
336,112,89505,5,0
408,48,89703,1,2
408,216,89902,1,8
320,312,90101,1,0
320,312,90200,1,0
320,312,90299,2,0,B|280:288|288:216,1,80
288,208,90597,1,0
296,176,90697,2,0,B|296:120|248:96,1,80
224,296,91094,6,0,B|128:296,1,80,4|2
136,168,91491,1,8
144,296,91690,1,2
56,264,91889,6,0,B|8:184|64:88,1,160,0|8
52,111,92485,1,2
128,184,92684,2,0,B|208:144,1,80,0|2
208,120,92982,1,0
216,88,93081,2,0,B|296:88,2,80,8|0|0
376,192,93876,6,0,B|288:192,1,80,8|0
264,280,94273,1,0
176,184,94472,1,2
176,312,94670,1,8
176,312,94869,2,0,B|72:272,1,80
176,184,95266,2,0,B|80:144,2,80,2|8|0
280,216,95862,6,0,B|352:248,1,80,0|2
416,176,96260,2,0,B|336:136,1,80,8|0
240,240,96657,2,0,B|304:288,1,80,0|2
448,144,97055,2,0,B|368:80,1,80,8|0
208,112,97452,6,0,B|200:208|144:264,1,160,0|8
56,248,98048,1,2
56,248,98147,1,0
56,248,98246,1,0
40,152,98445,2,0,B|40:104|80:56,1,80,0|8
64,77,98842,1,2
128,144,99041,6,0,B|208:104,1,80,0|2
256,264,99438,2,0,B|168:304,1,80,8|0
280,144,99836,2,0,B|280:56,1,80,0|2
376,240,100233,2,0,B|376:328,1,80,8|0
208,232,100631,6,0,B|168:312|64:312,1,160,0|8
80,216,101227,1,2
80,120,101425,2,0,B|104:80|168:64,1,80
232,112,101823,2,0,B|208:152|144:168,1,80,8|2
232,112,102220,5,0
328,88,102419,1,2
416,136,102617,1,8
288,160,102816,5,2
288,160,102915,1,0
288,160,103015,1,0
400,224,103213,1,2
360,344,103412,1,8
248,280,103611,1,8
248,280,103809,6,0,B|136:280,1,80,4|2
216,200,104207,1,8
120,216,104405,2,0,B|72:240|88:304,2,80,0|0|2
64,144,105001,2,0,B|104:120|152:136,1,80,8|0
200,56,105399,6,0,B|264:112|376:88,1,160,0|8
432,144,105995,1,2
448,240,106193,2,0,B|336:240,1,80,0|8
272,328,106591,2,0,B|360:328,1,80,8|0
264,240,106988,6,0,B|176:240,1,80,0|2
96,336,107386,1,8
96,336,107584,1,0
56,216,107783,2,0,B|56:120,1,80,0|2
176,176,108180,1,8
56,136,108379,1,0
104,48,108578,6,0,B|200:48,1,80,0|2
128,168,108975,2,0,B|224:168,1,80,8|0
384,168,109372,2,0,B|280:168,1,80,0|2
328,48,109770,2,0,B|432:48,1,80,8|0
432,176,110167,6,0,B|432:280|336:328,1,160,0|8
320,224,110763,1,2
240,280,110962,2,0,B|208:312|128:288,2,80,0|2|8
240,280,111558,1,0
184,200,111756,6,0,B|184:104,1,80,0|2
88,200,112154,2,0,B|88:288,1,80,8|0
224,200,112551,2,0,B|248:112,1,80,0|2
48,200,112948,2,0,B|16:296,1,80,8|0
152,152,113346,5,0
152,280,113544,2,0,B|240:280,1,80,2|8
328,192,113942,2,0,B|416:192,2,80,0|0|2
256,88,114538,1,8
256,88,114737,1,0
136,128,114935,6,0,B|48:160,1,80,0|2
128,264,115333,1,8
256,240,115531,1,0
320,96,115730,1,0
464,168,115929,1,2
464,168,116028,1,0
464,168,116127,1,8
400,312,116326,1,8
256,240,116525,1,4
256,192,127650,12,0,129240
136,240,129438,6,0,B|224:240,1,80,2|8
160,160,129836,2,0,B|116:83,1,80
80,176,130233,2,0,B|49:258,1,80,2|8
176,280,130631,6,0,B|272:280,1,80
256,184,131028,2,0,B|168:152,2,80,2|8|0
376,232,131624,2,0,B|464:264,1,80,0|2
392,144,132021,6,0,B|488:144,2,80,8|0|0
336,72,132617,1,2
312,168,132816,2,0,B|280:272,1,80,8|0
200,288,133213,1,0
104,288,133412,1,2
104,288,133611,2,0,B|104:184,1,80,8|0
200,200,134008,5,0
200,56,134207,2,0,B|120:120,1,80,2|8
256,160,134604,1,0
328,56,134803,2,0,B|424:56,2,80,0|2|8
408,152,135399,1,0
296,208,135597,6,0,B|272:296|200:328,1,160,0|8
192,232,136193,1,2
112,288,136392,2,0,B|16:232,1,80,0|2
104,176,136789,2,0,B|64:96,1,80,8|0
168,96,137187,5,0
168,96,137386,1,2
256,48,137584,2,0,B|304:144,1,80,8|0
336,200,137982,1,0
240,200,138180,1,2
384,120,138379,6,0,B|456:168|456:272,1,160,8|0
328,240,138975,1,2
328,240,139074,1,0
328,240,139174,1,8
200,256,139372,2,0,B|200:312|256:344,2,80,0|0|2
104,128,139968,2,0,B|104:80|160:40,2,80,8|0|0
256,192,140465,12,4,141955
448,152,142154,6,0,B|447:240,1,80,2|8
367,288,142551,2,0,B|287:232,1,80
303,144,142948,2,0,B|382:87,1,80,2|8
408,224,143346,6,0,B|408:320,2,80,0|0|2
296,280,143942,2,0,B|272:192,1,80,8|0
248,112,144339,1,0
248,112,144538,1,2
184,256,144737,2,0,B|120:184,1,80,8|0
132,196,145134,5,0
64,128,145333,1,2
64,128,145432,1,0
64,128,145531,1,8
152,96,145730,2,0,B|224:176,1,80
248,64,146127,2,0,B|320:144,2,80,2|8|0
280,184,146723,5,0
392,168,146922,1,2
280,184,147121,1,8
168,200,147319,1,0
280,184,147518,5,0
184,296,147717,1,2
312,360,147915,1,8
408,256,148114,1,0
280,184,148313,6,0,B|280:128|248:96,1,80,0|2
168,128,148710,2,0,B|168:184|200:216,1,80,8|0
312,128,149107,2,0,B|312:72|280:40,1,80,0|2
136,184,149505,2,0,B|136:240|168:272,1,80,8|0
272,312,149902,6,0,B|368:312,1,80,0|2
360,184,150299,2,0,B|472:184,1,80,8|0
488,312,150697,2,0,B|384:312,2,80,0|2|8
328,192,151293,6,0,B|248:192,1,80
248,96,151690,1,2
248,96,151789,1,0
248,96,151889,2,0,B|200:80|144:128,1,80,8|0
88,152,152286,1,0
88,152,152485,2,0,B|32:152,2,40,2|0|8
88,152,152882,1,0
192,224,153081,5,8
200,224,153180,1,0
208,224,153280,1,2
216,224,153379,1,0
224,224,153478,1,8
232,224,153578,1,0
240,224,153677,1,2
248,224,153776,1,0
256,224,153876,1,8
264,224,153975,1,0
272,224,154074,1,2
280,224,154174,1,0
288,224,154273,1,8
296,224,154372,1,0
304,224,154472,1,2
312,224,154571,1,0
320,224,154670,6,0,B|384:248|432:200,1,119.999996423721,4|0
376,152,155266,1,0
432,104,155465,2,0,B|388:51|323:68,1,119.999996423721,2|0
256,88,156061,1,0
160,104,156260,6,0,B|168:160|136:192,1,89.9999973177911,2|0
104,192,156657,2,0,B|80:224|80:272,1,59.9999982118607
81,247,157054,1,2
216,296,157452,6,0,B|272:320|352:304,1,119.999996423721,0|2
333,307,158048,1,0
408,296,158246,2,0,B|472:256,1,59.9999982118607
408,208,158644,2,0,B|464:120,2,89.9999973177911,2|2|0
336,224,159438,6,0,B|264:224|224:168,1,119.999996423721,2|0
176,96,160035,1,0
160,192,160233,2,0,B|136:264,1,59.9999982118607,2|0
72,224,160631,2,0,B|96:152,1,59.9999982118607
112,96,161028,6,0,B|160:120|232:112,1,119.999996423721,2|0
304,112,161624,2,0,B|328:72,2,29.9999991059304,0|0|2
368,144,162021,1,0
368,144,162121,2,0,B|432:160|432:224,1,89.9999973177911
360,224,162617,6,0,B|368:280|336:312,2,89.9999973177911,2|0|0
264,240,163412,2,0,B|256:184|288:152,2,89.9999973177911,2|0|0
256,312,164207,1,2
96,272,164604,1,0
72,104,165001,5,2
168,160,165299,1,0
240,80,165597,1,0
240,80,165796,6,0,B|320:80,1,59.9999982118607,2|0
320,176,166193,2,0,B|384:192,1,59.9999982118607
344,280,166591,2,0,B|384:336,2,59.9999982118607,2|0|0
344,280,167187,1,0
256,328,167386,5,2
160,304,167584,1,0
104,224,167783,2,0,B|64:240|48:288,2,80,0|0|2
104,224,168379,1,0
192,184,168578,1,0
240,104,168776,1,0
240,104,168975,6,0,B|328:80|416:128,1,160,2|0
320,176,169571,1,0
320,176,169770,2,0,B|400:200|432:296,1,160,2|0
320,272,170366,1,0
320,368,170564,6,0,B|240:344|208:248,1,160,2|0
200,160,171160,1,0
128,96,171359,2,0,B|72:168,1,80,2|0
80,158,171657,1,0
80,158,171756,1,0
72,256,171955,1,0
160,216,172154,6,0,B|224:240|256:176|336:208,3,160,2|0|2|0
128,288,173743,5,2
384,288,174140,1,0
416,200,174339,1,0
336,144,174538,2,0,B|368:80|448:88,2,120,2|0|0
208,144,175333,6,0,B|192:192|112:192,1,80,2|0
147,189,175631,1,0
147,189,175730,2,0,B|88:200|64:256,1,80
152,296,176127,5,2
280,360,176425,1,0
224,232,176723,1,0
320,216,176922,6,0,B|416:208,1,80,2|0
320,128,177319,2,0,B|408:88,1,80
256,72,177717,2,0,B|128:72,2,120,2|0|0
256,72,178511,5,2
144,288,178809,1,0
384,288,179107,1,2
256,192,179306,6,0,B|256:296,2,80,0|2|8
256,192,179902,5,0
256,192,180001,1,0
256,192,180101,1,4
