osu file format v9

[General]
AudioFilename: fanshi3kami.mp3
AudioLeadIn: 500
PreviewTime: 91094
Countdown: 0
SampleSet: Soft
StackLeniency: 0.7
Mode: 0
LetterboxInBreaks: 1

[Editor]
DistanceSpacing: 1.2
BeatDivisor: 4
GridSize: 8

[Metadata]
Title:Fanshi 3 Kami Goranshin
Artist:Kakeru Hotarubi
Creator:bakabaka
Version:Hard
Source:Touhou
Tags:littlecar3370 Moriya Suwako

[Difficulty]
HPDrainRate:6
CircleSize:4
OverallDifficulty:5
ApproachRate:6
SliderMultiplier:1.4
SliderTickRate:2

[Events]
//Background and Video events
0,0,"p742438_ayakashi_(pixiv) kochiya_sanae moriya_suwako touhou yasaka_kanako.jpg"
//Break Periods
2,116725,126600
//Storyboard Layer 0 (Background)
//Storyboard Layer 1 (Fail)
//Storyboard Layer 2 (Pass)
//Storyboard Layer 3 (Foreground)
//Storyboard Sound Samples
//Background Colour Transformations
3,100,163,162,255

[TimingPoints]
2088,397.350993377483,4,2,1,79,1,0
14703,-100,4,2,1,51,0,0
15001,-133.333333333333,4,2,1,70,0,0
27419,-100,4,2,1,60,0,0
27617,-100,4,2,1,79,0,0
40134,-100,4,2,1,50,0,0
40333,-100,4,2,1,71,0,0
46491,-100,4,2,1,49,0,0
46690,-100,4,2,1,71,0,0
52849,-100,4,2,1,61,0,0
53048,-100,4,2,1,71,0,0
63776,-100,4,2,1,49,0,0
63975,-100,4,2,1,69,0,0
65564,-100,4,2,1,61,0,0
66160,-100,4,2,1,80,0,0
71525,-100,4,2,1,71,0,0
71723,-100,4,2,1,80,0,0
78280,-100,4,2,1,60,0,0
78478,-100,4,2,1,80,0,0
91094,-100,4,2,1,60,0,1
91193,-100,4,2,1,80,0,1
103511,-100,4,2,2,51,0,1
103710,-100,4,2,1,60,0,1
103909,-100,4,2,1,81,0,1
116227,-100,4,2,2,49,0,1
116425,-100,4,2,1,40,0,0
129140,-100,4,2,1,59,0,0
129339,-100,4,2,1,79,0,0
140763,-100,4,2,1,60,0,0
141160,-100,4,2,1,49,0,0
141558,-100,4,2,1,39,0,0
141856,-100,4,2,1,49,0,0
142054,-100,4,2,1,79,0,0
152982,-100,4,2,2,41,0,0
153180,-100,4,2,2,81,0,0
153379,-100,4,2,2,41,0,0
153578,-100,4,2,2,81,0,0
153776,-100,4,2,2,39,0,0
153975,-100,4,2,2,81,0,0
154174,-100,4,2,2,31,0,0
154372,-100,4,2,2,80,0,0
154571,-133.333333333333,4,2,1,60,0,0
154869,-133.333333333333,4,2,1,69,0,0
167286,-100,4,2,1,60,0,0
167485,-100,4,2,1,78,0,0
179604,-100,4,2,2,51,0,0
179803,-100,4,2,2,78,0,0
180001,-100,4,2,1,59,0,0

[Colours]
Combo1 : 50,50,101
Combo2 : 125,0,0
Combo3 : 136,68,0

[HitObjects]
256,288,2087,1,0
424,256,2485,2,0,B|456:208|440:112,2,140,8|0|8
344,224,3478,1,0
264,192,3677,6,0,B|248:104|144:88,1,140,0|8
40,192,4472,2,0,B|56:280|160:296,1,140,0|8
272,200,5266,5,0
272,200,5664,2,0,B|336:240|344:336,1,140,8|0
416,272,6260,1,0
376,200,6458,2,0,B|456:168,1,70,8|0
424,88,6856,5,0
424,88,7054,1,2
424,88,7253,2,0,B|336:128,1,70,8|0
280,144,7650,1,0
280,144,7849,1,2
280,144,8048,2,0,B|192:112,1,70,8|0
144,80,8445,6,0,B|128:160|40:176,1,140,0|8
112,328,9240,2,0,B|128:248|216:232,1,140,0|8
256,304,9836,6,0,B|312:272|400:304,1,140
416,224,10432,2,0,B|480:168,2,70,8|0|0
416,224,11028,1,2
416,224,11227,1,8
296,104,11624,6,0,B|240:64|144:64,3,140,0|8|0|8
80,80,13015,1,2
96,160,13213,6,0,B|96:256,1,70,0|2
168,272,13611,2,0,B|168:192,1,70
169,202,14008,5,0
240,160,14207,1,2
240,240,14405,1,8
392,312,14803,6,0,B|440:264|432:160,1,140,4|8
320,240,15597,6,0,B|328:184|296:128,1,104.999996870756,0|8
256,96,16193,1,0
192,96,16392,6,0,B|128:96,1,52.4999984353781
80,96,16789,2,0,B|80:160,1,52.4999984353781,8|0
144,152,17187,2,0,B|88:152|48:208,1,104.999996870756,0|8
136,296,17982,6,0,B|192:296|232:240,1,104.999996870756,0|8
344,200,18776,2,0,B|368:256|352:312,2,104.999996870756,0|8|0
360,136,19770,6,0,B|424:136,2,52.4999984353781,0|8|0
304,112,20366,2,0,B|248:152|256:216,1,104.999996870756,0|8
288,256,20962,1,0
256,312,21160,6,0,B|128:312,1,104.999996870756,0|8
96,200,21955,2,0,B|160:200,1,52.4999984353781
96,168,22352,2,0,B|64:120,1,52.4999984353781,8|0
128,152,22750,6,0,B|144:96|208:80,1,104.999996870756,0|8
256,104,23346,1,0
312,88,23544,2,0,B|368:104|392:160,1,104.999996870756,0|8
376,280,24339,6,0,B|328:312|256:296,1,104.999996870756,0|8
232,184,25134,2,0,B|200:216|200:272,1,78.7499976530672
176,272,25531,6,0,B|112:272|80:216,1,104.999996870756,8|0
104,104,26326,1,8
232,104,26723,2,0,B|304:104,2,52.4999984353781,0|0|8
256,176,27319,1,0
256,176,27518,6,0,B|216:240|128:240,2,140,4|8|0
336,144,28511,2,0,B|368:112|424:120,1,70,0|8
384,200,28909,1,0
448,256,29107,6,0,B|384:312|304:248,1,140,0|8
200,144,29902,2,0,B|144:80|56:96,2,140,0|8|0
112,320,31094,5,8
80,128,31491,1,0
216,264,31889,1,8
384,296,32286,6,0,B|296:296,1,70,0|0
352,224,32684,2,0,B|432:224,1,70,8|0
384,152,33081,1,0
384,152,33280,1,0
384,152,33478,6,0,B|336:104|232:80,2,140,8|0|8
160,128,34670,2,0,B|208:176|312:200,1,140,0|8
256,272,35266,1,0
176,304,35465,6,0,B|88:328,1,70
64,256,35862,2,0,B|88:336,1,70,8|0
80,240,36260,2,0,B|168:216,1,70
192,296,36657,2,0,B|160:200,1,70,8|0
144,152,37054,6,0,B|176:88|272:88,1,140,0|8
432,96,37849,2,0,B|400:160|304:160,1,140,0|8
304,240,38445,1,0
304,240,38644,6,0,B|344:264|400:240,1,70,0|2
296,280,39041,2,0,B|256:256|200:280,1,70,8|2
160,216,39438,2,0,B|128:248|152:312,2,70,0|2|8
96,160,40035,2,0,B|128:120|176:136,1,70,2|4
320,104,40631,5,2
320,104,41028,2,0,B|400:120|448:208,1,140,0|2
312,296,41823,5,0
176,192,42220,1,2
176,192,42617,2,0,B|256:160|336:208,1,140,0|2
168,288,43412,6,0,B|88:272|64:168,2,140,0|2|0
152,120,44604,1,2
152,120,45001,6,0,B|304:80,1,140,0|2
184,216,45796,2,0,B|272:224|304:304,1,140,0|2
384,288,46392,1,0
440,224,46591,6,0,B|448:152|392:72,1,140,4|2
320,88,47187,1,0
320,88,47386,2,0,B|160:88,1,140,0|2
192,256,48180,6,0,B|128:304|40:288,2,140,0|2|0
272,224,49174,1,0
304,152,49372,1,2
224,176,49571,1,0
288,232,49770,6,0,B|344:288|432:272,1,140,0|2
456,112,50564,2,0,B|392:168|312:152,1,140,0|2
344,72,51160,1,0
344,72,51359,6,0,B|256:64|192:136,1,140,0|2
136,144,51955,1,0
72,200,52154,2,0,B|72:288,1,70,2|0
152,304,52551,2,0,B|152:216,1,70,0|2
232,264,52948,6,8,B|288:232|288:120,1,140,4|8
448,192,53743,2,0,B|440:272|376:320,1,140,0|8
352,232,54339,1,0
376,152,54538,6,0,B|296:144|240:208,1,140,0|8
224,120,55134,2,0,B|168:176|80:152,1,140
94,155,55730,1,8
184,296,56127,6,0,B|248:256|328:296,2,140,0|8|0
112,248,57121,1,0
184,200,57319,6,0,B|184:112|88:72,2,140,8|0|8
264,160,58313,1,0
344,128,58511,2,0,B|328:208,1,70,2|0
336,112,58909,2,0,B|264:88,1,70,8|0
352,104,59306,6,0,B|416:168,1,70
416,240,59703,2,0,B|384:312|280:328,1,140,8|0
144,312,60498,6,0,B|80:264|72:192,1,140,8|0
184,72,61293,1,8
304,192,61690,1,0
432,80,62087,2,0,B|336:80,1,70,8|0
280,104,62485,6,8,B|208:136|200:224,1,140,0|8
240,288,63081,2,0,B|304:328|376:296,1,140
432,232,63677,1,8
432,232,63876,6,0,B|424:160|360:104,1,140,4|2
312,176,64472,6,2,B|328:216|320:272,1,70
240,224,64869,2,2,B|240:264|208:296,1,70
152,232,65266,2,0,B|128:280|72:272,1,70,0|0
80,192,65664,6,0,B|88:112|176:72,1,140,4|8
256,216,66458,2,0,B|328:224|352:328,1,140,0|8
400,248,67054,1,0
400,248,67253,6,0,B|400:88,1,140,0|8
320,72,67849,1,0
320,72,68048,2,0,B|320:160,1,70
240,112,68445,6,0,B|184:56|88:88,2,140,8|0|8
168,152,69438,1,0
88,176,69637,2,0,B|136:240|224:224,1,140,0|8
256,296,70233,1,0
256,192,70432,12,8,71624
384,192,72021,6,0,B|376:272|288:320,1,140,0|8
311,305,72617,1,0
272,232,72816,1,0
272,232,73015,1,0
216,168,73213,6,0,B|152:200|120:296,1,140,8|0
72,208,73809,2,8,B|8:264,2,70,0|8|0
112,136,74405,2,0,B|32:144,2,70,0|0|8
184,88,75001,1,0
272,88,75200,6,0,B|416:88,2,140,0|8|0
272,176,76193,2,0,B|184:208,2,70,0|8|0
352,184,76789,6,0,B|416:224|432:320,1,140,0|8
344,288,77386,2,0,B|296:232|216:224,1,140,0|2
200,304,77982,6,0,B|120:296|72:232,1,140,8|4
136,88,78776,1,8
304,88,79174,6,0,B|400:88|432:168,2,140,0|8|0
328,168,80167,2,0,B|360:200|352:256,1,70,0|8
272,232,80564,2,0,B|272:280|320:312,1,70
216,320,80962,1,0
184,240,81160,6,0,B|128:288|48:280,1,140,8|0
80,112,81955,1,8
80,112,82154,1,0
80,112,82352,6,0,B|64:184|120:248,2,140,0|8|0
160,136,83346,2,0,B|184:56,1,70,0|8
176,152,83743,2,0,B|248:112,1,70
176,176,84140,5,2
176,176,84339,1,8
344,192,84737,6,0,B|416:160|448:80,1,140,0|8
416,264,85531,2,0,B|352:312|272:280,1,140,0|8
144,192,86326,6,0,B|80:224|72:328,2,140,0|8|0
144,192,87319,1,0
184,120,87518,1,8
256,168,87717,1,0
256,168,87915,6,0,B|256:248|192:304,2,140,0|8|0
312,104,88909,2,0,B|408:104,1,70,0|8
432,176,89306,6,0,B|344:176,2,70,0|0|2
392,248,89902,2,0,B|304:248,1,70,8|2
272,320,90299,2,0,B|360:320,1,70,0|2
304,248,90697,6,0,B|304:168|240:96,1,140,8|4
104,192,91491,5,8
104,192,91690,1,0
104,192,91889,2,0,B|120:272|216:312,1,140,0|8
224,224,92485,1,0
264,152,92684,6,0,B|184:152,1,70
224,72,93081,2,0,B|312:72,1,70,8|0
376,72,93478,2,0,B|448:72,1,70
432,152,93876,6,0,B|352:168|304:240,1,140,8|0
392,256,94472,1,0
392,256,94670,2,0,B|336:320|256:320,1,140,8|0
200,272,95266,2,0,B|160:248|112:296,2,70,0|8|0
280,240,95862,6,0,B|240:168|144:168,1,140,0|8
166,169,96458,1,2
88,200,96657,1,0
88,200,96856,1,2
96,120,97054,6,0,B|48:64,2,70,8|0|0
264,120,97849,2,0,B|336:120|400:48,2,140,8|0|8
304,192,98842,1,0
304,192,99041,6,0,B|376:160|448:176,1,140,0|8
328,296,99836,2,0,B|256:328|184:312,1,140,0|8
192,232,100432,1,0
192,144,100631,6,0,B|144:80|64:80,2,140,0|8|0
112,176,101624,1,0
112,176,101823,2,0,B|72:200|64:248,1,70,8|0
152,256,102220,6,0,B|232:272|296:192,1,140,0|8
328,280,102816,1,0
408,264,103015,1,0
376,184,103213,1,2
448,136,103412,1,8
384,80,103611,1,8
304,80,103809,6,0,B|240:128|152:128,1,140,4|8
174,127,104405,1,0
88,128,104604,2,0,B|64:224|96:288,1,140,0|8
168,248,105200,1,0
232,296,105399,6,0,B|384:296,2,140,0|8|0
232,208,106392,1,2
320,208,106591,1,8
408,208,106789,1,0
360,136,106988,6,0,B|312:80|216:72,1,140,0|8
184,144,107584,1,0
184,144,107783,2,0,B|104:144|56:192,1,140,0|8
128,240,108379,1,0
128,240,108578,6,0,B|280:232,1,140,0|8
232,312,109174,2,0,B|376:232,1,140
360,328,109770,2,0,B|432:200,1,140,8|0
400,128,110366,5,0
400,128,110564,2,0,B|336:72,1,70,8|0
304,152,110962,2,0,B|240:104|160:96,1,140,0|8
96,128,111558,1,0
96,208,111756,6,0,B|96:280,1,70,0|0
168,240,112154,2,0,B|168:160,1,70,8|0
240,208,112551,2,0,B|240:288,1,70
312,320,112948,2,0,B|312:224,1,70,8|0
392,288,113346,5,0
464,136,113743,1,8
296,152,114140,1,0
256,80,114339,1,0
216,152,114538,2,0,B|160:112,1,70,8|0
128,192,114935,6,0,B|64:224|64:320,1,140,0|8
160,280,115531,1,2
240,336,115730,2,0,B|264:264|216:200,1,140,0|8
218,203,116326,1,8
218,203,116525,1,4
256,192,127650,12,4,129240
256,288,129637,5,8
336,256,129836,1,0
408,208,130035,2,0,B|368:144|296:120,1,140,0|8
272,200,130631,1,0
256,288,130829,6,0,B|200:240|112:272,1,140,0|8
72,200,131425,1,0
160,200,131624,6,0,B|208:256|200:352,2,140,0|8|0
192,120,132617,1,0
272,88,132816,2,0,B|344:72,1,70,8|0
416,112,133213,2,0,B|384:184|296:176,1,140,0|8
256,248,133809,1,0
256,248,134008,6,0,B|288:320|392:320,2,140,0|8|0
176,200,135001,1,2
144,296,135200,1,8
240,272,135399,1,2
176,200,135597,6,0,B|96:184|96:88,1,140,0|8
296,96,136392,2,0,B|304:184|216:200,1,140,0|8
200,104,136988,1,0
200,104,137187,6,0,B|248:176|344:176,1,140,0|8
224,216,137783,1,0
128,248,137982,2,0,B|216:272|248:336,1,140,0|8
384,192,138776,6,0,B|392:112|456:72,2,140,0|8|0
296,192,139770,1,0
344,264,139968,1,8
264,272,140167,1,0
256,192,140366,12,4,141955
96,192,142352,5,8
96,192,142551,2,0,B|168:216|192:296,1,140
256,216,143147,2,0,B|224:144|128:104,1,140,8|0
256,96,143743,5,0
344,96,143942,2,0,B|440:96,1,70,8|0
368,168,144339,2,0,B|456:168,1,70
336,240,144737,1,8
216,264,145134,6,0,B|176:320|88:320,1,140,0|8
128,232,145730,1,0
128,232,145929,2,0,B|80:192|88:88,1,140,0|8
184,104,146525,1,0
184,104,146723,6,0,B|192:192,2,70,0|2|8
280,120,147319,1,0
280,120,147518,2,0,B|312:192,2,70,0|2|8
376,112,148114,1,0
376,112,148313,6,0,B|432:160|432:248,1,140,0|8
264,200,149107,2,0,B|248:280|152:320,1,140,0|8
128,240,149703,1,0
48,216,149902,6,0,B|48:120,1,70
88,72,150299,2,0,B|88:168,1,70,8|0
168,128,150697,2,0,B|216:64|312:80,1,140,0|8
291,77,151293,1,0
296,160,151491,6,0,B|216:184|192:280,2,140,0|8|0
360,312,152684,1,8
360,312,152882,1,0
424,256,153081,6,0,B|448:232|464:176,1,70,8|2
360,184,153478,1,8
384,88,153677,1,2
288,120,153876,2,0,B|280:80|248:48,1,70,8|2
184,128,154273,1,8
88,96,154472,1,2
104,200,154670,6,0,B|104:256|152:312,1,104.999996870756,4|0
312,320,155465,2,0,B|312:264|264:208,1,104.999996870756,2|0
304,168,156061,1,0
368,176,156260,6,0,B|416:192|456:152,2,78.7499976530672,2|0|0
384,112,157054,2,0,B|344:72|264:80,1,104.999996870756,2|0
144,88,157849,6,0,B|104:136|112:192|72:240,1,157.499995306134,2|0
136,272,158644,2,0,B|176:224|168:168|208:120,1,157.499995306134,2|0
256,104,159438,6,0,B|320:72,1,52.4999984353781,2|0
360,104,159836,2,0,B|416:136,2,52.4999984353781,0|0|2
320,152,160432,2,0,B|280:192,2,52.4999984353781
368,192,161028,6,0,B|392:248|360:312,1,104.999996870756,2|0
304,256,161624,1,0
240,288,161823,6,0,B|216:328|152:320,2,78.7499976530672,2|0|0
176,248,162617,2,0,B|200:208|264:216,2,78.7499976530672,2|0|0
112,288,163412,6,0,B|72:264|72:200,1,78.7499976530672,2|0
73,222,164008,1,0
88,160,164207,6,0,B|120:112|192:112,1,104.999996870756,2|0
304,112,165001,2,0,B|360:112|408:160,1,104.999996870756,2|0
400,216,165597,1,0
368,272,165796,6,0,B|312:312,1,52.4999984353781,2|0
280,256,166193,1,2
280,256,166392,1,0
232,296,166591,2,0,B|176:336,1,52.4999984353781,2|0
144,288,166988,6,0,B|96:256|80:184,1,104.999996870756,2|4
248,152,167783,1,0
200,88,167982,1,0
280,80,168180,1,2
400,192,168578,2,0,B|456:144,2,70,0|0|2
240,256,169372,6,0,B|288:304|368:312,2,140,0|2|0
168,304,170366,1,0
168,304,170564,6,0,B|96:272|64:184,1,140,2|0
64,120,171160,1,0
152,120,171359,2,0,B|224:152|256:240,1,140,2|0
312,168,171955,1,0
304,88,172154,6,0,B|384:88|440:176,3,140,2|0|2|0
424,232,173544,1,0
368,296,173743,6,0,B|224:296,1,140,2|0
144,296,174339,1,0
184,224,174538,2,0,B|96:232|40:152,1,140,2|0
104,104,175134,1,0
184,136,175333,6,0,B|240:80|336:88,1,140,2|0
408,104,175929,1,0
448,192,176127,2,0,B|432:264|352:304,1,140,2|0
344,216,176723,1,0
344,216,176922,6,0,B|360:144|312:80,1,140,2|0
232,96,177518,1,0
152,112,177717,2,0,B|88:104|40:176,2,105,2|0|0
136,208,178511,5,2
256,296,178809,1,0
376,208,179107,1,2
336,120,179306,5,0
256,176,179505,2,0,B|256:96,2,70,0|8|0
256,176,180101,5,4
