osu file format v14

[General]
AudioFilename: 02 - let the stars fall down.mp3
AudioLeadIn: 0
PreviewTime: 32891
Countdown: 0
SampleSet: Soft
StackLeniency: 0.7
Mode: 0
LetterboxInBreaks: 0
WidescreenStoryboard: 0

[Editor]
DistanceSpacing: 1
BeatDivisor: 16
GridSize: 4
TimelineZoom: 1

[Metadata]
Title:let the stars fall down
TitleUnicode:let the stars fall down
Artist:Kajiura Yuki
ArtistUnicode:梶浦由記
Creator:Kurokami
Version:Normal
Source:Fate/Zero
Tags:anime soundtrack kalafina aniplex ost mystykamv toybot Genocide Prophecy
BeatmapID:571819
BeatmapSetID:247404

[Difficulty]
HPDrainRate:4
CircleSize:3
OverallDifficulty:4
ApproachRate:5
SliderMultiplier:1.4
SliderTickRate:1

[Events]
//Background and Video events
0,0,"bg.jpg",0,0
//Break Periods
//Storyboard Layer 0 (Background)
//Storyboard Layer 1 (Fail)
//Storyboard Layer 2 (Pass)
//Storyboard Layer 3 (Foreground)
//Storyboard Sound Samples

[TimingPoints]
2291,450.001125002813,4,2,0,70,1,0
32891,-125,4,2,0,50,0,0
40091,-100,4,2,0,80,0,1
54491,-100,4,2,0,80,0,0

[Colours]
Combo1 : 106,95,173
Combo2 : 160,138,172
Combo3 : 193,70,73
Combo4 : 218,218,218

[HitObjects]
288,288,2291,6,0,P|384:288|412:260,1,140,4|0,0:0|3:0,0:0:0:0:
444,172,3041,1,0,0:0:0:0:
444,124,3191,2,0,P|412:88|368:72,2,93.3333333333333,0|0|0,3:0|3:0|3:0,0:0:0:0:
360,168,4091,6,0,P|308:148|272:72,1,140,4|0,0:0|3:0,0:0:0:0:
204,12,4841,1,0,0:0:0:0:
168,40,4991,2,0,P|120:52|76:44,1,93.3333333333333,0|0,3:0|3:0,0:0:0:0:
4,100,5591,1,0,3:0:0:0:
84,144,5891,6,0,P|104:212|76:276,1,140,4|0,0:0|3:0,0:0:0:0:
12,340,6641,1,0,0:0:0:0:
48,372,6791,2,0,P|96:384|140:372,1,93.3333333333333,0|0,3:0|0:0,0:0:0:0:
224,336,7391,1,0,0:0:0:0:
284,264,7691,6,0,P|344:228|412:240,1,140,2|0,3:2|0:0,0:0:0:0:
484,300,8441,1,0,0:0:0:0:
508,260,8591,2,0,P|484:172|396:140,1,186.666666666667,4|0,0:0|0:0,0:0:0:0:
308,148,9491,6,0,P|276:100|296:24,1,140,2|0,3:2|3:0,0:0:0:0:
388,4,10241,2,0,L|432:20,1,46.6666666666667,0|0,0:0|3:0,0:0:0:0:
512,72,10691,1,0,0:0:0:0:
504,164,10991,1,0,0:0:0:0:
436,228,11291,6,0,P|380:256|308:236,1,140,4|0,0:0|3:0,0:0:0:0:
368,164,12041,2,0,L|324:144,1,46.6666666666667,0|0,0:0|3:0,0:0:0:0:
236,124,12491,1,0,3:0:0:0:
144,140,12791,1,0,3:0:0:0:
52,124,13091,6,0,P|64:192|120:232,1,140,2|0,3:2|3:0,0:0:0:0:
208,212,13841,1,0,0:0:0:0:
256,212,13991,2,0,P|312:176|324:108,1,140,0|0,3:0|0:0,0:0:0:0:
260,36,14741,1,0,0:0:0:0:
220,16,14891,6,0,P|156:12|104:64,1,140,0|0,3:0|3:0,0:0:0:0:
88,152,15641,1,0,0:0:0:0:
96,200,15791,2,0,P|180:248|256:212,1,186.666666666667,0|0,3:0|3:0,0:0:0:0:
312,140,16691,6,0,P|344:224|288:300,1,186.666666666667,4|0,0:0|0:0,0:0:0:0:
216,348,17591,2,0,P|148:352|100:304,1,140,2|0,3:2|3:0,0:0:0:0:
92,260,18191,1,0,3:0:0:0:
184,264,18491,6,0,P|160:196|100:168,1,140,2|0,3:2|3:0,0:0:0:0:
56,176,19091,1,0,0:0:0:0:
0,100,19391,2,0,P|32:36|140:32,1,186.666666666667,2|0,3:2|0:0,0:0:0:0:
200,100,20291,6,0,P|260:116|332:88,1,140,2|0,3:2|0:0,0:0:0:0:
460,32,21191,2,0,B|484:72|484:72|496:120,2,93.3333333333333,2|0|0,3:2|3:0|3:0,0:0:0:0:
408,108,22091,6,0,L|440:248,1,140,2|0,3:2|0:0,0:0:0:0:
308,192,22991,2,0,L|348:376,1,186.666666666667,2|0,3:0|0:0,0:0:0:0:
256,384,23891,6,0,P|164:380|124:304,1,186.666666666667,2|0,3:2|0:0,0:0:0:0:
216,304,24791,2,0,P|192:244|124:212,1,140,2|0,3:2|3:0,0:0:0:0:
80,220,25391,1,0,0:0:0:0:
0,168,25691,6,0,P|8:108|72:64,1,140,2|0,3:2|0:0,0:0:0:0:
116,72,26291,1,0,0:0:0:0:
196,120,26591,2,0,P|292:112|332:40,1,186.666666666667,2|0,3:2|0:0,0:0:0:0:
240,36,27491,6,0,P|160:36|116:72,1,140,2|0,3:2|3:0,0:0:0:0:
40,188,28391,2,0,P|52:240|84:264,1,93.3333333333333,2|0,3:2|0:0,0:0:0:0:
128,256,28841,2,0,P|176:268|200:304,1,93.3333333333333,0|0,3:0|0:0,0:0:0:0:
200,348,29291,6,0,P|272:376|328:352,1,140,2|0,3:2|0:0,0:0:0:0:
396,292,30041,1,0,0:0:0:0:
424,252,30191,2,0,P|448:216|452:168,2,93.3333333333333,2|0|0,3:2|3:0|3:0,0:0:0:0:
360,184,31091,6,0,P|316:128|212:144,1,186.666666666667,2|0,3:2|0:0,0:0:0:0:
276,212,31991,2,0,P|192:236|124:172,1,186.666666666667,2|0,3:2|0:0,0:0:0:0:
144,84,32891,6,0,P|52:112|32:156,1,149.333333333333,2|0,0:0|0:0,0:0:0:0:
52,244,33791,2,0,P|100:304|168:336,1,149.333333333333,2|0,0:0|0:0,0:0:0:0:
252,348,34691,6,0,P|304:332|352:288,1,112,2|0,0:0|0:0,0:0:0:0:
372,256,35291,1,0,0:0:0:0:
420,180,35591,2,0,P|408:112|340:80,1,149.333333333333,2|0,0:0|0:0,0:0:0:0:
336,168,36491,6,0,P|284:152|252:104,1,112,2|0,0:0|0:0,0:0:0:0:
252,60,37091,1,0,0:0:0:0:
172,20,37391,2,0,P|108:52|32:36,1,149.333333333333,2|0,0:0|0:0,0:0:0:0:
4,120,38291,6,0,P|76:144|120:200,1,149.333333333333,2|0,0:0|0:0,0:0:0:0:
56,264,39191,2,0,P|128:288|192:256,1,149.333333333333,2|0,0:0|0:0,0:0:0:0:
264,200,40091,6,0,P|280:280|248:328,1,140,4|0,0:0|3:0,0:0:0:0:
192,256,40841,1,0,0:0:0:0:
176,212,40991,2,0,P|180:168|208:128,2,93.3333333333333,0|0|0,3:0|0:0|0:0,0:0:0:0:
264,200,41891,6,0,P|300:140|280:72,1,140,4|0,0:0|3:0,0:0:0:0:
208,128,42641,1,0,0:0:0:0:
160,132,42791,2,0,P|112:124|80:96,1,93.3333333333333,0|0,3:0|3:0,0:0:0:0:
88,4,43391,1,0,3:0:0:0:
180,20,43691,6,0,P|228:48|308:32,1,140,4|0,0:0|3:0,0:0:0:0:
400,12,44441,1,0,0:0:0:0:
444,24,44591,2,0,P|468:64|460:108,1,93.3333333333333,0|0,3:0|0:0,0:0:0:0:
400,180,45191,1,0,0:0:0:0:
328,240,45491,6,0,P|268:252|208:208,1,140,2|0,3:2|3:0,0:0:0:0:
212,116,46241,1,0,0:0:0:0:
168,124,46391,2,0,P|112:204|152:284,1,186.666666666667,4|0,0:0|3:0,0:0:0:0:
216,336,47291,6,0,P|284:352|352:332,1,140,4|0,0:0|3:0,0:0:0:0:
428,280,48041,1,0,0:0:0:0:
444,236,48191,2,0,P|440:184|416:152,1,93.3333333333333,0|0,3:0|0:0,0:0:0:0:
336,108,48791,1,0,0:0:0:0:
264,168,49091,6,0,P|196:176|140:132,1,140,2|0,3:2|3:0,0:0:0:0:
192,56,49841,1,0,0:0:0:0:
236,44,49991,2,0,L|324:12,1,93.3333333333333,0|0,3:0|0:0,0:0:0:0:
408,52,50591,1,0,3:0:0:0:
500,28,50891,6,0,P|488:104|436:144,1,140,4|0,0:0|3:0,0:0:0:0:
348,128,51641,1,0,0:0:0:0:
308,148,51791,2,0,P|288:220|324:276,1,140,0|0,3:0|0:0,0:0:0:0:
404,316,52541,1,0,0:0:0:0:
372,348,52691,6,0,P|304:364|244:328,1,140,2|0,3:2|3:0,0:0:0:0:
188,256,53441,1,0,0:0:0:0:
176,212,53591,2,0,P|212:136|308:120,1,186.666666666667,0|0,3:0|3:0,0:0:0:0:
388,160,54491,6,0,P|392:88|348:40,1,140,2|0,3:2|3:0,0:0:0:0:
260,16,55241,1,0,0:0:0:0:
216,28,55391,2,0,L|132:72,2,93.3333333333333,0|0|0,3:0|0:0|0:0,0:0:0:0:
308,28,56291,6,0,P|368:24|432:68,1,140,4|0,0:0|3:0,0:0:0:0:
476,152,57041,1,0,0:0:0:0:
460,196,57191,2,0,L|432:292,2,93.3333333333333,0|0|0,3:0|3:0|0:0,0:0:0:0:
384,144,58091,1,4,0:0:0:0:
