osu file format v7

[General]
AudioFilename: Kajiura Yuki - When Two Powers Collide.mp3
AudioLeadIn: 1985
PreviewTime: 40490
Countdown: 1
SampleSet: Soft
StackLeniency: 0.7
Mode: 0
LetterboxInBreaks: 1

[Editor]
Bookmarks: 3227,5753,8279,10806,11279,11753,12227,12701,15227,15858,16332,16806,17279,17753,18385,18858,19332,25648,40490,52806,52964,55016,142174,142490,148490,149753,162858,163332,163806,214174,215122,240852
DistanceSpacing: 1.20000004768372
BeatDivisor: 4
GridSize: 8

[Metadata]
Title:When Two Powers Collide
Artist:Kajiura Yuki
Creator:Lizbeth
Version:Insane
Source:Tsubasa Chronicle
Tags:Future Soundscape Lissette

[Difficulty]
HPDrainRate:7
CircleSize:4
OverallDifficulty:7
SliderMultiplier:2.4
SliderTickRate:1

[Events]
//Background and Video events
0,0,"Tsubasa_Kurogane.jpg"
//Break Periods
2,21579,24110
2,26631,29479
2,31684,34216
2,61526,65163
2,119631,139373
//Storyboard Layer 0 (Background)
//Storyboard Layer 1 (Fail)
//Storyboard Layer 2 (Pass)
//Storyboard Layer 3 (Foreground)
//Storyboard Sound Samples
//Background Colour Transformations
3,100,0,0,0

[TimingPoints]
695,631.578947368421,4,1,0,31,1,0
10648,-200,4,2,0,50,0,0
19964,-100,4,1,0,50,0,0
21069,-100,4,1,0,79,0,0
21543,-100,4,1,0,51,0,0
25174,-100,4,1,0,79,0,0
25490,-100,4,1,0,51,0,0
25806,-100,4,1,0,81,0,0
26595,-100,4,1,0,51,0,0
31174,-100,4,1,0,80,0,0
31648,-100,4,1,0,52,0,0
36227,-100,4,1,0,81,0,0
37964,-100,4,1,0,80,0,0
38911,-100,4,2,1,60,0,0
59911,-100,4,2,1,59,0,0
60227,-100,4,2,1,80,0,0
60543,-100,4,2,1,69,0,0
60858,-100,4,2,1,81,0,0
61174,-100,4,2,1,60,0,0
65753,-100,4,1,0,80,0,0
66701,-100,4,1,0,49,0,0
68437,-100,4,1,0,80,0,0
69227,-100,4,1,0,52,0,0
70964,-100,4,1,0,81,0,0
71753,-100,4,1,0,53,0,0
73490,-100,4,1,0,80,0,0
74279,-100,4,1,1,51,0,0
75701,-100,4,1,1,0,0,0
76490,-100,4,1,1,50,0,0
76964,-100,4,2,1,59,0,0
116911,-100,4,1,1,0,0,0
149122,-100,4,1,1,49,0,0
150069,-100,4,1,1,29,0,0
159700,-200,4,2,1,51,0,0
161911,-200,4,1,0,49,0,0
162700,-200,4,2,0,51,0,0
164437,-200,4,1,0,50,0,0
165227,-200,4,2,0,51,0,0
166964,-200,4,1,0,50,0,0
167753,-200,4,2,0,49,0,0
169964,-100,4,1,0,50,0,0
170595,-100,4,2,1,61,0,0
179279,-100,4,1,0,51,0,0
180227,-100,4,1,0,80,0,0
180700,-100,4,2,1,61,0,0
215279,-100,4,1,0,80,0,0
215753,-100,4,1,0,51,0,0
217490,-100,4,1,0,79,0,0
218279,-100,4,1,0,51,0,0
220016,-100,4,1,0,81,0,0
220806,-100,4,1,0,52,0,0
222543,-100,4,1,0,81,0,0
223332,-100,4,1,0,51,0,0
225069,-100,4,1,0,80,0,0
225858,-100,4,1,0,51,0,0
227595,-100,4,1,0,81,0,0
228385,-100,4,1,0,52,0,0
230122,-100,4,1,0,81,0,0
230753,-100,4,1,0,51,0,0
232648,-100,4,1,0,81,0,0
233279,-100,4,1,0,52,0,0
234858,-100,4,2,0,0,0,0

[Colours]
Combo1 : 255,255,255
Combo2 : 223,0,0

[HitObjects]
32,40,695,1,4
168,96,1010,1,0
120,152,1168,1,0
40,272,1484,1,0
88,320,1642,1,0
256,352,1958,5,0
352,296,2116,1,0
256,240,2273,1,0
352,176,2431,1,0
256,128,2589,1,0
456,40,2905,6,0,L|456:88,4,30,0|0|0|0|4
336,96,3537,1,0
392,144,3695,1,0
464,264,4010,1,0
424,320,4168,1,0
256,352,4484,5,0
144,288,4642,1,0
256,240,4800,1,0
144,184,4958,1,0
256,135,5116,1,0
256,32,5431,6,0,L|256:80,4,30,0|0|0|0|4
192,136,6063,1,0
119,135,6221,1,0
320,136,6537,1,0
392,136,6694,1,0
368,248,7010,5,0
312,344,7168,1,0
256,248,7326,1,0
200,344,7484,1,0
144,248,7642,1,0
256,360,7958,6,0,L|256:330,4,30,0|0|0|0|4
352,256,8589,1,0
304,200,8747,1,0
171,258,9063,1,0
216,200,9221,1,0
144,128,9537,5,0
200,24,9694,1,0
256,128,9852,1,0
312,24,10010,1,0
368,128,10168,1,0
48,40,10484,5,0
120,344,10800,6,0,B|96:280,1,60,4|0
224,232,11273,2,0,B|200:176,1,60,2|0
64,208,11747,2,0,B|40:152,1,60,2|0
168,96,12221,2,0,B|144:32,1,60,2|0
16,40,12694,1,2
392,344,13326,6,0,B|416:280,1,60,4|0
288,232,13800,2,0,B|312:176,1,60,2|0
448,208,14273,2,0,B|472:152,1,60,2|0
344,96,14747,2,0,B|368:32,1,60,2|0
496,40,15221,1,2
120,40,15852,6,0,B|96:104,1,60,4|0
224,152,16326,2,0,B|200:208,1,60,2|0
64,176,16800,2,0,B|40:232,1,60,2|0
168,288,17273,2,0,B|144:352,1,60,2|0
16,344,17747,1,2
392,40,18379,6,0,B|416:104,1,60,4|0
288,152,18852,2,0,B|312:208,1,60,2|0
457,180,19326,1,2
112,320,20273,5,0
256,56,20589,1,0
400,320,20905,1,0
256,56,21221,5,0
256,56,21379,1,0
96,48,25010,5,0
96,336,25326,1,0
416,48,25642,1,0
416,336,25958,1,0
256,192,26273,5,0
256,192,26431,1,0
256,192,30379,5,0
184,56,30695,1,0
256,56,30852,1,0
328,56,31010,1,0
256,344,31326,5,0
256,344,31484,1,0
256,40,35116,5,0
256,40,35273,1,0
256,40,35431,1,0
40,192,35747,5,0
472,192,36063,1,0
256,352,36379,5,0
256,352,36537,1,0
144,192,38273,5,0
256,88,38431,1,0
368,192,38589,1,0
240,40,41116,6,0,B|168:32|128:80,1,120,8|0
80,120,41589,1,0
64,184,41747,1,2
256,192,42063,5,0
272,344,42379,6,0,B|344:352|384:304,1,120,8|0
432,264,42852,1,0
448,200,43010,1,2
256,192,43326,5,0
424,56,43642,5,8
272,56,43958,1,0
208,88,44116,1,0
144,56,44273,1,2
80,88,44431,1,0
16,56,44589,1,0
24,312,44905,5,8
184,304,45221,1,0
240,344,45379,1,0
304,312,45537,1,2
368,344,45695,1,0
424,304,45852,1,0
256,40,46168,6,0,B|104:40,1,120,8|2
32,104,46642,2,0,B|176:104,1,120
256,160,47116,6,0,B|256:264,1,60,2|0
256,344,47431,6,0,B|408:344,1,120,8|2
480,280,47905,2,0,B|336:280,1,120
88,56,48537,6,0,B|16:56,1,60,0|8
424,56,49010,2,0,B|484:56,1,60,0|0
256,224,49484,2,0,B|256:360,1,120
344,288,49958,5,10
152,208,50273,1,0
448,88,50589,1,2
48,24,50905,1,0
256,352,51221,2,0,B|256:112,1,240,8|2
416,336,52168,5,0
432,192,52326,1,0
400,55,52484,2,0,B|152:128,1,240,8|2
432,192,53431,1,0
183,272,53747,2,0,B|413:339,1,240,8|2
472,40,55010,6,0,B|280:40,1,180,8|0
112,40,55958,1,0
16,288,56273,2,0,B|272:288,1,240,8|2
376,40,57221,1,0
496,288,57537,2,0,B|240:288,1,240,8|2
136,40,58484,1,0
16,288,58800,2,0,B|256:288,1,240,8|2
256,40,60063,5,2
152,336,60379,1,0
424,152,60695,1,2
88,152,61010,1,0
360,336,61326,1,2
256,304,66063,6,0,B|256:168,1,120,0|4
472,56,66852,5,0
40,56,67326,1,0
472,56,67800,1,0
256,320,68589,5,0
336,200,68747,1,0
176,200,68905,1,4
472,328,69379,5,0
40,328,69852,1,0
472,328,70326,1,0
256,32,71116,6,0,B|256:160,1,120,0|4
448,344,71905,5,0
256,32,72379,1,0
64,344,72852,1,0
176,160,73642,5,0
256,32,73800,1,0
336,160,73958,1,4
448,344,74431,5,0
256,32,74905,1,0
64,344,75379,1,0
256,32,75852,2,0,B|256:288,1,240
32,40,77116,6,0,B|176:24|216:176,1,240,0|2
80,336,78063,1,0
328,336,78379,1,2
80,336,78695,1,0
328,336,79010,2,0,B|364:199|508:215,1,240,8|2
256,31,80273,6,0,B|142:13|95:155,1,180
438,352,81221,1,0
432,38,81537,6,0,B|379:152|438:284,1,240,8|2
440,352,82484,1,0
138,310,82800,6,0,B|257:257|371:310,1,240,0|2
440,350,83747,1,0
256,208,84063,12,0,85326
256,32,85800,5,0
256,352,86273,1,0
256,32,86589,6,0,B|288:136|216:208|272:296,1,240,8|2
440,176,87537,5,0
80,120,87852,1,2
416,272,88168,1,0
64,216,88484,1,2
384,360,88800,1,0
40,304,89116,2,0,B|296:368,2,240,8|2|0
40,304,90852,5,0
40,304,91326,1,0
128,16,91642,6,0,B|32:104|24:232,1,240,8|2
40,304,92589,1,0
280,104,92905,6,0,B|152:152|64:296,1,240,0|2
40,304,93852,1,0
352,264,94168,6,0,B|208:240|80:336,3,240,8|2|0|2
392,336,96695,5,8
104,184,97010,1,0
104,112,97168,1,0
104,40,97326,1,2
104,40,97958,5,8
392,192,98273,1,0
392,264,98431,1,0
392,336,98589,1,2
104,344,99221,5,8
392,192,99537,1,0
392,120,99695,1,0
392,48,99852,1,2
392,48,100484,5,8
104,184,100800,1,0
104,256,100958,1,0
104,328,101116,1,2
256,40,101747,5,8
192,320,102063,1,0
256,352,102221,1,0
320,320,102379,1,2
256,352,103010,5,8
192,72,103326,1,0
256,40,103484,1,0
320,72,103642,1,2
256,40,104273,5,8
320,320,104589,1,0
256,352,104747,1,0
192,320,104905,1,2
256,352,105537,5,8
164,96,105852,1,0
220,48,106010,1,0
292,48,106168,1,2
348,96,106326,1,0
400,352,106800,6,0,B|360:296,1,60,8|0
112,352,107273,2,0,B|152:296,1,60,0|2
312,64,108063,6,0,B|176:64,1,120,8|0
216,136,108537,1,0
144,136,108695,1,2
200,320,109326,2,0,B|336:320,1,120,8|0
296,248,109800,1,0
368,248,109958,1,2
184,40,110589,5,8
184,40,110747,1,0
328,40,111063,1,0
328,40,111221,1,2
328,40,111379,1,0
432,336,111852,6,0,B|288:328|248:168,1,240,8|2
136,64,113116,2,0,B|88:128,1,60,8|0
376,64,113589,2,0,B|424:128,1,60,0|2
80,336,114379,6,0,B|224:328|264:168,1,240,8|2
376,64,115642,2,0,B|424:128,1,60,8|0
136,64,116116,2,0,B|88:128,1,60,0|2
256,208,116905,12,0,119431
256,208,140273,12,0,142168
256,208,142484,12,4,149747
152,264,150221,5,0
360,264,150695,1,0
256,176,151010,5,0
352,136,151168,1,0
256,96,151326,1,0
160,56,151484,1,0
256,16,151642,1,0
400,40,151958,6,0,L|432:8,4,30,0|0|0|0|4
400,192,152589,1,0
400,192,152747,1,0
240,40,153063,1,0
240,40,153221,1,0
248,192,153537,5,0
160,160,153695,1,0
176,256,153852,1,0
88,216,154010,1,0
96,312,154168,1,0
80,48,154484,6,0,B|59:27,4,30,0|0|0|0|4
80,168,155116,2,0,B|80:232,1,60
195,51,155589,2,0,B|275:51,1,60,0|0
248,200,156063,5,0
344,152,156221,1,0
315,259,156379,1,0
416,208,156537,1,0
384,312,156695,1,0
256,32,157010,6,0,B|256:0,4,30,0|0|0|0|4
176,152,157642,5,0
176,152,157800,1,0
336,152,158116,1,0
336,152,158273,1,0
256,368,158589,5,0
344,320,158747,1,0
256,280,158905,1,0
168,240,159063,1,0
256,192,159221,1,0
256,192,159537,1,0
192,128,159852,6,0,B|144:64,1,60,4|0
192,256,160326,2,0,B|144:320,1,60,2|0
320,256,160800,2,0,B|368:320,1,60,2|0
320,128,161273,2,0,B|368:64,1,60,2|0
256,192,161747,1,2
168,104,162063,5,0
168,104,162221,1,0
168,104,162379,2,0,B|120:40,1,60,4|0
168,280,162852,2,0,B|120:344,1,60,2|0
344,280,163326,2,0,B|392:344,1,60,2|0
344,104,163800,2,0,B|392:40,1,60,2|0
256,192,164273,1,2
128,80,164589,5,0
128,80,164747,1,0
128,80,164905,2,0,B|80:16,1,60,4|0
128,304,165379,2,0,B|80:368,1,60,2|0
384,304,165852,2,0,B|432:368,1,60,2|0
384,80,166326,2,0,B|432:16,1,60,2|0
256,192,166800,1,2
152,80,167116,5,0
152,80,167273,1,0
152,80,167431,2,0,B|104:8,1,60,4|0
208,312,167905,2,0,B|184:392,1,60,2|0
408,160,168379,2,0,B|480:152,1,60,2|0
256,208,168852,12,0,169958
256,80,170273,5,0
256,80,170431,1,0
96,216,171221,5,2
416,96,171537,1,0
64,160,171852,1,2
392,32,172168,1,0
24,96,172484,2,0,B|144:40|288:88,1,240,2|2
456,280,173747,2,0,B|384:344|272:312,1,180,2|0
256,40,174695,5,0
256,40,175010,2,0,B|160:136|24:104,1,240,2|0
256,40,175958,1,0
256,40,176273,2,0,B|352:136|488:104,1,240,2|0
256,40,177221,5,0
256,40,177537,2,0,B|280:128|184:184|256:280,2,240,2|0|2
312,328,179431,5,0
168,328,179747,1,0
24,328,180063,1,0
168,40,180379,5,0
168,40,180537,1,0
456,240,181326,6,0,B|448:320|376:328,4,120,2|0|0|0|2
256,32,183221,1,0
55,163,183852,2,0,B|40:304|160:360,1,240,2|0
416,80,184800,1,0
55,163,185116,6,0,B|40:304|160:360,1,240,2|0
416,80,186063,1,0
55,163,186379,6,0,B|40:304|160:360,1,240,2|0
416,80,187326,1,0
55,163,187642,6,0,B|40:304|160:360,1,240,2|0
56,160,188589,6,0,B|64:80|136:72,4,120,0|2|0|0|0
192,192,190168,5,8
336,184,190484,1,0
376,128,190642,1,0
416,64,190800,1,2
416,64,191116,1,0
408,208,191431,1,8
408,208,191589,1,0
312,312,191905,1,0
312,312,192063,1,2
256,32,192695,5,8
112,32,193010,1,0
64,88,193168,1,0
24,144,193326,1,2
24,144,193642,1,0
168,144,193958,1,8
168,144,194116,1,0
80,256,194431,1,0
80,256,194589,1,2
352,352,195221,6,0,B|432:248,1,120,8|2
425,256,195695,1,0
425,256,195852,1,2
256,192,196168,1,0
86,256,196484,2,0,B|160:352,1,120,8|0
160,352,196958,1,0
160,352,197116,1,2
256,192,197431,1,0
368,104,197747,2,0,B|256:48|128:104,1,240,8|2
135,100,198695,5,0
264,344,199010,1,2
135,100,199326,1,0
264,344,199642,1,2
135,100,199958,1,0
272,72,200273,6,0,B|400:104|448:232,1,240,8|2
176,328,201537,1,8
176,328,201695,1,0
64,224,202010,1,0
64,224,202168,1,2
240,72,202800,6,0,B|112:104|64:232,1,240,8|2
336,328,204063,1,8
336,328,204221,1,0
448,224,204537,1,0
448,224,204695,1,2
72,48,205326,6,0,B|272:208,1,240,8|2
448,56,206273,1,0
448,56,206431,1,0
448,56,206589,2,0,B|232:216,1,240,8|2
64,343,207537,1,0
64,343,207695,1,0
64,343,207852,2,0,B|280:183,1,240,8|2
255,200,209116,5,2
462,45,209431,1,0
255,200,209747,1,2
49,45,210063,1,0
255,200,210379,1,2
256,208,210695,12,4,215431
480,40,215905,5,0
256,40,216379,1,0
32,40,216852,1,0
376,192,217642,5,0
256,192,217800,1,0
136,192,217958,1,4
480,344,218431,5,0
256,344,218905,1,0
32,344,219379,1,0
256,200,220168,6,0,B|256:72,1,120,0|4
464,40,220958,1,0
48,40,221431,1,0
464,40,221905,1,0
256,352,222695,5,0
336,232,222852,1,0
176,232,223010,1,4
40,40,223484,5,0
472,40,223958,1,0
40,40,224431,1,0
256,192,225221,5,0
256,192,225537,1,4
480,192,226010,5,0
32,192,226484,1,0
480,192,226958,1,0
128,32,227747,5,0
256,32,227905,1,0
384,32,228063,1,4
384,32,228537,5,0
256,352,229010,1,0
128,32,229484,1,0
256,352,230273,5,0
256,352,230589,1,4
256,352,231063,5,0
256,32,231537,1,0
256,352,232010,1,0
128,192,232800,5,0
256,192,232958,1,0
384,192,233116,1,4
32,192,233589,5,0
480,192,234063,1,0
32,192,234537,1,0
248,32,235010,6,0,B|248:64,8,30
256,208,235958,12,0,241010
