osu file format v12

[General]
AudioFilename: 07 - The relief.mp3
AudioLeadIn: 0
PreviewTime: 56143
Countdown: 0
SampleSet: Soft
StackLeniency: 0.7
Mode: 0
LetterboxInBreaks: 0
WidescreenStoryboard: 0

[Editor]
DistanceSpacing: 0.9
BeatDivisor: 2
GridSize: 4
TimelineZoom: 1

[Metadata]
Title:The Relief
TitleUnicode:The Relief
Artist:Kajiura Yuki
ArtistUnicode:梶浦由記
Creator:Setsurei
Version:Normal
Source:Pandora Hearts
Tags:ost soundtrack qoot8123 Revolve Nazalion The_Epic_Backstabber Oz Vessalius Blood-Stained Black Rabbit B-Rabbit Alice Arisu Raven Gilbert Nightray
BeatmapID:214138
BeatmapSetID:75847

[Difficulty]
HPDrainRate:4
CircleSize:3
OverallDifficulty:4
ApproachRate:5
SliderMultiplier:1.1
SliderTickRate:1

[Events]
//Background and Video events
0,0,"pandora-hearts_1.jpg",0,0
//Break Periods
2,53343,54943
2,131343,135943
//Storyboard Layer 0 (Background)
//Storyboard Layer 1 (Fail)
//Storyboard Layer 2 (Pass)
//Storyboard Layer 3 (Foreground)
//Storyboard Sound Samples
//Background Colour Transformations
3,100,163,162,255

[TimingPoints]
2143,375,4,2,1,50,1,0
56143,-100,4,2,1,50,0,1
80143,-100,4,2,1,50,0,0
137143,-100,4,2,1,50,0,1
161143,-100,4,2,1,50,0,0

[Colours]
Combo1 : 128,0,0
Combo2 : 255,255,255
Combo3 : 255,0,0
Combo4 : 94,47,0
Combo5 : 255,255,255
Combo6 : 255,0,0

[HitObjects]
128,96,2143,5,4,0:0:0:0:
384,96,3643,1,0,0:0:0:0:
384,288,5143,1,0,0:0:0:0:
128,288,6643,1,0,0:0:0:0:
319,288,8143,6,8,P|300:237|254:209,1,110,0|0,0:0|0:0,0:0:0:0:
156,184,8893,2,8,P|171:133|220:111,1,110,0|0,0:0|0:0,0:0:0:0:
251,203,9643,2,8,P|256:257|220:295,1,110,0|0,0:0|0:0,0:0:0:0:
155,219,10393,2,8,P|104:203|82:155,1,110,0|0,0:0|0:0,0:0:0:0:
151,84,11143,2,8,P|202:99|223:148,3,110
180,236,12643,5,0,0:0:0:0:
84,260,13018,1,8,0:0:0:0:
132,344,13393,1,0,0:0:0:0:
228,328,13768,1,8,0:0:0:0:
292,252,14143,6,0,P|383:311|491:324,1,220,4|0,0:0|0:0,0:0:0:0:
487,224,15268,2,0,P|484:170|445:134,1,110,0|0,0:0|0:0,0:0:0:0:
360,84,16018,2,8,P|288:56|256:64,1,110,8|8,0:0|0:0,0:0:0:0:
168,76,16768,1,8,0:0:0:0:
111,159,17143,6,0,P|85:261|165:328,1,220,4|0,0:0|0:0,0:0:0:0:
176,232,18268,1,0,0:0:0:0:
224,144,18643,1,0,0:0:0:0:
360,288,19393,5,4,0:0:0:0:
188,191,20143,2,0,P|152:232|154:285,2,110,4|2|0,0:0|0:0|0:0,0:0:0:0:
258,262,21268,1,0,0:0:0:0:
327,190,21643,2,0,P|363:231|365:285,2,110,0|2|0,0:0|0:0|0:0,0:0:0:0:
422,162,22768,1,0,0:0:0:0:
352,92,23143,5,0,0:0:0:0:
256,60,23518,1,0,0:0:0:0:
188,132,23893,1,0,0:0:0:0:
244,212,24268,1,0,0:0:0:0:
340,192,24643,1,4,0:0:0:0:
64,160,26143,6,0,P|79:109|128:87,1,110,4|0,0:0|0:0,0:0:0:0:
176,76,26705,1,0,0:0:0:0:
224,95,26893,2,0,P|219:149|255:187,1,110,0|0,0:0|0:0,0:0:0:0:
339,235,27643,2,0,P|390:220|412:171,1,110,2|0,0:0|0:0,0:0:0:0:
396,124,28205,1,0,0:0:0:0:
368,84,28393,6,0,P|327:48|274:50,1,110,0|0,0:0|0:0,0:0:0:0:
223,131,29143,2,0,P|212:183|161:196,1,110,2|0,0:0|0:0,0:0:0:0:
64,180,29893,1,0,0:0:0:0:
92,83,30268,2,0,P|189:37|293:64,1,220,2|0,0:0|0:0,0:0:0:0:
368,132,31393,1,0,0:0:0:0:
192,223,32143,6,0,P|207:274|256:296,1,110,2|0,0:0|0:0,0:0:0:0:
287,204,32893,2,0,P|272:153|223:131,1,110,8|0,0:0|0:0,0:0:0:0:
191,223,33643,2,0,P|176:274|127:296,1,110,2|0,0:0|0:0,0:0:0:0:
104,200,34393,2,0,P|99:146|133:105,1,110,10|0,0:0|0:0,0:0:0:0:
228,67,35143,6,0,P|243:118|292:140,3,110,0|8|0|8,0:0|0:0|0:0|0:0,0:0:0:0:
327,44,36643,2,4,B|512:44|320:268|493:267,1,330,0|2,0:0|0:0,0:0:0:0:
432,348,38143,6,0,P|378:341|344:300,1,110,4|0,0:0|0:0,0:0:0:0:
268,240,38893,2,0,P|233:198|180:193,1,110,2|0,0:0|0:0,0:0:0:0:
128,196,39455,1,0,0:0:0:0:
80,180,39643,2,0,P|62:128|89:83,1,110,0|0,0:0|0:0,0:0:0:0:
187,111,40393,2,0,P|239:120|264:75,1,110,2|0,0:0|0:0,0:0:0:0:
304,44,40955,1,0,0:0:0:0:
340,76,41143,2,0,P|394:79|442:53,2,110,4|0|0,0:0|0:0|0:0,0:0:0:0:
256,132,42268,5,2,0:0:0:0:
156,132,42643,2,0,P|164:78|204:42,1,110,2|0,0:0|0:0,0:0:0:0:
303,43,43393,2,0,P|344:80|351:133,1,110,2|0,0:0|0:0,0:0:0:0:
340,231,44143,2,0,P|210:311|108:197,1,330,2|0,0:0|0:0,0:0:0:0:
124,100,45643,2,0,P|249:14|355:123,1,330,2|0,0:0|0:0,0:0:0:0:
256,192,47143,12,2,49768,0:0:0:0:
256,192,50143,12,4,53143,0:0:0:0:
63,159,56143,6,4,P|117:164|155:128,1,110,12|0,0:0|0:0,0:0:0:0:
227,60,56893,2,8,P|281:55|322:89,1,110,8|0,0:0|0:0,0:0:0:0:
415,128,57643,2,8,P|469:123|507:159,1,110,8|0,0:0|0:0,0:0:0:0:
452,244,58393,2,8,P|401:259|379:308,1,110,0|2,0:0|0:0,0:0:0:0:
280,300,59143,2,0,P|243:259|235:206,1,110,8|0,0:0|0:0,0:0:0:0:
279,115,59893,6,0,P|316:156|324:209,1,110,8|0,0:0|0:0,0:0:0:0:
224,199,60643,2,0,P|194:245|199:298,1,110,2|0,0:0|0:0,0:0:0:0:
295,267,61393,2,0,P|325:313|320:366,1,110,0|0,0:0|0:0,0:0:0:0:
224,336,62143,2,8,P|188:295|190:242,1,110,8|0,0:0|0:0,0:0:0:0:
208,144,62893,2,8,P|258:159|280:208,1,110,8|0,0:0|0:0,0:0:0:0:
303,304,63643,6,8,P|349:273|371:224,1,110,8|8,0:0|0:0,0:0:0:0:
400,128,64393,2,8,P|345:125|297:151,1,110,0|10,0:0|0:0,0:0:0:0:
199,159,65143,2,0,P|197:105|223:57,1,110,8|0,0:0|0:0,0:0:0:0:
295,127,65893,2,0,P|298:182|272:230,1,110,0|0,0:0|0:0,0:0:0:0:
320,316,66643,2,0,P|370:295|405:253,1,110,2|0,0:0|0:0,0:0:0:0:
316,216,67393,1,0,0:0:0:0:
224,176,67768,1,0,0:0:0:0:
128,155,68143,6,0,P|140:234|208:275,2,165,2|0|0,0:0|0:0|0:0,0:0:0:0:
300,252,70018,1,8,0:0:0:0:
235,180,70393,6,0,P|284:155|338:162,1,110,0|0,0:0|0:0,0:0:0:0:
419,215,71143,2,0,P|424:269|388:307,1,110,2|0,0:0|0:0,0:0:0:0:
288,308,71893,2,0,P|252:267|254:214,1,110,2|0,0:0|0:0,0:0:0:0:
336,156,72643,5,0,0:0:0:0:
52,64,73768,1,8,0:0:0:0:
152,71,74143,2,0,P|131:122|89:157,1,110,2|0,0:0|0:0,0:0:0:0:
40,243,74893,2,0,P|35:297|71:335,1,110,0|0,0:0|0:0,0:0:0:0:
171,336,75643,2,0,P|201:290|196:237,1,110,2|0,0:0|0:0,0:0:0:0:
160,144,76393,6,0,P|155:90|189:49,1,110,2|0,0:0|0:0,0:0:0:0:
252,128,77143,2,0,P|256:181|222:222,1,110,0|0,0:0|0:0,0:0:0:0:
264,312,77893,2,0,P|314:296|336:247,1,110,0|0,0:0|0:0,0:0:0:0:
344,148,78643,2,0,P|348:94|312:56,1,110,0|0,0:0|0:0,0:0:0:0:
252,136,79393,2,4,P|215:95|201:43,1,110,0|0,0:0|0:0,0:0:0:0:
300,52,80143,5,4,0:0:0:0:
396,24,80518,1,0,0:0:0:0:
375,119,80893,2,0,P|407:221|347:309,1,220,0|0,0:0|0:0,0:0:0:0:
304,284,81830,2,0,L|304:229,2,55,0|0|0,0:0|0:0|0:0,0:0:0:0:
272,324,82393,6,4,B|176:292|176:292|147:176,1,220,2|0,0:0|0:0,0:0:0:0:
344,144,83893,1,0,0:0:0:0:
256,96,84268,2,0,P|215:59|162:51,1,110,2|2,0:0|0:0,0:0:0:0:
64,48,85018,1,2,0:0:0:0:
108,138,85393,6,0,B|108:200|268:232|264:280,1,220,0|2,0:0|0:0,0:0:0:0:
195,87,87268,2,0,B|220:36|316:36|348:164|284:164|316:324|412:292|476:292|450:202,1,440,0|0,0:0|0:0,0:0:0:0:
400,116,89143,1,0,0:0:0:0:
187,148,90268,2,0,P|172:97|123:75,1,110,0|0,0:0|0:0,0:0:0:0:
92,168,91018,5,0,0:0:0:0:
68,264,91393,1,0,0:0:0:0:
139,327,91768,2,0,P|193:332|231:296,1,110,0|0,0:0|0:0,0:0:0:0:
276,264,93268,6,0,L|353:186,2,110
188,220,94393,2,0,L|170:167,1,55,2|0,0:0|0:0,0:0:0:0:
144,212,94768,2,0,L|45:162,1,110,0|0,0:0|0:0,0:0:0:0:
155,80,96268,6,0,P|205:57|259:64,1,110,0|0,0:0|0:0,0:0:0:0:
220,148,97018,1,0,0:0:0:0:
315,131,97393,2,0,P|321:185|283:222,1,110,0|0,0:0|0:0,0:0:0:0:
192,236,98143,5,0,0:0:0:0:
184,336,98518,2,0,P|133:317|103:272,1,110,0|0,0:0|0:0,0:0:0:0:
115,172,99268,2,0,P|159:139|212:142,1,110,0|0,0:0|0:0,0:0:0:0:
291,203,100018,2,4,P|299:257|278:308,1,110,4|0,0:0|0:0,0:0:0:0:
348,124,101143,5,8,0:0:0:0:
420,192,101518,1,0,0:0:0:0:
424,292,101893,1,8,0:0:0:0:
344,348,102268,1,0,0:0:0:0:
260,292,102643,1,4,0:0:0:0:
64,96,103768,5,8,0:0:0:0:
164,96,104143,2,0,B|196:96|196:96|239:160,1,110,4|0,0:0|0:0,0:0:0:0:
144,184,104893,1,0,0:0:0:0:
160,280,105268,1,8,0:0:0:0:
256,304,105643,1,8,0:0:0:0:
352,280,106018,2,0,B|320:216|320:216|281:216,1,110,0|0,0:0|0:0,0:0:0:0:
188,184,106768,5,8,0:0:0:0:
188,84,107143,2,0,B|284:52|284:116|404:85,1,220,2|0,0:0|0:0,0:0:0:0:
440,180,108268,1,0,0:0:0:0:
384,260,108643,1,0,0:0:0:0:
332,176,109018,2,0,B|236:176|236:176|180:286,1,220,0|8,0:0|0:0,0:0:0:0:
88,252,110143,5,2,0:0:0:0:
60,156,110518,1,0,0:0:0:0:
123,80,110893,2,0,P|164:43|217:35,1,110,0|2,0:0|0:0,0:0:0:0:
220,136,111643,2,0,B|324:136|324:136|388:232,1,220,0|2,0:0|0:0,0:0:0:0:
292,248,112768,1,8,0:0:0:0:
221,318,113143,5,8,0:0:0:0:
124,316,113518,1,0,0:0:0:0:
40,264,113893,1,0,0:0:0:0:
120,208,114268,2,0,B|152:112|152:112|270:112,1,220,0|0,0:0|0:0,0:0:0:0:
336,188,115393,1,0,0:0:0:0:
320,288,115768,1,0,0:0:0:0:
220,295,116143,2,0,P|166:300|125:266,1,110,4|0,0:0|0:0,0:0:0:0:
124,168,116893,5,0,0:0:0:0:
188,92,117268,1,0,0:0:0:0:
287,99,117643,2,0,P|292:153|256:191,1,110,2|0,0:0|0:0,0:0:0:0:
224,288,118393,2,0,P|178:257|156:208,1,110,0|0,0:0|0:0,0:0:0:0:
163,107,119143,2,0,P|214:128|249:170,1,110,2|0,0:0|0:0,0:0:0:0:
323,235,119893,6,0,P|374:220|396:171,1,110,0|0,0:0|0:0,0:0:0:0:
304,132,120643,2,0,P|250:127|212:163,1,110,2|0,0:0|0:0,0:0:0:0:
188,260,121393,2,0,P|137:239|102:197,1,110,0|0,0:0|0:0,0:0:0:0:
101,99,122143,6,0,B|196:68|196:164|309:135,1,220,2|0,0:0|0:0,0:0:0:0:
319,231,123268,2,0,P|370:216|392:167,2,110,2|0|0,0:0|0:0|0:0,0:0:0:0:
192,231,124393,2,0,P|120:197|100:119,1,165,2|0,0:0|0:0,0:0:0:0:
256,192,125143,12,0,126643,0:0:0:0:
364,188,128143,5,8,0:0:0:0:
304,268,128518,1,8,0:0:0:0:
204,268,128893,1,8,0:0:0:0:
144,188,129268,1,8,0:0:0:0:
207,115,129643,2,4,P|105:99|48:186,2,220
128,160,137143,6,4,L|219:98,1,110,4|0,0:0|0:0,0:0:0:0:
315,71,137893,2,0,P|366:92|401:134,1,110,0|0,0:0|0:0,0:0:0:0:
448,224,138643,2,0,P|396:239|349:213,1,110,2|0,0:0|0:0,0:0:0:0:
316,308,139393,2,0,P|270:279|250:228,1,110,0|0,0:0|0:0,0:0:0:0:
191,152,140143,2,0,P|196:98|162:57,1,110,2|0,0:0|0:0,0:0:0:0:
100,132,140893,6,0,P|49:116|27:67,4,110,0|0|2|0|0,0:0|0:0|0:0|0:0|0:0,0:0:0:0:
184,184,142768,1,8,0:0:0:0:
284,192,143143,2,0,P|299:141|348:119,1,110,2|0,0:0|0:0,0:0:0:0:
383,212,143893,2,0,P|434:227|456:276,1,110,0|0,0:0|0:0,0:0:0:0:
364,312,144643,5,8,0:0:0:0:
262,323,145018,2,0,B|136:324|136:100|45:100,1,330,0|2,0:0|0:0,0:0:0:0:
48,200,146518,1,0,0:0:0:0:
40,299,146893,1,0,0:0:0:0:
129,340,147268,1,2,0:0:0:0:
199,269,147643,1,2,0:0:0:0:
156,180,148018,5,8,0:0:0:0:
256,188,148393,1,8,0:0:0:0:
326,117,148768,1,8,0:0:0:0:
424,128,149143,2,0,P|404:234|332:315,1,220,2|0,0:0|0:0,0:0:0:0:
233,304,150268,1,0,0:0:0:0:
149,250,150643,5,0,0:0:0:0:
53,224,151018,2,0,B|48:114|48:114|136:49,1,220,2|0,0:0|0:0,0:0:0:0:
234,54,152143,1,2,0:0:0:0:
317,107,152518,1,0,0:0:0:0:
399,158,152893,2,0,P|429:204|424:257,1,110,0|0,0:0|0:0,0:0:0:0:
353,326,153643,2,0,P|259:375|172:318,1,220
242,247,154768,6,0,P|237:193|273:155,1,110,2|0,0:0|0:0,0:0:0:0:
343,224,155518,2,0,P|394:209|416:160,1,110,8|0,0:0|0:0,0:0:0:0:
345,90,156268,2,0,P|330:39|281:17,1,110,2|0,0:0|0:0,0:0:0:0:
211,87,157018,2,0,P|160:102|138:151,2,110,8|0|8,0:0|0:0|0:0,0:0:0:0:
256,192,158143,12,4,160768,0:0:0:0:
256,80,161518,5,0,0:0:0:0:
356,88,161893,2,0,P|392:128|400:181,1,110,0|0,0:0|0:0,0:0:0:0:
364,276,162643,2,0,P|323:312|270:320,2,110,0|0|0,0:0|0:0|0:0,0:0:0:0:
280,224,163768,1,0,0:0:0:0:
284,124,164143,1,8,0:0:0:0:
192,164,164518,5,8,0:0:0:0:
196,264,164893,1,8,0:0:0:0:
280,320,165268,1,8,0:0:0:0:
256,192,165643,12,12,170143,0:0:0:0:
