osu file format v12

[General]
AudioFilename: 07 - The relief.mp3
AudioLeadIn: 0
PreviewTime: 56143
Countdown: 0
SampleSet: Soft
StackLeniency: 0.7
Mode: 2
LetterboxInBreaks: 0
WidescreenStoryboard: 0

[Editor]
DistanceSpacing: 1
BeatDivisor: 4
GridSize: 4
TimelineZoom: 1

[Metadata]
Title:The Relief
TitleUnicode:The Relief
Artist:Kajiura Yuki
ArtistUnicode:梶浦由記
Creator:Setsurei
Version:Nazal Rainy
Source:Pandora Hearts
Tags:ost soundtrack qoot8123 Revolve Nazalion The_Epic_Backstabber Oz Vessalius Blood-Stained Black Rabbit B-Rabbit Alice Arisu Raven Gilbert Nightray
BeatmapID:259863
BeatmapSetID:75847

[Difficulty]
HPDrainRate:7
CircleSize:4
OverallDifficulty:9
ApproachRate:9
SliderMultiplier:2
SliderTickRate:2

[Events]
//Background and Video events
0,0,"pandora-hearts_1.jpg",0,0
//Break Periods
//Storyboard Layer 0 (Background)
//Storyboard Layer 1 (Fail)
//Storyboard Layer 2 (Pass)
//Storyboard Layer 3 (Foreground)
//Storyboard Sound Samples
//Background Colour Transformations
3,100,163,162,255

[TimingPoints]
2143,375,4,2,1,100,1,0
2143,-133.333333333333,4,2,1,100,0,0
8143,-100,4,2,1,100,0,0
20143,-100,4,2,1,100,0,0
26143,-100,4,2,1,100,0,0
44143,-100,4,2,1,100,0,0
46018,-100,4,2,1,100,0,0
47143,-100,4,2,1,100,0,0
53236,-100,4,2,1,40,0,0
56143,-100,4,2,1,100,0,1
64768,-200,4,2,1,100,0,1
80143,-100,4,2,1,100,0,0
93268,-100,4,2,1,100,0,0
100393,-200,4,2,1,100,0,0
101143,-100,4,2,1,100,0,0
101518,-100,4,2,1,70,0,0
104143,-100,4,2,1,100,0,0
111268,-200,4,2,1,100,0,0
116518,-100,4,2,1,100,0,0
125143,-200,4,2,1,100,0,0
131518,-100,4,2,1,40,0,0
137143,-100,4,2,1,100,0,1
154768,-100,4,2,1,100,0,1
161143,-100,4,2,1,100,0,0
170705,-100,4,2,1,70,0,0

[Colours]
Combo1 : 128,0,0
Combo2 : 255,255,255
Combo3 : 255,0,0
Combo4 : 94,47,0
Combo5 : 255,255,255
Combo6 : 255,0,0

[HitObjects]
132,200,2143,6,0,P|284:136|428:156,1,300.000011444092
480,184,3268,1,0,0:0:0:0:
416,88,3643,6,0,P|320:160|228:40,1,300.000011444092
384,192,4580,1,0,0:0:0:0:
424,264,4768,1,0,0:0:0:0:
308,248,4955,1,0,0:0:0:0:
272,192,5143,2,0,P|154:194|24:51,1,300.000011444092
416,321,6268,5,2,0:0:0:0:
312,288,6455,1,0,0:0:0:0:
424,320,6643,2,0,P|404:188|248:212,1,300.000011444092,2|0,0:0|0:0,0:0:0:0:
152,208,7768,1,0,0:0:0:0:
96,88,8143,5,2,0:0:0:0:
241,140,8330,1,0,0:0:0:0:
66,167,8518,2,0,P|105:197|152:216,1,100,2|0,0:0|0:0,0:0:0:0:
301,113,8893,2,0,L|392:72,1,100,0|0,0:0|0:0,0:0:0:0:
480,140,9268,1,0,0:0:0:0:
296,216,9455,1,0,0:0:0:0:
448,288,9643,5,2,0:0:0:0:
336,320,9830,2,0,L|202:346,1,100,0|0,0:0|0:0,0:0:0:0:
168,312,10205,1,0,0:0:0:0:
344,228,10393,1,2,0:0:0:0:
256,216,10580,2,0,L|128:212,2,100
452,224,11143,6,0,L|399:91,1,100,2|0,0:0|0:0,0:0:0:0:
260,136,11518,2,0,L|220:23,1,100
100,28,11893,1,2,0:0:0:0:
160,104,12080,1,0,0:0:0:0:
268,100,12268,1,0,0:0:0:0:
388,81,12455,1,0,0:0:0:0:
240,48,12643,1,2,0:0:0:0:
116,128,12830,2,0,P|128:200|164:224,1,100,0|2,0:0|0:0,0:0:0:0:
280,168,13205,1,0,0:0:0:0:
120,296,13393,6,0,L|120:232,1,50
172,268,13580,2,0,L|172:196,1,50
104,224,13768,2,0,L|104:160,1,50
156,204,13955,2,0,L|160:120,1,50
100,152,14143,6,8,L|289:83,1,200,2|0,0:0|0:0,0:0:0:0:
456,68,14893,2,8,L|267:-1,1,200,2|0,0:0|0:0,0:0:0:0:
392,264,15643,6,8,L|312:72,1,200,2|0,0:0|0:0,0:0:0:0:
476,216,16393,2,0,L|416:16,1,200,0|0,0:0|0:0,0:0:0:0:
76,131,17143,6,0,P|196:68|266:122,1,200
78,225,17893,1,0,0:0:0:0:
432,264,18268,1,0,0:0:0:0:
296,52,18643,2,0,P|296:116|196:196,1,200
444,160,19393,2,0,P|380:232|256:208,1,200
172,204,19955,1,0,0:0:0:0:
348,112,20143,6,0,L|228:110,1,100,6|0,0:0|0:0,0:0:0:0:
208,108,20424,1,0,0:0:0:0:
176,108,20518,1,0,0:0:0:0:
144,108,20611,1,0,0:0:0:0:
112,108,20705,1,0,0:0:0:0:
216,140,20893,1,0,0:0:0:0:
352,148,21080,1,0,0:0:0:0:
128,220,21268,1,0,0:0:0:0:
268,232,21455,1,0,0:0:0:0:
440,320,21643,6,0,L|370:223,1,100
212,284,22018,2,0,L|305:190,1,100
440,320,22393,2,0,L|357:234,1,100
176,192,22768,1,0,0:0:0:0:
176,192,22861,1,0,0:0:0:0:
176,192,22955,1,0,0:0:0:0:
320,196,23143,2,0,L|423:195,1,100
208,156,23518,6,0,L|329:111,1,100
331,120,23799,1,0,0:0:0:0:
360,116,23893,1,0,0:0:0:0:
388,108,23986,1,0,0:0:0:0:
240,200,24268,1,0,0:0:0:0:
116,288,24455,1,0,0:0:0:0:
232,360,24643,1,0,0:0:0:0:
472,268,24830,2,0,P|413:272|372:276,1,100
352,76,25205,6,0,L|360:132,1,50
312,128,25393,2,0,L|320:184,1,50
272,168,25580,2,0,L|280:220,1,50
232,204,25768,2,0,L|236:260,1,50
196,232,25955,2,0,L|204:288,1,50
92,192,26143,6,0,P|160:97|241:86,1,200,4|0,0:0|0:0,0:0:0:0:
360,176,26705,2,0,L|464:177,2,100,0|0|0,0:0|0:0|0:0,0:0:0:0:
400,288,27268,1,0,0:0:0:0:
288,248,27455,1,0,0:0:0:0:
372,184,27643,1,0,0:0:0:0:
200,296,27830,1,0,0:0:0:0:
200,296,28018,6,0,L|25:162,1,200,0|0,0:0|0:0,0:0:0:0:
300,180,28580,1,0,0:0:0:0:
376,213,28768,2,0,L|468:152,1,100,0|0,0:0|0:0,0:0:0:0:
288,120,29143,2,0,B|372:176|372:176|276:256,2,200
200,116,30268,6,0,L|304:68,1,100,0|0,0:0|0:0,0:0:0:0:
469,62,30643,2,0,L|275:201,1,200
200,200,31205,1,0,0:0:0:0:
248,128,31393,2,0,P|245:213|136:260,1,200
44,299,32143,6,0,P|137:304|171:217,1,200,6|0,0:0|0:0,0:0:0:0:
152,144,32705,1,0,0:0:0:0:
340,216,32893,2,0,B|258:270|258:270|338:334,1,200
408,368,33455,1,0,0:0:0:0:
280,172,33643,5,0,0:0:0:0:
328,96,33830,2,0,P|408:104|408:212,1,200
312,184,34393,1,0,0:0:0:0:
192,252,34580,2,0,P|100:288|44:180,1,200
80,132,35143,5,0,0:0:0:0:
232,156,35330,1,0,0:0:0:0:
120,136,35518,2,0,P|232:72|308:128,2,200
340,160,36455,1,0,0:0:0:0:
412,120,36643,2,0,L|528:120,1,100
272,204,37018,2,0,P|120:256|52:248,2,200
164,164,37955,1,0,0:0:0:0:
432,248,38143,6,0,P|332:316|264:260,1,200,0|0,0:0|0:0,0:0:0:0:
20,296,38893,1,0,0:0:0:0:
180,104,39080,1,0,0:0:0:0:
120,212,39268,2,0,L|156:320,1,100
204,160,39643,5,0,0:0:0:0:
324,160,39830,1,0,0:0:0:0:
272,72,40018,1,0,0:0:0:0:
384,64,40205,1,0,0:0:0:0:
196,56,40393,1,0,0:0:0:0:
272,220,40580,1,0,0:0:0:0:
408,188,40768,2,0,P|296:136|292:136,1,100,0|0,0:0|0:0,0:0:0:0:
44,248,41143,2,0,P|136:216|224:280,1,200,0|0,0:0|0:0,0:0:0:0:
352,284,41893,1,0,0:0:0:0:
152,280,42268,1,0,0:0:0:0:
360,188,42455,2,0,P|312:164|232:188,1,100
420,104,42830,2,0,P|348:52|248:88,1,200
308,200,43393,6,0,L|104:144,1,200
268,152,44143,2,0,L|472:148,1,200,0|0,0:0|0:0,0:0:0:0:
248,236,44893,2,0,L|48:232,1,200
156,48,45643,6,0,L|387:56,1,200
428,144,46393,2,0,P|416:204|276:236,1,200
200,112,47143,1,0,0:0:0:0:
368,92,47330,5,0,0:0:0:0:
304,104,47518,1,0,0:0:0:0:
112,200,47705,1,0,0:0:0:0:
160,196,47893,1,0,0:0:0:0:
384,264,48080,1,0,0:0:0:0:
244,240,48268,1,0,0:0:0:0:
336,304,48455,1,0,0:0:0:0:
488,200,48643,1,0,0:0:0:0:
292,232,48830,5,0,0:0:0:0:
448,176,49018,1,0,0:0:0:0:
244,184,49205,1,0,0:0:0:0:
352,284,49393,1,0,0:0:0:0:
200,100,49580,1,0,0:0:0:0:
364,112,49768,1,0,0:0:0:0:
208,292,49955,1,0,0:0:0:0:
468,333,50143,6,0,L|260:332,1,200
136,248,50893,1,0,0:0:0:0:
300,248,51268,1,0,0:0:0:0:
48,184,51643,1,0,0:0:0:0:
252,184,52018,1,0,0:0:0:0:
252,184,52393,5,0,0:0:0:0:
132,228,52580,2,0,L|132:160,1,50
356,228,52768,2,0,L|424:224,2,50
256,192,53143,1,0,0:0:0:0:
352,144,53330,1,0,0:0:0:0:
352,144,53518,6,0,L|480:144,1,100
304,64,53893,2,0,P|184:84|104:52,1,200
196,136,54455,1,0,0:0:0:0:
76,196,54643,2,0,L|24:104,1,100
196,136,55018,2,0,L|260:244,1,100
376,248,55393,1,0,0:0:0:0:
432,312,55580,2,0,L|452:264,1,50
304,196,55768,2,0,L|332:132,1,50
444,248,55955,2,0,L|468:192,1,50
254,190,56143,5,2,0:0:0:0:
352,148,56330,1,2,0:0:0:0:
440,104,56518,2,0,L|236:68,1,200
192,44,57080,1,0,0:0:0:0:
120,104,57268,1,0,0:0:0:0:
52,168,57455,2,0,L|232:264,1,200
248,164,58018,5,0,0:0:0:0:
154,32,58205,1,0,0:0:0:0:
296,48,58393,2,0,L|484:116,1,200
316,160,59143,5,2,0:0:0:0:
108,144,59330,1,2,0:0:0:0:
143,61,59518,2,0,L|327:161,1,200
143,61,60080,1,0,0:0:0:0:
20,160,60268,2,0,L|120:344,1,200
248,240,61018,1,0,0:0:0:0:
348,308,61393,1,0,0:0:0:0:
454,299,61768,1,0,0:0:0:0:
341,235,61955,5,0,0:0:0:0:
232,172,62143,2,0,L|124:92,1,100,2|0,0:0|0:0,0:0:0:0:
208,336,62518,2,0,L|48:196,1,200
300,264,63080,2,0,L|468:140,1,200
61,83,63643,6,0,L|261:188,1,200
231,287,64205,1,0,0:0:0:0:
404,316,64393,2,0,L|336:220,1,100
56,309,64768,2,0,L|121:224,1,100,0|2,0:0|0:0,0:0:0:0:
32,96,65330,1,0,0:0:0:0:
120,164,65518,2,0,P|176:204|228:200,1,100
280,128,66080,1,0,0:0:0:0:
364,60,66268,6,0,L|464:60,2,100
264,188,67205,1,0,0:0:0:0:
424,200,67393,2,0,B|462:127|462:127|473:104,1,100
144,72,68143,1,2,0:0:0:0:
368,64,68330,1,2,0:0:0:0:
431,257,68705,6,0,L|366:170,1,100
192,248,69268,2,0,L|88:248,2,100
352,288,70205,1,0,0:0:0:0:
208,332,70393,2,0,L|168:284,1,50
71,137,70768,1,0,0:0:0:0:
205,219,70955,1,0,0:0:0:0:
61,188,71143,5,2,0:0:0:0:
191,188,71330,1,0,0:0:0:0:
300,189,71518,2,0,L|376:277,1,100,2|0,0:0|0:0,0:0:0:0:
80,180,72080,2,0,L|12:260,1,100
192,188,72643,1,0,0:0:0:0:
410,341,73018,1,0,0:0:0:0:
231,253,73205,1,0,0:0:0:0:
78,192,73393,1,0,0:0:0:0:
371,208,73768,5,0,0:0:0:0:
188,204,73955,1,0,0:0:0:0:
281,172,74143,1,2,0:0:0:0:
104,168,74330,1,0,0:0:0:0:
247,89,74518,2,0,B|289:74|289:74|359:93,1,100,2|0,0:0|0:0,0:0:0:0:
413,118,75080,1,0,0:0:0:0:
195,198,75268,5,0,0:0:0:0:
432,344,75643,2,0,B|402:344|402:344|360:340,2,50
91,57,76393,2,0,B|159:56|159:56|189:74,1,100
360,120,77143,1,2,0:0:0:0:
454,178,77330,1,2,0:0:0:0:
331,260,77518,2,0,B|270:259|270:259|271:259|236:224,1,100
414,95,78268,5,0,0:0:0:0:
316,96,78643,1,0,0:0:0:0:
416,96,78830,1,0,0:0:0:0:
176,164,79018,1,0,0:0:0:0:
280,160,79205,1,0,0:0:0:0:
80,224,79393,1,0,0:0:0:0:
240,224,79580,1,0,0:0:0:0:
24,296,79768,1,0,0:0:0:0:
424,240,80143,6,0,P|496:166|452:79,1,200
341,61,80705,1,0,0:0:0:0:
208,56,80893,1,0,0:0:0:0:
292,144,81080,1,0,0:0:0:0:
144,140,81268,2,0,L|214:223,1,100
324,136,81643,5,0,0:0:0:0:
440,184,81830,1,0,0:0:0:0:
352,268,82018,1,0,0:0:0:0:
204,228,82205,2,0,B|144:232|144:232|83:94,1,200
224,84,82768,1,0,0:0:0:0:
328,192,83143,2,0,P|243:274|158:273,2,200
75,317,84268,6,8,P|136:316|164:261,1,100,0|0,0:0|0:0,0:0:0:0:
280,192,84643,2,0,B|217:153|217:153|101:200,1,200
288,332,85205,2,0,B|387:334|387:334|457:253,1,200
405,92,85768,2,0,L|283:47,1,100
256,72,86143,1,0,0:0:0:0:
116,55,86330,2,0,L|236:104,2,100
300,124,86893,1,0,0:0:0:0:
157,331,87268,6,0,L|212:238,1,100
61,212,87643,1,0,0:0:0:0:
224,148,87830,1,0,0:0:0:0:
388,112,88018,1,0,0:0:0:0:
132,116,88205,1,0,0:0:0:0:
213,316,88393,2,0,B|82:318|82:318|23:226,1,200
312,57,89143,2,0,B|438:55|438:55|503:116,1,200
328,200,89893,1,0,0:0:0:0:
232,160,90268,5,0,0:0:0:0:
432,230,90643,2,0,B|417:141|417:141|418:149,1,100
76,248,91205,2,0,B|95:141|95:141|102:144,1,100
328,256,91768,2,0,L|380:160,2,100
252,128,92518,1,0,0:0:0:0:
256,192,92893,1,0,0:0:0:0:
431,310,93268,5,0,0:0:0:0:
300,280,93455,1,0,0:0:0:0:
432,236,93643,1,0,0:0:0:0:
300,208,93830,1,0,0:0:0:0:
148,204,94018,1,0,0:0:0:0:
152,84,94205,2,0,B|280:33|280:33|356:-1,1,200
72,56,94768,6,0,L|48:172,1,100
344,216,95143,2,0,B|212:119|212:119|159:123,2,200
56,194,96268,5,0,0:0:0:0:
296,216,96643,2,0,L|124:321,1,200
164,196,97205,2,0,L|348:84,1,200
248,48,97768,1,0,0:0:0:0:
442,123,98143,6,0,B|331:74|331:74|211:140|211:140|136:120,2,300
80,100,99643,2,0,B|140:120|140:120|159:47|159:47|218:63,1,200
383,209,100393,2,0,L|457:302,1,100
168,188,100955,1,0,0:0:0:0:
260,192,101049,1,0,0:0:0:0:
360,192,101143,1,0,0:0:0:0:
256,192,101518,12,0,103955,0:0:0:0:
316,212,104143,5,2,0:0:0:0:
412,136,104330,2,0,B|336:68|336:68|304:144|304:144|212:64,1,300,0|0,0:0|0:0,0:0:0:0:
60,216,105268,2,0,L|160:176,1,100
424,228,105643,2,0,L|304:180,2,100
328,276,106205,1,0,0:0:0:0:
164,268,106393,1,0,0:0:0:0:
328,276,106580,1,0,0:0:0:0:
80,208,106768,2,0,L|184:132,1,100
328,148,107143,5,2,0:0:0:0:
49,142,107518,1,0,0:0:0:0:
240,141,107893,1,0,0:0:0:0:
320,296,108268,2,0,B|212:316|212:316|168:216,1,200
185,53,109018,2,0,B|294:34|294:34|341:135,1,200
75,198,109768,6,0,B|121:298|121:298|216:244,1,200,0|2,0:0|0:0,0:0:0:0:
264,76,110330,1,0,0:0:0:0:
344,168,110518,1,0,0:0:0:0:
426,73,110705,1,0,0:0:0:0:
188,308,110893,1,0,0:0:0:0:
72,100,111268,6,0,B|19:100|19:100,1,50
376,104,111643,1,0,0:0:0:0:
220,132,111830,1,0,0:0:0:0:
444,184,112018,1,0,0:0:0:0:
304,184,112205,1,0,0:0:0:0:
368,248,112393,1,0,0:0:0:0:
192,244,112580,1,0,0:0:0:0:
240,184,112768,1,0,0:0:0:0:
84,176,112955,1,0,0:0:0:0:
436,60,113143,5,2,0:0:0:0:
240,190,113518,1,0,0:0:0:0:
75,66,113893,1,0,0:0:0:0:
408,78,114268,1,0,0:0:0:0:
256,324,114455,1,0,0:0:0:0:
396,321,114643,2,0,B|320:283|322:283|204:329,1,200
149,273,115768,1,0,0:0:0:0:
284,152,116143,5,0,0:0:0:0:
284,152,116330,1,0,0:0:0:0:
285,154,116518,1,0,0:0:0:0:
208,208,116705,1,0,0:0:0:0:
180,124,116893,1,0,0:0:0:0:
376,180,117080,1,0,0:0:0:0:
408,88,117268,6,0,B|459:51|460:51|460:51|518:190,1,200
141,255,117830,2,0,L|49:210,1,100
352,224,118205,2,0,L|470:288,1,100
258,191,118580,1,0,0:0:0:0:
129,341,118768,2,0,L|25:284,1,100
171,106,119143,1,2,0:0:0:0:
321,107,119330,1,2,0:0:0:0:
431,321,119518,6,0,L|334:276,1,100
66,232,119893,2,0,L|181:283,1,100
80,120,120268,2,0,P|188:56|240:92,1,200
300,152,120830,1,0,0:0:0:0:
356,76,121018,2,0,B|404:142|404:142|468:164|468:164|488:192|484:232|484:232|304:232,1,400
80,192,122143,5,2,0:0:0:0:
184,232,122330,1,0,0:0:0:0:
92,304,122518,1,0,0:0:0:0:
184,224,122705,2,0,L|296:172,1,100
480,248,123080,1,0,0:0:0:0:
384,272,123268,2,0,L|277:323,1,100
120,200,123643,2,0,B|169:148|169:148|221:183|221:183|272:139|272:139|333:187|334:187|393:118|393:118|474:150,1,400
109,193,124768,2,0,L|224:161,1,100
408,296,125143,5,2,0:0:0:0:
256,284,125330,1,0,0:0:0:0:
104,296,125518,2,0,B|101:223|195:253|195:253|246:182,1,200
443,312,126643,2,0,B|352:266|337:226|336:226|254:243|254:243|261:332,1,300
377,79,128143,5,2,0:0:0:0:
95,65,128330,1,0,0:0:0:0:
63,187,128518,2,0,B|145:171|145:171|261:211,1,200
442,219,129643,2,0,B|354:167|355:167|243:225,1,200
63,302,130580,6,0,L|172:264,1,100
435,296,131143,1,2,0:0:0:0:
260,196,131330,1,0,0:0:0:0:
108,196,131518,1,0,0:0:0:0:
108,196,131611,1,0,0:0:0:0:
108,196,131705,1,0,0:0:0:0:
144,76,131893,2,0,L|256:76,1,100
360,140,132268,6,0,L|256:140,1,100
132,256,132643,2,0,L|276:256,2,100
384,256,133205,5,0,0:0:0:0:
384,256,133299,1,0,0:0:0:0:
384,256,133393,1,0,0:0:0:0:
256,192,133580,1,0,0:0:0:0:
384,168,133768,1,0,0:0:0:0:
256,192,133955,1,0,0:0:0:0:
120,212,134143,6,0,L|-4:248,1,100
184,96,134518,2,0,L|76:124,1,100
316,168,134893,6,0,L|448:132,1,100
412,264,135268,2,0,L|512:240,1,100
396,276,135643,1,0,0:0:0:0:
368,276,135736,1,0,0:0:0:0:
124,272,135924,1,0,0:0:0:0:
144,272,136018,1,0,0:0:0:0:
20,264,136205,2,0,L|116:156,1,100
140,128,136580,5,0,0:0:0:0:
200,128,136674,1,0,0:0:0:0:
264,128,136768,1,0,0:0:0:0:
328,128,136861,1,0,0:0:0:0:
388,128,136955,1,0,0:0:0:0:
88,76,137143,5,2,0:0:0:0:
88,76,137330,1,0,0:0:0:0:
184,68,137518,2,0,P|288:104|352:204,1,200
272,72,138080,1,0,0:0:0:0:
360,84,138268,2,0,P|452:120|484:228,1,200
392,232,139018,1,0,0:0:0:0:
256,216,139205,1,0,0:0:0:0:
128,120,139393,1,0,0:0:0:0:
68,336,139768,6,0,L|140:248,1,100
192,320,140143,2,0,P|304:264|384:304,1,200,2|0,0:0|0:0,0:0:0:0:
424,336,140705,1,0,0:0:0:0:
312,240,140893,2,0,P|228:184|120:220,2,200
104,204,142018,1,0,0:0:0:0:
244,156,142393,1,0,0:0:0:0:
104,204,142768,1,0,0:0:0:0:
236,196,142955,1,0,0:0:0:0:
92,248,143143,1,2,0:0:0:0:
232,236,143330,1,0,0:0:0:0:
344,264,143518,6,0,P|428:236|508:52,1,300
336,100,144268,2,0,P|268:68|88:204,1,300
296,192,145018,2,0,L|192:228,1,100
292,192,145393,2,0,L|396:224,1,100
492,72,145768,2,0,L|368:128,1,100
208,160,146143,1,2,0:0:0:0:
292,240,146330,1,0,0:0:0:0:
392,296,146518,2,0,P|296:336|168:296,1,200
56,188,147080,5,0,0:0:0:0:
124,260,147268,2,0,P|200:188|312:164,2,200
192,280,148393,1,0,0:0:0:0:
60,188,148580,1,0,0:0:0:0:
264,136,148768,1,0,0:0:0:0:
408,88,149143,5,2,0:0:0:0:
308,88,149330,2,0,P|192:64|96:96,1,200
236,100,149893,2,0,P|340:72|432:104,2,200
376,160,151018,2,0,L|468:84,1,100
256,84,151393,5,0,0:0:0:0:
148,160,151580,2,0,L|48:92,1,100
256,228,151955,1,0,0:0:0:0:
148,160,152143,2,0,P|216:208|348:196,1,200,2|0,0:0|0:0,0:0:0:0:
184,268,152705,2,0,P|260:328|400:320,1,200
136,328,153268,6,0,P|68:236|104:168,2,200
256,188,154393,1,0,0:0:0:0:
392,88,154768,1,0,0:0:0:0:
392,88,154955,1,0,0:0:0:0:
264,88,155143,6,0,L|36:48,1,200,2|0,0:0|0:0,0:0:0:0:
104,144,155705,1,0,0:0:0:0:
204,168,155893,1,0,0:0:0:0:
300,192,156080,1,0,0:0:0:0:
96,256,156268,2,0,L|220:256,1,100
420,264,156643,2,0,L|316:264,1,100
120,92,157018,5,0,0:0:0:0:
248,112,157205,1,0,0:0:0:0:
384,140,157393,1,0,0:0:0:0:
308,208,157580,2,0,L|195:256,1,100
68,216,157955,6,0,L|168:183,1,100,0|2,0:0|0:0,0:0:0:0:
304,148,158330,1,0,0:0:0:0:
236,303,158518,1,0,0:0:0:0:
176,188,158705,1,0,0:0:0:0:
360,272,158893,1,0,0:0:0:0:
104,68,159080,2,0,L|228:87,1,100
48,316,159455,5,0,0:0:0:0:
184,296,159643,1,0,0:0:0:0:
336,232,159830,1,0,0:0:0:0:
196,188,160018,1,0,0:0:0:0:
368,100,160205,1,0,0:0:0:0:
56,124,160393,1,0,0:0:0:0:
336,232,160580,1,0,0:0:0:0:
216,104,160768,1,0,0:0:0:0:
56,196,160955,1,0,0:0:0:0:
144,104,161143,1,2,0:0:0:0:
288,124,161330,1,2,0:0:0:0:
275,328,161518,2,0,B|409:255|413:253|413:253|329:184|330:184|330:184|428:116|428:116|280:60,1,500
256,196,162643,5,0,0:0:0:0:
232,328,162830,2,0,B|98:255|94:253|94:253|163:196|177:184|177:184|79:116|79:116|227:60,1,500
288,192,163955,2,0,L|400:128,1,100
256,112,164330,1,0,0:0:0:0:
76,176,164518,2,0,L|176:128,1,100
436,168,164893,2,0,L|360:68,1,100
236,328,165268,2,0,L|324:272,1,100
469,198,165643,5,0,0:0:0:0:
360,200,165830,1,0,0:0:0:0:
216,200,166018,1,0,0:0:0:0:
420,200,166205,1,0,0:0:0:0:
176,200,166393,1,0,0:0:0:0:
368,200,166580,1,0,0:0:0:0:
96,196,166768,1,0,0:0:0:0:
364,200,166955,1,0,0:0:0:0:
164,272,167143,1,0,0:0:0:0:
368,104,167330,1,0,0:0:0:0:
144,144,167518,6,0,L|269:112,1,100
412,240,167893,2,0,L|281:194,1,100
255,335,168268,2,0,L|256:212,1,100
68,196,168643,1,0,0:0:0:0:
232,200,169018,2,0,L|308:200,8,50
36,200,170143,1,8,0:0:0:0:
472,200,170518,1,8,0:0:0:0:
256,192,170705,12,0,176143,0:0:0:0:
