osu file format v12

[General]
AudioFilename: 07 - The relief.mp3
AudioLeadIn: 0
PreviewTime: 56143
Countdown: 0
SampleSet: Soft
StackLeniency: 0.7
Mode: 0
LetterboxInBreaks: 0
WidescreenStoryboard: 0

[Editor]
DistanceSpacing: 0.9
BeatDivisor: 4
GridSize: 4
TimelineZoom: 1

[Metadata]
Title:The Relief
TitleUnicode:The Relief
Artist:Kajiura Yuki
ArtistUnicode:梶浦由記
Creator:Setsurei
Version:Hard Collab
Source:Pandora Hearts
Tags:ost soundtrack qoot8123 Revolve Nazalion The_Epic_Backstabber Oz Vessalius Blood-Stained Black Rabbit B-Rabbit Alice Arisu Raven Gilbert Nightray
BeatmapID:214137
BeatmapSetID:75847

[Difficulty]
HPDrainRate:7
CircleSize:4
OverallDifficulty:7
ApproachRate:8
SliderMultiplier:2
SliderTickRate:1

[Events]
//Background and Video events
0,0,"pandora-hearts_1.jpg",0,0
//Break Periods
2,53343,55393
2,131343,136393
//Storyboard Layer 0 (Background)
//Storyboard Layer 1 (Fail)
//Storyboard Layer 2 (Pass)
//Storyboard Layer 3 (Foreground)
Sprite,Foreground,Centre,"Setsurei.png",320,240 M,0,1755,,550,370 F,0,1755,2130,0,1 F,0,2130,53130,1 F,0,53130,53505,1,0 F,0,53505,79755,0 F,0,79755,80130,0,1 F,0,80130,103755,1,0.9895 F,0,103755,104130,0.9895,0 F,0,104130,124755,0,0.01036619 F,0,124755,125130,0.01036619,1 F,0,125130,131130,1 F,0,131130,131505,1,0
Sprite,Foreground,Centre,"Revolve.png",320,240 M,0,55755,,110,370 F,0,55755,56130,0,1 F,0,56130,79755,1 F,0,79755,80130,1,0 F,0,80130,103755,0,0.0105 F,0,103755,104130,0.0105,1 F,0,104130,124755,1,0.9896338 F,0,124755,125130,0.9896338,0 F,0,125130,136755,0,0.007917087 F,0,136755,137130,0.007917087,1 F,0,137130,170130,1 F,0,170130,170505,1,0
//Storyboard Sound Samples
//Background Colour Transformations
3,100,163,162,255

[TimingPoints]
2143,375,4,2,1,50,1,0
2143,-200,4,2,1,50,0,0
8143,-100,4,2,1,50,0,0
20143,-100,4,2,1,70,0,0
56143,-100,4,2,1,50,0,1
80143,-100,4,2,1,50,0,0
100393,-200,4,2,1,50,0,0
101143,-100,4,2,1,50,0,0
137143,-100,4,2,1,50,0,1
161143,-100,4,2,1,50,0,0

[Colours]
Combo1 : 150,0,0
Combo2 : 255,255,255
Combo3 : 150,150,150
Combo4 : 255,0,0

[HitObjects]
64,119,2143,6,0,P|140:61|233:88,1,200,4|0,0:0|0:0,0:0:0:0:
284,164,3268,1,0,0:0:0:0:
239,244,3643,2,0,P|163:301|76:263,1,200,0|0,0:0|0:0,0:0:0:0:
48,176,4768,1,0,0:0:0:0:
84,91,5143,2,0,P|175:55|269:83,1,200,0|0,0:0|0:0,0:0:0:0:
332,148,6268,5,0,0:0:0:0:
384,224,6643,1,0,0:0:0:0:
256,352,7393,1,0,0:0:0:0:
32,72,8143,38,0,L|131:78,1,100,0|0,0:0|0:0,0:0:0:0:
72,148,8518,2,0,L|115:238,1,100,0|0,0:0|0:0,0:0:0:0:
168,164,8893,1,0,0:0:0:0:
200,80,9080,1,0,0:0:0:0:
284,112,9268,2,0,L|284:212,1,100,0|0,0:0|0:0,0:0:0:0:
256,300,9643,6,0,L|173:356,1,100,0|0,0:0|0:0,0:0:0:0:
128,276,10018,2,0,L|108:177,1,100,0|0,0:0|0:0,0:0:0:0:
184,128,10393,2,0,L|241:46,1,100,0|0,0:0|0:0,0:0:0:0:
328,72,10768,2,0,L|426:87,1,100,0|0,0:0|0:0,0:0:0:0:
408,176,11143,38,0,L|454:264,1,100,0|0,0:0|0:0,0:0:0:0:
368,296,11518,1,0,0:0:0:0:
280,276,11705,1,0,0:0:0:0:
208,220,11893,1,0,0:0:0:0:
124,188,12080,1,0,0:0:0:0:
96,104,12268,6,0,L|195:97,1,100,0|0,0:0|0:0,0:0:0:0:
260,44,12643,2,0,L|286:140,1,100,0|0,0:0|0:0,0:0:0:0:
376,136,13018,2,0,L|337:228,1,100,0|0,0:0|0:0,0:0:0:0:
252,260,13393,1,0,0:0:0:0:
164,280,13580,1,0,0:0:0:0:
80,244,13768,1,0,0:0:0:0:
96,63,14143,38,0,P|189:31|284:57,1,200,4|0,0:0|0:0,0:0:0:0:
439,152,14893,2,0,P|346:184|249:163,1,200,0|0,0:0|0:0,0:0:0:0:
67,167,15643,2,0,P|85:73|171:28,1,200,0|0,0:0|0:0,0:0:0:0:
340,99,16393,2,0,P|435:110|483:194,1,200,0|0,0:0|0:0,0:0:0:0:
331,288,17143,6,0,P|236:275|194:188,2,200,0|0|0,0:0|0:0|0:0,0:0:0:0:
412,128,18268,2,0,P|454:152|471:198,2,100,0|0|0,0:0|0:0|0:0,0:0:0:0:
232,128,19018,1,8,0:0:0:0:
48,136,19393,1,12,0:0:0:0:
84,56,19580,1,0,0:0:0:0:
148,120,19768,1,8,0:0:0:0:
320,83,20143,38,0,P|404:126|400:221,1,200,4|2,0:0|0:0,0:0:0:0:
219,203,20893,2,0,P|128:215|125:307,1,200,0|0,0:0|0:0,0:0:0:0:
304,324,21643,1,0,0:0:0:0:
64,52,22393,1,0,0:0:0:0:
340,284,23143,2,0,P|434:269|468:179,3,200,0|0|0|0,0:0|0:0|0:0|0:0,0:0:0:0:
292,152,24643,1,4,0:0:0:0:
168,256,26143,5,4,0:0:0:0:
260,104,26518,1,0,0:0:0:0:
284,284,26893,1,0,0:0:0:0:
160,152,27268,1,0,0:0:0:0:
340,188,27643,1,2,0:0:0:0:
304,352,28018,38,0,P|401:350|467:279,1,200,0|0,0:0|0:0,0:0:0:0:
287,260,28768,2,0,P|191:276|107:225,1,200,0|2,0:0|0:0,0:0:0:0:
68,144,29330,1,0,0:0:0:0:
68,144,29518,2,0,B|154:144|154:60|241:57,1,200,0|0,0:0|0:0,0:0:0:0:
396,156,30268,5,2,0:0:0:0:
344,328,30643,1,0,0:0:0:0:
164,328,31018,1,0,0:0:0:0:
41,193,31393,2,0,B|62:89|191:131|191:131|215:-16|333:35,1,400,0|2,0:0|0:0,0:0:0:0:
452,171,32518,38,0,P|453:269|383:336,1,200,0|8,0:0|0:0,0:0:0:0:
399,111,33268,2,0,P|304:88|216:130,1,200,0|2,0:0|0:0,0:0:0:0:
36,260,34018,2,0,B|116:324|225:292,1,200,0|2,0:0|0:0,0:0:0:0:
81,181,34768,6,0,B|224:0|288:328|416:125,2,400,0|8|8,0:0|0:0|0:0,0:0:0:0:
248,252,36643,2,0,P|342:276|431:234,1,200,0|2,0:0|0:0,0:0:0:0:
376,164,37205,2,0,P|332:185|284:174,2,100,0|0|0,0:0|0:0|0:0,0:0:0:0:
320,92,37768,1,2,0:0:0:0:
204,228,38143,38,0,B|284:308|284:308|369:293,1,200,4|0,0:0|0:0,0:0:0:0:
196,328,38893,2,0,B|116:248|116:248|30:262,1,200,2|0,0:0|0:0,0:0:0:0:
204,216,39643,2,0,B|172:120|172:120|78:88,1,200,0|0,0:0|0:0,0:0:0:0:
256,56,40393,2,0,B|348:76|348:76|407:163,2,200,2|0|4,0:0|0:0|0:0,0:0:0:0:
136,192,41518,6,0,P|88:160|72:116,2,100,0|0|0,0:0|0:0|0:0,0:0:0:0:
40,344,42268,1,0,0:0:0:0:
220,344,42643,1,2,0:0:0:0:
448,68,43393,1,2,0:0:0:0:
87,72,44143,38,0,P|40:157|63:252,1,200,0|0,0:0|0:0,0:0:0:0:
172,107,44893,2,0,P|264:75|355:111,1,200,8|0,0:0|0:0,0:0:0:0:
391,287,45643,2,0,P|400:192|483:144,1,200,0|0,0:0|0:0,0:0:0:0:
311,204,46393,2,0,P|216:224|135:170,1,200,8|0,0:0|0:0,0:0:0:0:
256,192,47143,12,0,49768,0:0:0:0:
256,192,50143,12,4,53143,0:0:0:0:
224,192,56143,21,12,0:0:0:0:
380,284,56518,1,0,0:0:0:0:
336,204,56705,1,0,0:0:0:0:
380,128,56893,1,8,0:0:0:0:
280,276,57268,1,0,0:0:0:0:
112,148,57643,5,8,0:0:0:0:
284,84,58018,1,0,0:0:0:0:
224,152,58205,1,0,0:0:0:0:
168,224,58393,1,0,0:0:0:0:
324,148,58768,38,0,P|416:104|516:188,1,200,2|8,0:0|0:0,0:0:0:0:
168,224,59518,2,0,L|232:224|308:224,1,100,0|0,0:0|0:0,0:0:0:0:
260,52,60080,1,0,0:0:0:0:
260,52,60268,1,0,0:0:0:0:
176,304,60643,6,0,L|92:216,1,100
104,128,61018,2,0,L|192:44,1,100
260,52,61393,1,0,0:0:0:0:
348,56,61580,2,0,L|444:164,2,100
316,140,62143,37,8,0:0:0:0:
136,144,62518,1,0,0:0:0:0:
316,140,62893,1,8,0:0:0:0:
212,264,63268,1,0,0:0:0:0:
136,220,63455,1,0,0:0:0:0:
216,176,63643,1,8,0:0:0:0:
372,148,64018,1,8,0:0:0:0:
196,152,64393,1,8,0:0:0:0:
372,148,64768,5,2,0:0:0:0:
216,68,65143,2,0,B|264:100|264:100|284:68|284:68|428:68,1,200,2|0,0:0|0:0,0:0:0:0:
372,148,65705,1,0,0:0:0:0:
392,248,65893,2,0,B|344:280|344:280|324:248|324:248|180:248,1,200,0|0,0:0|0:0,0:0:0:0:
336,112,66643,2,0,P|376:88|440:72,2,100,2|0|0,0:0|0:0|0:0,0:0:0:0:
160,160,67393,2,0,P|164:208|216:256,2,100,0|0|0,0:0|0:0|0:0,0:0:0:0:
308,52,68143,37,0,0:0:0:0:
412,240,68518,1,0,0:0:0:0:
388,312,68705,1,0,0:0:0:0:
328,272,68893,1,0,0:0:0:0:
180,172,69268,1,0,0:0:0:0:
452,160,69643,2,0,B|388:132|312:132|228:156,2,200,0|8|0,0:0|0:0|0:0,0:0:0:0:
256,148,70768,1,0,0:0:0:0:
260,276,71143,5,0,0:0:0:0:
188,224,71330,1,0,0:0:0:0:
124,160,71518,1,8,0:0:0:0:
280,68,71893,1,2,0:0:0:0:
276,248,72268,1,0,0:0:0:0:
144,104,72643,2,0,B|200:80|288:80|380:100,1,200,0|0,0:0|0:0,0:0:0:0:
304,176,73205,1,0,0:0:0:0:
308,268,73393,2,0,B|372:288|440:292|512:268,1,200,0|8,0:0|0:0,0:0:0:0:
468,184,73955,1,0,0:0:0:0:
432,104,74143,37,0,0:0:0:0:
276,192,74518,1,0,0:0:0:0:
192,224,74705,1,0,0:0:0:0:
108,188,74893,2,0,L|296:80,1,200,0|0,0:0|0:0,0:0:0:0:
416,188,75643,1,2,0:0:0:0:
244,240,76018,1,0,0:0:0:0:
72,192,76393,5,2,0:0:0:0:
128,124,76580,1,0,0:0:0:0:
188,56,76768,2,0,B|244:56|244:56|292:108|292:108|400:112,1,200
436,276,77518,2,0,B|380:276|380:276|332:224|332:224|224:220,2,200,0|0|0,0:0|0:0|0:0,0:0:0:0:
224,64,78643,2,0,P|264:84|308:140,1,100
300,124,79018,1,0,0:0:0:0:
200,260,79205,37,0,0:0:0:0:
200,260,79393,2,0,P|160:240|116:184,2,100
256,192,79955,1,0,0:0:0:0:
256,192,80143,21,4,0:0:0:0:
83,135,80518,2,0,P|110:44|202:21,1,200
320,160,81268,6,0,P|297:249|205:242,1,200,0|0,0:0|0:0,0:0:0:0:
124,204,81830,1,0,0:0:0:0:
60,143,82018,1,0,0:0:0:0:
149,117,82205,1,0,0:0:0:0:
324,80,82580,37,0,0:0:0:0:
324,79,82768,2,0,P|417:63|479:136,1,200,0|0,0:0|0:0,0:0:0:0:
447,224,84268,6,0,P|383:296|287:287,1,200,2|2,0:0|0:0,0:0:0:0:
264,200,84830,1,0,0:0:0:0:
200,264,85018,1,0,0:0:0:0:
176,176,85205,1,2,0:0:0:0:
108,232,85393,1,0,0:0:0:0:
88,144,85580,1,0,0:0:0:0:
80,59,85768,2,0,B|172:120|172:-8|263:41,1,200,0|2,0:0|0:0,0:0:0:0:
320,96,87268,37,0,0:0:0:0:
184,212,87643,2,0,P|203:257|240:291,2,100,0|0|0,0:0|0:0|0:0,0:0:0:0:
278,202,88205,2,0,B|323:247|323:247|371:183|441:232,1,200,0|0,0:0|0:0,0:0:0:0:
488,152,88768,2,0,B|424:56|424:56|339:56,1,200,0|0,0:0|0:0,0:0:0:0:
487,152,90268,6,0,P|391:147|338:66,1,200,2|0,0:0|0:0,0:0:0:0:
256,96,90830,1,0,0:0:0:0:
267,184,91018,2,0,P|179:148|174:54,1,200,0|0,0:0|0:0,0:0:0:0:
256,96,91580,1,0,0:0:0:0:
244,7,91768,2,0,P|332:42|336:136,1,200,0|2,0:0|0:0,0:0:0:0:
340,228,92330,37,0,0:0:0:0:
359,315,92518,2,0,P|406:301|427:257,2,100,0|0|2,0:0|0:0|0:0,0:0:0:0:
264,172,93268,6,8,P|278:125|323:107,1,100,0|0,0:0|0:0,0:0:0:0:
368,120,93549,1,0,0:0:0:0:
391,155,93643,2,0,P|389:204|352:234,1,100,0|0,0:0|0:0,0:0:0:0:
320,268,93924,1,0,0:0:0:0:
275,279,94018,2,0,P|226:280|189:312,1,100,0|0,0:0|0:0,0:0:0:0:
100,295,94393,38,8,P|115:249|154:220,1,100,2|0,0:0|0:0,0:0:0:0:
186,188,94674,1,0,0:0:0:0:
230,188,94768,2,0,P|260:148|264:99,1,100,0|0,0:0|0:0,0:0:0:0:
296,67,95049,1,0,0:0:0:0:
327,34,95143,2,0,P|421:56|465:142,1,200,0|2,0:0|0:0,0:0:0:0:
400,204,95705,5,0,0:0:0:0:
399,204,95893,2,0,P|323:256|256:192,1,200,0|0,0:0|0:0,0:0:0:0:
255,192,96643,2,0,P|187:128|101:166,1,200,0|0,0:0|0:0,0:0:0:0:
96,76,97205,1,0,0:0:0:0:
152,8,97393,2,0,P|228:69|326:71,1,200,0|0,0:0|0:0,0:0:0:0:
299,247,98143,2,0,P|245:165|158:117,1,200,0|0,0:0|0:0,0:0:0:0:
232,68,98705,1,0,0:0:0:0:
319,40,98893,2,0,P|355:130|444:168,1,200,0|0,0:0|0:0,0:0:0:0:
324,300,99643,2,0,B|284:312|236:240|228:184|169:191,1,200,0|4,0:0|0:0,0:0:0:0:
115,119,100393,38,0,P|133:74|178:55,1,100,0|4,0:0|0:0,0:0:0:0:
256,64,101143,5,8,0:0:0:0:
256,160,101330,1,0,0:0:0:0:
256,320,101518,1,0,0:0:0:0:
256,224,101705,1,0,0:0:0:0:
416,192,101893,37,8,0:0:0:0:
320,192,102080,1,0,0:0:0:0:
96,192,102268,1,0,0:0:0:0:
192,192,102455,1,0,0:0:0:0:
192,192,102643,1,4,0:0:0:0:
267,315,103018,2,0,P|185:262|86:260,2,200,0|0|8,0:0|0:0|0:0,0:0:0:0:
86,261,104143,22,0,P|182:249|278:169,2,200,4|0|4,0:0|0:0|0:0,0:0:0:0:
105,82,105268,1,8,0:0:0:0:
55,156,105455,1,0,0:0:0:0:
103,232,105643,1,8,0:0:0:0:
148,154,105830,1,0,0:0:0:0:
238,151,106018,1,0,0:0:0:0:
238,151,106205,1,0,0:0:0:0:
403,221,106580,1,0,0:0:0:0:
350,147,106768,1,0,0:0:0:0:
260,52,107143,5,2,0:0:0:0:
256,232,107518,1,0,0:0:0:0:
80,192,107893,1,0,0:0:0:0:
256,232,108268,1,0,0:0:0:0:
300,56,108643,2,0,P|356:64|452:208,2,200,0|0|0,0:0|0:0|0:0,0:0:0:0:
256,232,109768,1,0,0:0:0:0:
96,148,110143,38,0,B|120:72|176:52|236:56|280:80,1,200,2|0,0:0|0:0,0:0:0:0:
324,128,110705,1,0,0:0:0:0:
352,212,110893,2,0,P|296:276|164:264,1,200,0|2,0:0|0:0,0:0:0:0:
136,204,111455,1,0,0:0:0:0:
216,160,111643,1,0,0:0:0:0:
296,116,111830,1,0,0:0:0:0:
216,76,112018,1,0,0:0:0:0:
140,120,112205,1,0,0:0:0:0:
172,296,112580,2,0,L|276:220,1,100,0|8,0:0|0:0,0:0:0:0:
320,176,112955,2,0,L|436:176,1,100,0|8,0:0|0:0,0:0:0:0:
256,248,113518,5,0,0:0:0:0:
256,248,113893,1,0,0:0:0:0:
256,248,114268,1,0,0:0:0:0:
176,88,114643,1,0,0:0:0:0:
240,148,114830,1,0,0:0:0:0:
308,204,115018,1,0,0:0:0:0:
236,260,115205,1,0,0:0:0:0:
160,320,115393,1,0,0:0:0:0:
160,232,115580,1,0,0:0:0:0:
164,144,115768,1,0,0:0:0:0:
244,183,115955,1,0,0:0:0:0:
321,229,116143,38,0,B|441:250|398:95|521:158,1,200,4|0,0:0|0:0,0:0:0:0:
323,227,116893,1,0,0:0:0:0:
198,230,117268,1,0,0:0:0:0:
198,230,117455,1,0,0:0:0:0:
198,230,117643,6,0,B|78:251|121:96|-2:159,1,200,0|0,0:0|0:0,0:0:0:0:
198,72,118393,38,0,B|250:22|338:23|382:76,2,200,0|0|2,0:0|0:0|0:0,0:0:0:0:
334,189,119518,1,0,0:0:0:0:
154,187,119893,1,0,0:0:0:0:
288,306,120268,1,0,0:0:0:0:
122,280,120643,6,0,P|213:316|304:280,1,200,0|0,0:0|0:0,0:0:0:0:
387,227,121205,2,0,L|298:183,1,100,0|0,0:0|0:0,0:0:0:0:
252,105,121580,2,0,L|173:167,1,100,2|0,0:0|0:0,0:0:0:0:
108,100,122143,37,2,0:0:0:0:
260,196,122518,1,0,0:0:0:0:
172,196,122705,1,2,0:0:0:0:
216,116,122893,1,0,0:0:0:0:
396,120,123268,1,2,0:0:0:0:
404,300,123643,1,0,0:0:0:0:
316,300,123830,1,0,0:0:0:0:
356,220,124018,1,2,0:0:0:0:
268,216,124205,1,0,0:0:0:0:
316,140,124393,1,8,0:0:0:0:
140,184,124768,1,2,0:0:0:0:
159,55,125143,22,0,P|69:91|35:182,1,200,2|0,0:0|0:0,0:0:0:0:
124,183,125705,2,0,P|119:233|141:277,1,100,0|0,0:0|0:0,0:0:0:0:
207,215,126080,2,0,P|239:254|286:269,1,100,0|0,0:0|0:0,0:0:0:0:
291,179,126455,2,0,P|341:184|385:162,1,100,0|0,0:0|0:0,0:0:0:0:
221,110,127018,6,0,B|308:136|280:-24|378:34,2,200,0|0|0,0:0|0:0|0:0,0:0:0:0:
128,48,128143,1,8,0:0:0:0:
280,144,128518,1,8,0:0:0:0:
100,152,128893,2,0,B|36:212|64:276|64:276|125:276,2,200,8|0|0,0:0|0:0|0:0,0:0:0:0:
256,64,130018,37,0,0:0:0:0:
383,191,130393,1,0,0:0:0:0:
255,318,130768,1,0,0:0:0:0:
127,190,131143,1,4,0:0:0:0:
200,268,137143,22,0,B|232:340|296:340|360:304|356:228,1,200,4|0,0:0|0:0,0:0:0:0:
356,180,137705,1,0,0:0:0:0:
276,220,137893,1,0,0:0:0:0:
88,176,138268,2,0,B|60:104|120:52|172:44|224:80,1,200,0|2,0:0|0:0,0:0:0:0:
276,220,139018,5,0,0:0:0:0:
188,48,139393,1,0,0:0:0:0:
260,100,139580,1,0,0:0:0:0:
424,164,139768,2,0,L|324:164,2,100,0|0|2,0:0|0:0|0:0,0:0:0:0:
152,116,140518,2,0,L|60:220,1,100,0|0,0:0|0:0,0:0:0:0:
216,64,141080,2,0,L|304:144,1,100,0|0,0:0|0:0,0:0:0:0:
124,64,141643,37,2,0:0:0:0:
188,128,141830,1,0,0:0:0:0:
124,192,142018,1,8,0:0:0:0:
60,132,142205,1,0,0:0:0:0:
120,64,142393,5,0,0:0:0:0:
60,132,142580,1,0,0:0:0:0:
124,192,142768,2,2,B|172:216|224:224|276:212|336:176,1,200,0|2,0:0|0:0,0:0:0:0:
284,56,143518,37,0,0:0:0:0:
280,236,143893,1,0,0:0:0:0:
100,240,144268,1,0,0:0:0:0:
100,240,144455,1,0,0:0:0:0:
280,236,144830,1,0,0:0:0:0:
336,164,145018,1,0,0:0:0:0:
216,300,145393,1,0,0:0:0:0:
152,132,145768,1,0,0:0:0:0:
276,84,146143,2,0,B|342:34|431:98|380:179,1,200,2|0,0:0|0:0,0:0:0:0:
224,80,146893,2,0,B|158:30|69:94|120:175,1,200,0|0,0:0|0:0,0:0:0:0:
336,240,147643,2,0,B|291:308|196:297|164:235,1,200,0|0,0:0|0:0,0:0:0:0:
268,140,148393,6,0,L|132:140,2,100,0|0|0,0:0|0:0|0:0,0:0:0:0:
268,140,148955,1,0,0:0:0:0:
268,140,149143,2,0,P|304:108|396:84,1,100,2|0,0:0|0:0,0:0:0:0:
340,176,149518,2,0,P|392:184|448:252,1,100,0|0,0:0|0:0,0:0:0:0:
348,252,149893,2,0,P|379:294|370:382,2,100
272,224,150455,1,0,0:0:0:0:
348,252,150643,1,0,0:0:0:0:
136,308,151018,1,2,0:0:0:0:
0,144,151393,37,0,0:0:0:0:
80,100,151580,1,0,0:0:0:0:
160,140,151768,1,0,0:0:0:0:
240,100,151955,1,0,0:0:0:0:
264,196,152143,2,0,P|360:232|444:184,1,200,2|0,0:0|0:0,0:0:0:0:
356,156,152705,1,0,0:0:0:0:
208,148,153080,1,0,0:0:0:0:
208,148,153268,1,0,0:0:0:0:
68,260,153643,6,0,P|128:264|196:220,1,100,0|0,0:0|0:0,0:0:0:0:
144,164,154018,2,0,P|192:136|264:136,1,100,0|0,0:0|0:0,0:0:0:0:
280,208,154393,2,0,P|344:188|360:136,1,100,0|0,0:0|0:0,0:0:0:0:
232,52,154768,2,0,L|288:136,1,100,2|0,0:0|0:0,0:0:0:0:
160,104,155143,1,4,0:0:0:0:
164,284,155518,37,8,0:0:0:0:
344,284,155893,1,0,0:0:0:0:
344,104,156268,1,2,0:0:0:0:
344,104,156455,1,0,0:0:0:0:
140,280,157018,1,8,0:0:0:0:
280,168,157393,1,0,0:0:0:0:
100,164,157768,1,8,0:0:0:0:
252,64,158143,6,0,P|400:160|268:272,1,400,0|0,0:0|0:0,0:0:0:0:
112,280,159643,2,0,B|128:72|396:320|424:92,1,400,0|0,0:0|0:0,0:0:0:0:
100,264,161143,38,0,P|136:296|220:304,1,100,4|0,0:0|0:0,0:0:0:0:
188,220,161518,2,0,P|232:196|256:112,1,100,0|0,0:0|0:0,0:0:0:0:
160,116,161893,2,0,P|100:108|60:60,2,100,0|0|0,0:0|0:0|0:0,0:0:0:0:
412,264,162643,6,0,P|376:296|292:304,1,100,0|0,0:0|0:0,0:0:0:0:
324,220,163018,2,0,P|280:192|244:124,1,100,0|0,0:0|0:0,0:0:0:0:
352,116,163393,2,0,P|412:108|452:60,2,100,0|0|0,0:0|0:0|0:0,0:0:0:0:
160,116,164143,1,8,0:0:0:0:
372,92,164518,1,0,0:0:0:0:
404,176,164705,1,0,0:0:0:0:
444,268,165080,1,8,0:0:0:0:
404,176,165268,1,0,0:0:0:0:
220,188,165643,37,0,0:0:0:0:
84,308,166018,1,0,0:0:0:0:
152,244,166205,1,0,0:0:0:0:
80,80,166580,1,8,0:0:0:0:
144,144,166768,1,0,0:0:0:0:
316,192,167143,5,4,0:0:0:0:
136,188,167518,1,0,0:0:0:0:
316,192,167893,1,0,0:0:0:0:
136,188,168268,1,0,0:0:0:0:
256,192,168643,12,4,170143,0:0:0:0:
