osu file format v7

[General]
AudioFilename: Kajiura Yuki - The Dreamers.mp3
AudioLeadIn: 1732
PreviewTime: 32137
Countdown: 0
SampleSet: Soft
StackLeniency: 0.7
Mode: 0
LetterboxInBreaks: 1

[Editor]
Bookmarks: 64637,80637
DistanceSpacing: 1
BeatDivisor: 8
GridSize: 8

[Metadata]
Title:The Dreamers
Artist:Kajiura Yuki
Creator:Lissette
Version:Insane
Source:Tsubasa Chronicle
Tags:Lizbeth KenezzEdward

[Difficulty]
HPDrainRate:7
CircleSize:4
OverallDifficulty:7
SliderMultiplier:2.5
SliderTickRate:1

[Events]
//Background and Video events
0,0,"MinitokyoTsubasaReservoirChronicleW.jpg"
//Break Periods
2,64835,79735
//Storyboard Layer 0 (Background)
//Storyboard Layer 1 (Fail)
//Storyboard Layer 2 (Pass)
//Storyboard Layer 3 (Foreground)
//Storyboard Sound Samples
//Background Colour Transformations
3,100,163,162,255

[TimingPoints]
635,500,4,2,0,60,1,0
30637,-100,4,2,0,20,0,0
32137,-100,4,2,0,60,0,0
96637,-100,4,2,0,30,0,0
103637,-100,4,2,0,40,0,0
106512,-100,4,2,0,60,0,0
126887,-100,4,2,0,0,0,0

[Colours]
Combo1 : 255,128,128
Combo2 : 255,157,111
Combo3 : 255,255,128
Combo4 : 255,160,66

[HitObjects]
96,72,635,2,0,B|216:128|344:64,1,250,2|0
464,336,1510,1,0
464,336,1635,1,0
400,264,1885,1,0
400,264,2010,1,0
400,264,2135,1,0
312,304,2385,1,0
312,304,2510,1,0
312,304,2635,6,0,B|176:256|64:304,1,250,2|0
48,48,3510,1,0
48,48,3635,1,0
152,48,3885,1,0
152,48,4010,1,0
152,48,4135,1,0
192,144,4385,1,0
192,144,4510,1,0
192,144,4635,6,0,B|192:296|376:304,1,250,2|0
400,16,5510,1,0
400,16,5635,1,0
480,104,5885,1,0
480,104,6010,1,0
480,104,6135,1,0
368,120,6385,1,0
368,120,6510,1,0
368,120,6635,6,0,B|240:48|112:128,2,250,2|0|0
328,208,7885,2,0,B|408:208,2,62.5
296,304,8385,1,0
296,304,8510,1,0
296,304,8635,6,0,B|176:360|48:296,2,250,2|0|0
392,272,9885,1,0
392,272,10010,1,0
392,272,10135,1,0
440,184,10385,1,0
240,40,10635,6,0,B|168:72|168:160|248:184,1,187.5,2|0
264,192,11135,2,0,B|336:224|336:312|256:336,1,187.5,2|0
240,336,11635,2,0,B|176:288|64:288|0:336,1,250,2|0
240,336,12385,5,0
456,176,12635,2,0,B|448:64|296:48,1,187.5,2|0
184,320,13385,2,0,B|8:328|16:168,1,250,0|0
184,320,14135,1,0
15,184,14385,1,0
256,240,14635,5,2
408,296,14885,1,0
472,144,15135,1,0
328,80,15385,1,0
256,240,15635,2,0,B|184:328|56:280,2,187.5,2|2|2
80,96,16635,6,0,B|152:32|264:48,2,187.5,2|0|0
80,96,17510,1,0
80,96,17635,1,0
184,160,17885,1,0
184,160,18010,1,0
184,160,18135,1,0
296,208,18385,1,0
296,208,18510,1,0
296,208,18635,6,0,B|240:296|112:272,2,187.5,2|0|0
296,208,19510,1,0
296,208,19635,1,0
272,96,19885,1,0
272,96,20010,1,0
272,96,20135,1,0
392,136,20385,1,0
392,136,20510,1,0
392,136,20635,6,0,B|496:160|496:288,2,187.5,2|0|0
392,136,21510,1,0
392,136,21635,1,0
376,256,21885,1,0
376,256,22135,1,0
360,376,22385,1,0
360,376,22510,1,0
360,376,22635,6,0,B|232:352|232:192,2,187.5,2|0|0
472,192,23635,1,0
360,32,23885,1,0
256,192,24135,1,0
472,192,24385,1,0
360,32,24635,6,0,B|264:80|232:16|160:48,2,187.5,2|0|0
256,192,25635,1,0
240,344,25885,1,0
208,192,26135,1,0
184,24,26385,1,0
16,24,26635,5,2
256,352,27135,1,2
496,24,27635,1,2
152,248,28385,5,0
368,248,28635,1,2
256,64,28885,1,0
256,64,29010,1,2
256,352,29385,5,0
256,224,29635,2,0,B|256:144,3,62.5,2|0|2|2
256,40,30260,2,0,B|256:112,2,62.5,2|2|2
256,192,30635,12,0,32135
208,304,32635,6,0,B|152:352|56:296,1,125,2|0
160,208,33135,2,0,B|232:160|304:232,1,125,2|0
208,304,33635,1,2
336,304,33885,1,0
336,304,34010,2,0,B|400:336|456:296,2,125,2|0|0
336,304,34635,5,2
328,176,34885,2,0,B|376:120,1,62.5,2|0
256,64,35260,1,0
147,131,35510,2,0,B|192:176,1,62.5,0|2
256,288,35885,2,0,B|256:200,1,62.5,0|2
440,96,36760,5,2
440,96,36885,1,2
440,96,37010,1,2
352,184,37260,1,0
264,96,37510,1,0
264,96,37635,1,2
144,72,37885,5,2
32,232,38135,1,2
192,112,38385,1,2
80,272,38635,1,2
424,304,39260,5,2
320,240,39510,1,0
320,240,39635,1,2
208,304,39885,1,0
208,304,40010,1,2
104,232,40260,6,0,B|32:176|128:112,1,125,2|0
105,128,40635,1,2
336,72,40885,1,2
408,280,41135,1,2
184,344,41385,1,2
104,128,41635,1,2
448,72,42260,6,0,B|416:136|304:128,2,125,2|0|0
448,72,42885,1,2
256,40,43135,1,2
80,72,43385,1,2
256,40,43635,1,2
448,72,43885,1,0
448,72,44010,1,2
456,200,44260,6,0,B|440:272|360:288,1,125,2|0
352,288,44635,2,0,B|272:216|176:288,2,187.5,2|2|2
229,145,45760,2,0,B|149:217|53:145,1,187.5,2|2
62,274,46385,6,0,B|216:348,1,125,0|2
291,283,46885,2,0,B|198:236,1,62.5,0|2
233,129,47260,2,0,B|305:170,2,62.5,2|2|2
464,32,48010,6,0,B|488:96|424:128|504:192,1,125,2|0
472,280,48510,1,0
472,280,48635,1,2
184,168,49260,5,0
184,168,49385,1,0
184,168,49510,1,0
184,168,49635,2,0,B|88:160|32:296|104:368,1,250,2|0
200,296,50385,1,2
320,312,50635,2,0,B|392:208,1,125,2|0
392,184,51010,2,0,B|289:63,1,125,2|0
192,40,51510,1,0
167,38,51635,5,2
142,41,51760,1,0
118,49,51885,1,2
98,64,52010,1,0
83,84,52135,1,2
72,106,52260,1,0
66,130,52385,1,2
65,154,52510,1,0
64,178,52635,5,2
66,202,52760,1,0
72,226,52885,1,2
79,249,53010,1,0
95,268,53135,1,2
112,285,53260,1,0
133,297,53385,1,2
256,280,53635,6,0,B|304:176,2,93.75,2|0|0
280,304,54135,2,0,B|352:240,2,93.75,2|0|0
280,336,54635,2,0,B|384:312,2,93.75,2|0|2
376,248,55260,2,0,B|440:216|424:112,1,125,2|0
424,120,55635,2,0,B|344:104|344:16,1,125,2|0
320,32,56010,2,0,B|232:24|192:128,1,125,2|2
64,304,56635,5,2
104,104,56885,1,2
136,304,57135,1,2
168,104,57385,1,2
344,312,57635,5,2
376,104,57885,1,2
408,312,58135,1,2
440,104,58385,1,2
472,224,58635,6,0,B|408:256|320:208,1,125,2|0
288,224,59010,2,0,B|224:192|136:240,1,125,2|0
32,104,59510,5,0
32,104,59635,2,0,B|96:136|184:88,1,125,2|0
216,104,60010,2,0,B|280:72|368:120,2,125,2|0|2
216,104,60635,6,0,B|264:184|168:240|224:304|240:304,1,187.5,2|2
336,336,61260,1,0
336,336,61385,1,2
336,336,61510,1,0
336,336,61635,1,2
400,232,61885,1,2
272,232,62135,1,2
456,136,62385,1,2
208,136,62635,2,0,B|128:112|56:160|56:280,2,187.5,2|0|0
256,352,63635,5,2
512,32,64135,1,2
0,32,64635,1,4
256,192,80635,5,2
256,64,80885,1,0
256,40,81010,1,0
256,16,81135,1,2
376,120,81385,1,0
256,192,81635,1,2
256,320,81885,1,0
256,344,82010,1,0
256,368,82135,1,2
136,264,82385,1,0
256,192,82635,5,2
376,264,82885,1,2
392,248,83010,1,0
408,232,83135,1,2
424,216,83260,1,0
440,200,83385,1,2
408,80,83635,5,2
392,96,83760,1,0
376,112,83885,1,2
360,128,84010,1,0
344,144,84135,1,2
328,160,84260,1,2
312,176,84385,1,0
88,184,84635,5,2
248,96,85010,1,0
248,96,85135,2,0,B|336:96|336:208,1,125,2|0
216,216,85635,2,0,B|208:320|288:352|368:304,2,187.5,2|2|0
336,192,86635,6,0,B|363:95|291:23|195:39,2,250
16,344,88135,1,0
488,32,88635,5,2
432,144,88885,1,0
432,168,89010,1,0
432,192,89135,1,2
256,344,89385,5,0
256,232,89635,1,2
256,208,89760,1,0
256,184,89885,1,2
256,160,90010,1,0
256,136,90135,1,2
40,32,90385,5,0
40,248,90635,1,0
128,336,90885,5,2
128,312,91010,1,0
128,288,91135,1,2
128,264,91260,1,0
128,240,91385,1,2
280,240,91635,5,2
280,216,91760,1,0
280,192,91885,1,0
448,192,92135,5,2
448,168,92260,1,0
448,144,92385,1,0
256,24,92635,5,2
160,112,92885,1,2
136,112,93010,1,0
112,112,93135,1,2
88,112,93260,1,0
64,112,93385,1,2
256,168,93635,5,2
352,240,93885,1,0
376,240,94010,1,0
400,240,94135,1,2
256,328,94385,5,0
256,328,94635,1,2
152,240,94885,5,2
128,240,95010,1,0
104,240,95135,1,2
80,240,95260,1,0
56,240,95385,1,2
240,120,95635,5,2
264,120,95760,1,0
288,120,95885,1,2
312,120,96010,1,0
336,120,96135,1,2
360,120,96260,1,0
384,120,96385,1,2
408,120,96510,1,0
432,120,96635,5,2
104,120,97010,1,0
256,344,97447,5,0
256,192,97697,1,2
256,32,97947,1,0
256,32,98072,1,2
104,280,98385,5,0
104,104,98635,1,2
408,192,99010,1,0
256,32,99760,6,0,L|264:32|256:40|264:40|256:48|264:48|256:56|264:56|256:64|264:64|256:72|264:72|256:80|264:80|256:88|264:88|256:96|264:96|256:104|264:104|256:112|264:112|256:120|264:120,1,187.5,0|0
256,352,100385,5,0
256,168,100635,1,6
488,256,101010,1,0
24,264,101385,5,0
200,264,101635,1,2
112,104,101885,1,0
112,104,102010,1,2
432,112,102385,5,0
432,296,102635,1,2
160,200,103010,1,0
160,200,103135,1,2
256,32,103885,5,0
256,32,104010,1,0
256,32,104135,1,0
192,144,104385,1,0
320,144,104635,1,0
256,352,105885,5,0
256,328,106010,1,0
256,304,106135,1,0
120,192,106385,1,0
392,192,106635,1,4
48,192,107135,5,0
48,192,107510,1,0
48,192,107635,1,0
176,192,107885,1,0
176,192,108010,1,0
176,192,108135,1,0
248,88,108385,1,0
248,88,108510,1,0
248,88,108635,6,0,B|344:48|440:96,2,187.5,6|0|0
248,88,109510,1,0
248,88,109635,1,0
336,176,109885,1,0
336,176,110010,1,0
336,176,110135,1,0
424,264,110385,1,0
424,264,110510,1,0
424,264,110635,6,0,B|338:307|242:267,2,187.5,6|0|0
424,264,111510,1,0
424,264,111635,1,2
336,176,111885,1,0
336,176,112010,1,0
336,176,112135,1,2
256,80,112385,1,0
256,80,112510,1,0
256,80,112635,6,0,B|288:152|232:208|264:272,1,187.5,2|0
250,287,113135,1,2
232,305,113260,1,0
210,317,113385,1,2
185,317,113510,1,0
160,310,113635,1,2
256,32,113885,6,0,B|256:112,2,62.5,0|0|2
168,168,114385,1,0
344,168,114635,1,4
324,291,114885,5,2
308,310,115010,1,0
287,324,115135,1,2
262,327,115260,1,0
237,323,115385,1,2
215,309,115510,1,0
196,291,115635,1,2
256,184,115885,5,0
256,184,116010,1,0
256,184,116135,1,2
256,184,116385,1,0
256,352,116635,5,4
400,288,116885,2,0,B|456:344,2,62.5,0|0|2
112,288,117385,2,0,B|56:344,2,62.5,0|0|4
256,24,118135,1,2
488,192,118635,5,4
432,304,118885,1,0
432,304,119010,2,0,B|352:304|304:264|336:152,1,187.5
256,312,119635,5,6
256,288,119760,1,0
256,264,119885,1,2
256,240,120010,1,0
256,216,120135,1,2
256,192,120260,1,0
256,168,120385,1,2
24,192,120635,5,4
80,80,120885,1,0
80,80,121010,2,0,B|160:80|208:120|176:232,1,187.5,2|0
256,72,121635,5,6
256,96,121760,1,0
256,120,121885,1,2
256,144,122010,1,0
256,168,122135,1,2
256,192,122260,1,0
256,216,122385,1,2
496,32,122635,5,4
408,128,122885,1,2
388,144,123010,1,0
378,167,123135,1,2
375,191,123260,1,0
380,215,123385,1,2
390,237,123510,1,0
405,256,123635,1,6
256,24,124135,1,2
16,352,124635,5,4
104,256,124885,1,2
124,240,125010,1,0
134,217,125135,1,2
137,193,125260,1,0
132,169,125385,1,2
122,147,125510,1,0
107,128,125635,1,6
256,360,126135,1,2
256,32,126635,5,4
256,32,126760,1,0
256,192,126885,12,0,130635
