osu file format v6

[General]
AudioFilename: kajiura yuki - strange names.mp3
AudioLeadIn: 0
PreviewTime: 15982
Countdown: 0
SampleSet: Soft
StackLeniency: 0.7
Mode: 0
LetterboxInBreaks: 1

[Editor]
Bookmarks: 45722,64182,64311
DistanceSpacing: 0.899999976158142
BeatDivisor: 4
GridSize: 8

[Metadata]
Title:Strange Names
Artist:Kajiura Yuki
Creator:Lizbeth
Version:Hard
Source:Tsubasa Chronicle
Tags:Future Soundscape Lissette

[Difficulty]
HPDrainRate:5
CircleSize:4
OverallDifficulty:7
SliderMultiplier:2
SliderTickRate:1

[Events]
//Background and Video events
0,0,"tsubasa1_2.jpg"
//Break Periods
2,45926,48928
//Storyboard Layer 0 (Background)
//Storyboard Layer 1 (Fail)
//Storyboard Layer 2 (Pass)
//Storyboard Layer 3 (Foreground)
//Storyboard Sound Samples
//Background Colour Transformations
3,100,163,162,255

[TimingPoints]
8803,512.820512820513,4,2,0,100,1,0
49572,-100,4,1,0,80,0,0
50081,-100,4,2,1,100,0,0
51751,-100,4,1,1,80,0,0
52132,-100,4,2,1,100,0,0
53803,-100,4,1,1,80,0,0
54181,-100,4,2,0,100,0,0
55854,-100,4,1,1,81,0,0
56231,-100,4,2,0,100,0,0
57905,-100,4,1,1,80,0,0
58285,-100,4,2,1,100,0,0
62008,-100,4,1,1,80,0,0
62388,-100,4,2,1,100,0,0
63926,-100,4,1,1,62,0,0
66110,-100,4,2,2,100,0,0
73161,-100,4,2,2,80,0,0
74571,-100,4,2,2,100,0,0
82771,-100,4,2,0,71,0,0
84437,-100,4,1,0,81,0,0
84822,-100,4,2,0,70,0,0
86488,-100,4,1,0,80,0,0
87257,-100,4,2,0,71,0,0
88674,-100,4,1,1,80,0,0
89052,-100,4,2,1,71,0,0
99179,-100,4,2,0,0,0,0

[Colours]
Combo1 : 159,159,255
Combo2 : 255,128,128
Combo3 : 184,113,255
Combo4 : 255,255,255

[HitObjects]
256,40,8803,1,4
80,192,9315,1,0
256,344,9828,1,0
432,200,10341,1,0
256,192,10726,5,0
256,192,10854,1,4
256,24,11367,5,0
432,200,11879,1,0
256,344,12392,1,0
80,192,12777,1,0
80,192,12905,1,4
256,188,13418,6,0,L|256:76,2,100
320,44,14444,2,0,L|320:244,1,200,0|4
256,88,15469,6,0,L|256:188,2,100,0|0|0
192,236,16495,2,0,L|192:36,1,200,0|4
416,32,17777,5,2
360,104,18033,1,0
302,173,18290,2,2,L|244:175,1,50,2|0
248,264,18674,2,2,L|189:264,1,50,0|2
107,261,19059,2,0,B|42:236|59:177,1,100,0|2
56,185,19444,1,0
56,185,19572,1,0
56,40,19828,5,2
115,107,20085,1,0
172,175,20341,2,0,L|224:174,1,50,2|0
232,264,20726,2,0,L|291:264,1,50,0|2
368,264,21110,1,0
456,264,21367,1,2
456,264,21495,1,0
456,264,21623,1,0
455,176,21879,6,0,B|455:77,1,100,2|0
360,80,22392,2,0,B|304:80,1,50,2|0
248,144,22777,2,0,B|192:144,1,50,0|2
144,72,23161,1,0
88,144,23418,1,2
56,144,23546,1,0
24,144,23674,1,0
96,224,23931,5,0
152,296,24187,1,2
208,224,24444,1,0
256,144,24700,1,2
312,224,24956,1,0
368,296,25213,1,2
416,224,25469,1,0
416,224,25597,1,0
416,224,25726,1,2
384,136,25982,5,2
296,136,26238,2,0,L|240:136,3,50,0|0|2|0
152,136,26879,2,0,L|88:136,1,50,0|2
56,56,27264,5,0
144,56,27520,2,0,B|208:56,1,50,2|0
240,56,27777,2,0,B|344:56,1,100,0|2
432,56,28290,1,0
384,128,28546,2,0,L|384:184,1,50
296,192,28931,2,0,L|296:248,1,50,0|2
232,304,29315,6,4,B|232:192,1,100,4|0
232,160,29700,1,0
144,56,30085,2,0,B|144:160,1,100,0|4
144,200,30469,2,0,B|144:320,1,100,0|0
8,296,31110,2,0,B|8:196,1,100,0|4
8,152,31495,2,0,B|8:40,1,100
8,51,32136,1,0
96,56,32392,5,2
152,128,32649,1,0
200,56,32905,1,2
256,128,33161,1,0
344,128,33418,2,0,B|375:210|308:319,1,200,4|0
216,327,34187,6,0,B|148:255,1,100,2|0
64,216,34700,2,0,L|16:160,1,50,2|0
88,112,35085,2,2,L|40:64,1,50,0|2
152,48,35469,2,0,B|252:9|356:57,1,200,4|0
392,128,36238,5,2
328,192,36495,1,0
272,256,36751,1,2
272,256,36879,1,0
208,320,37136,1,0
208,320,37264,1,2
120,320,37520,2,0,B|64:291|66:189|124:146,1,200,4|0
176,80,38290,5,2
176,80,38546,1,0
128,160,38802,2,0,B|128:210,1,50,2|0
216,208,39187,2,0,B|215:266,1,50,0|2
224,344,39572,2,0,B|328:378|435:338,2,200,4|0|2
256,208,40982,5,2
256,72,41367,1,2
256,71,41623,2,0,B|152:96|125:214,1,200,4|0
216,208,42392,5,2
304,208,42649,1,0
256,128,42905,2,0,B|320:88,1,50,2|0
376,144,43290,2,0,B|423:119,1,50,0|2
488,175,43674,2,0,B|503:298|413:347,3,200,4|0|0|0
413,346,45469,1,2
413,346,45726,1,4
62,97,49828,6,0,B|136:32|260:45,1,200,4|0
256,136,50597,2,0,B|312:128|360:168,1,100
352,248,51110,2,0,B|400:280,4,50,2|0|2|2|0
351,248,51879,6,0,B|247:317|168:240,1,200,4|0
112,168,52649,1,2
112,168,52777,1,0
112,168,52905,1,0
55,95,53161,2,0,B|24:48,4,50,2|0|2|2|0
136,56,53931,6,0,B|288:56,1,150,4|0
328,56,54444,1,0
416,56,54700,1,2
417,92,54828,1,0
417,125,54956,1,0
424,216,55213,2,0,B|352:216,4,50,2|0|2|2|0
432,304,55982,6,0,B|314:306,1,100,4|0
240,304,56495,2,0,B|127:304,1,100,0|2
96,304,56879,2,0,B|32:304,1,50
48,216,57264,2,0,B|104:216,4,50,2|0|2|2|0
104,144,58033,6,0,B|208:144|260:265,1,200,4|0
311,183,58802,2,0,B|376:80|476:74,2,200,2|2|2
256,192,60085,12,0,61110
296,88,61367,5,2
288,120,61495,1,0
280,152,61623,1,2
272,184,61751,1,0
264,216,61879,1,2
208,288,62136,2,0,B|182:81,1,200,4|0
104,48,62905,2,0,B|128:264,1,200,2|0
64,312,63674,2,0,B|40:96,1,200,0|4
40,112,64572,1,4
256,56,65213,5,0
256,56,65341,1,0
256,144,65597,1,0
256,144,65726,1,0
256,144,65854,1,0
256,144,65982,1,0
256,232,66238,5,4
336,264,66495,2,0,B|360:208,2,50,0|0|2
344,160,67008,2,0,B|368:104,2,50,0|0|2
416,104,67520,2,0,B|440:48,2,50,0|0|2
448,184,68033,2,0,B|408:296,1,100,0|0
336,320,68546,5,0
336,320,68674,1,0
336,320,68802,1,2
248,320,69059,1,2
160,320,69315,1,0
200,240,69572,1,2
200,240,69700,1,0
288,240,69956,1,0
288,240,70085,1,2
328,160,70341,6,0,B|234:95|139:160,1,200,4|0
64,200,71110,1,2
64,112,71367,1,0
64,24,71623,2,0,B|120:24,1,50,2|0
176,80,72008,2,2,B|240:80,1,50
312,80,72392,2,0,B|343:156|297:227|242:255,1,200,4|0
256,192,73161,12,4,74444
256,80,74700,6,0,B|288:32,2,50,0|0|2
208,152,75213,1,2
152,216,75469,1,0
224,264,75726,1,2
224,264,75854,1,0
296,312,76110,1,0
296,312,76238,1,2
376,360,76495,2,0,B|424:296|424:240|376:168,1,200,4|0
288,152,77264,6,0,B|176:152,1,100,2|0
128,216,77777,2,0,B|56:216,1,50,2|0
120,296,78161,2,0,B|170:296,1,50,0|2
255,296,78546,6,0,B|360:248,1,100,0|2
336,208,78931,2,0,B|480:136,1,150,0|2
384,111,79572,2,0,B|249:176,2,150,0|0|2
296,96,80597,5,0
208,72,80854,1,2
208,72,80982,1,0
208,72,81110,1,2
120,48,81367,1,2
120,48,81623,2,0,B|120:208,1,150
120,240,82136,2,0,B|121:353,1,100,0|2
119,338,82649,1,4
208,344,82905,6,0,B|272:344,5,50,0|0|0|2|0|2
303,336,83674,2,0,B|255:249,1,100,0|0
280,207,84059,2,2,B|225:111,1,100,2|2
230,118,84444,5,0
230,118,84700,1,0
320,40,84956,6,0,B|256:40,5,50,0|0|0|2|0|2
224,47,85726,2,0,B|273:135,1,100,0|0
247,176,86110,2,2,B|303:273,1,100,2|2
298,263,86495,5,0
298,261,86751,1,0
302,36,87520,5,2
237,98,87777,1,0
178,166,88033,2,0,B|145:204,1,50,2|0
179,286,88418,2,0,B|145:332,1,50,0|2
73,278,88802,2,0,B|-24:173|83:96,1,200,4|0
153,69,89572,1,2
240,49,89828,1,2
241,47,90213,1,0
375,44,90597,5,2
376,46,90854,2,0,B|377:156,1,100,4|0
376,144,91238,1,2
376,144,91367,1,0
376,144,91495,1,2
376,144,91623,1,0
376,144,91751,1,2
376,144,91879,1,2
376,232,92136,2,0,B|376:304,4,50,2|0|2|2|0
296,184,92905,5,0
152,184,93290,1,2
152,184,93418,1,0
152,184,93674,1,0
152,184,93802,1,2
152,184,93931,1,2
64,184,94187,5,0
64,184,94315,1,2
64,184,94444,1,0
64,184,94572,1,2
64,184,94700,1,0
64,184,94828,1,2
64,184,94956,1,6
120,304,95341,6,2,B|184:304,3,50,2|0|2|0
256,304,95982,1,2
344,304,96238,2,0,B|408:304,4,50,2|0|2|2|2
256,304,97008,1,2
256,168,97392,5,2
256,168,97520,1,0
256,168,97649,1,2
256,168,97777,1,2
256,168,98033,1,2
256,80,98290,2,0,B|256:16,4,50,2|0|2|2|2
256,168,99059,1,4
