osu file format v6

[General]
AudioFilename: kajiura yuki - strange names.mp3
AudioLeadIn: 0
PreviewTime: 15982
Countdown: 0
SampleSet: Soft
StackLeniency: 0.7
Mode: 0
LetterboxInBreaks: 1

[Editor]
Bookmarks: 45722,49825
DistanceSpacing: 0.800000011920929
BeatDivisor: 4
GridSize: 8

[Metadata]
Title:Strange Names
Artist:Kajiura Yuki
Creator:Lizbeth
Version:Easy
Source:Tsubasa Chronicle
Tags:Future Soundscape Lissette

[Difficulty]
HPDrainRate:3
CircleSize:3
OverallDifficulty:3
SliderMultiplier:1.1
SliderTickRate:1

[Events]
//Background and Video events
0,0,"tsubasa1_2.jpg"
//Break Periods
2,45926,48388
//Storyboard Layer 0 (Background)
//Storyboard Layer 1 (Fail)
//Storyboard Layer 2 (Pass)
//Storyboard Layer 3 (Foreground)
//Storyboard Sound Samples
//Background Colour Transformations
3,100,163,162,255

[TimingPoints]
8803,512.820512820513,4,2,0,81,1,0
72520,-100,4,2,2,100,0,0
74699,-100,4,2,0,100,0,0
91110,-100,4,2,2,100,0,0

[Colours]
Combo1 : 159,159,255
Combo2 : 255,128,128
Combo3 : 184,113,255
Combo4 : 255,255,255

[HitObjects]
312,48,8803,2,0,B|192:48,3,110,4|0|2|2
200,136,10854,2,0,B|310:136,3,110,0|0|2|2
304,224,12905,6,0,B|304:336,3,110,4|0|2|2
211,336,14956,2,0,B|211:224,3,110,0|0|2|2
152,160,17008,5,4
256,16,18033,1,0
352,160,19059,1,2
304,352,20085,6,0,B|256:304|200:360,2,110,2|0|4
207,199,22136,6,0,B|257:150|305:198,2,110,2|0|2
304,32,24187,6,0,B|256:-16|200:40,2,110,2|0|4
408,152,26238,5,2
448,232,26751,1,0
416,312,27264,1,2
240,320,28290,5,2
160,352,28802,1,0
80,304,29315,2,0,B|40:256|56:192,1,110,4|0
136,232,30341,2,0,B|176:192|160:120,1,110,2|0
72,112,31367,2,0,B|80:48|136:16,2,110,2|0|2
232,40,33418,6,0,B|304:88|240:192|328:240,1,220,4|0
191,359,35469,2,0,B|114:318|178:214|106:166,1,220,2|0
256,200,37520,6,0,B|408:216|360:64,1,220,4|0
256,200,39572,2,0,B|112:216|144:56,1,220,2|0
320,64,41623,5,4
384,224,42649,1,0
256,344,43674,1,2
128,224,44700,1,0
192,64,45726,1,4
256,192,49828,5,4
338,157,50341,2,0,B|399:135|391:71,2,110,0|2|0
256,192,51879,5,4
176,224,52392,2,0,B|112:232|112:304,2,110,0|2|0
256,192,53931,5,4
194,127,54444,2,0,B|162:71|98:95,2,110,0|2|0
256,192,55982,5,6
320,256,56495,2,0,B|332:316|409:320,2,110,0|2|0
256,192,58033,6,0,B|234:104|131:152|92:47,1,220,4|2
256,192,60085,2,0,B|278:104|381:152|420:47,1,220,4|2
256,191,62136,5,4
128,208,62905,2,0,B|152:296|256:288,1,165,2|0
344,280,64187,2,0,B|392:264|392:216,1,82.5,2|2
160,56,66238,5,4
160,56,66751,1,0
160,56,67264,1,2
336,56,68290,5,2
336,56,68802,1,0
336,56,69315,1,2
408,216,70341,5,4
256,304,71367,1,2
104,216,72392,1,2
256,192,72649,12,4,74444
256,56,75469,6,8,B|296:104|280:168,2,110,0|0|4
239,231,77520,2,0,B|192:176|214:131,2,110,0|0|4
256,344,79572,5,0
360,200,80597,1,4
256,56,81623,1,0
152,200,82649,1,4
256,56,83674,6,0,B|352:112,2,110,2|0|2
256,232,85726,2,0,B|168:320,2,110,2|0|6
256,56,87777,5,2
344,64,88290,1,0
408,128,88802,1,2
256,224,89828,5,2
168,232,90341,1,0
104,296,90854,1,4
72,216,91367,6,0,B|56:152|80:96,2,110
152,176,92905,1,2
232,216,93418,6,0,B|248:152|224:96,2,110
152,176,94956,5,4
256,192,95469,12,4,99059
