osu file format v9

[General]
AudioFilename: 01 - Kajiura Yuki - Sis puella magica!.mp3
AudioLeadIn: 0
PreviewTime: 48902
Countdown: 0
SampleSet: Soft
StackLeniency: 0.7
Mode: 0
LetterboxInBreaks: 1

[Editor]
DistanceSpacing: 0.8
BeatDivisor: 4
GridSize: 8

[Metadata]
Title:Sis puella magica!
Artist:Kajiura Yuki
Creator:k860326
Version:Hard
Source:Puella Magi Madoka Magica
Tags:

[Difficulty]
HPDrainRate:6
CircleSize:5
OverallDifficulty:6
ApproachRate:6
SliderMultiplier:1.4
SliderTickRate:2

[Events]
//Background and Video events
0,0,"madoka2.jpg"
//Break Periods
2,44845,48054
2,108493,118595
//Storyboard Layer 0 (Background)
//Storyboard Layer 1 (Fail)
//Storyboard Layer 2 (Pass)
//Storyboard Layer 3 (Foreground)
//Storyboard Sound Samples
//Background Colour Transformations
3,100,163,162,255

[TimingPoints]
3294,405.405405405405,3,2,1,71,1,0

[Colours]
Combo1 : 38,38,38
Combo2 : 255,255,128
Combo3 : 0,128,255
Combo4 : 251,70,70
Combo5 : 255,128,128

[HitObjects]
48,48,3294,1,0
64,80,3699,2,0,B|80:120|136:112,1,70
160,96,4104,1,0
248,64,4510,5,0
288,48,4712,1,0
328,64,4915,1,0
368,80,5118,1,0
408,64,5321,1,0
424,288,5726,5,2
392,280,5929,1,0
360,288,6131,1,0
288,312,6537,1,0
216,288,6942,1,0
184,304,7145,1,0
104,328,7550,1,0
72,304,7753,1,0
72,192,8158,6,0,B|72:112,1,70,2|0
128,192,8564,2,0,B|128:264,2,70
248,192,9375,2,0,B|248:280,1,70
192,192,9780,2,0,B|192:112,2,70
296,192,10591,5,0
328,216,10793,1,0
392,216,10996,1,0
424,192,11199,1,0
360,280,11402,1,0
360,128,11604,1,0
360,240,11807,1,0
360,160,12010,1,0
360,200,12212,1,0
360,200,12618,1,0
256,192,13023,6,0,B|208:232|208:232|128:240,1,140,2|0
96,256,13631,2,0,B|96:160,1,70
96,144,14037,1,0
96,96,14239,2,0,B|168:96,2,70
96,96,14848,2,0,B|160:176,1,70
192,216,15456,5,2
256,272,15861,2,0,B|304:224|400:208,1,140
416,160,16672,2,0,B|368:136|344:96,4,70
408,240,17888,6,2,B|368:288|264:296,1,140,2|0
232,208,18699,1,0
176,288,19104,1,0
120,208,19510,1,0
56,288,19915,1,0
56,192,20321,6,0,B|72:136|112:112,1,70,2|0
104,176,20726,1,0
184,216,21131,2,0,B|192:176|240:144,1,70
232,208,21537,1,0
312,256,21942,2,0,B|328:216|384:192,2,70
168,184,22753,6,2,B|240:200|240:200|304:136,1,140,2|0
256,272,23361,2,0,B|216:112,1,140
216,96,23969,1,0
296,40,24375,2,0,B|336:64|336:64|376:64,1,70
408,128,24780,1,0
384,224,25185,1,0
344,224,25388,1,0
304,224,25591,2,0,B|248:264|248:264|224:256,1,70
200,264,25996,1,0
120,192,26402,6,0,B|208:120|208:120|312:168,1,210
328,184,27212,1,0
416,272,27618,6,2,B|464:192|432:56,1,210,2|0
392,48,28429,2,0,B|320:32|240:72,1,140
192,112,29239,1,2
184,144,29442,1,0
176,176,29645,1,0
168,216,29848,6,0,B|208:288|208:288|336:272,1,210
376,200,30861,1,2
392,120,31266,1,0
336,40,31672,6,0,B|248:40,1,70
224,96,32077,2,0,B|304:96,2,70,0|0|2
144,256,32888,5,0
176,232,33091,2,0,B|128:184|128:184|136:96,1,140
80,200,33699,2,2,B|240:144,1,140,2|0
264,128,34307,1,0
224,136,34510,1,0
192,160,34712,6,0,B|160:96|144:96,1,70,0|2
40,88,35321,1,2
48,208,35726,1,0
128,288,36131,2,2,B|192:248|208:256,1,70,0|0
232,248,36537,1,2
336,280,36942,1,0
392,192,37348,6,0,B|440:128|400:56,1,140
320,48,38158,2,0,B|256:72|160:80,1,140,0|2
104,128,38969,1,0
88,216,39375,1,0
184,224,39780,2,0,B|216:192|264:168,1,70
239,181,40185,2,0,B|288:216|448:208,1,210
472,200,40996,5,0
416,112,41402,1,0
336,168,41807,1,0
392,248,42212,2,0,B|352:288|240:296,1,140,2|0
184,304,43023,2,0,B|152:296|120:256,1,70
112,232,43429,5,0
88,144,43834,1,0
176,104,44239,1,0
208,208,44645,1,2
256,48,49104,6,0,B|256:200,1,140,0|4
256,224,49712,2,0,B|208:208|208:208|176:232,1,70
168,248,50118,1,0
128,280,50321,2,0,B|80:280|80:280|64:232,1,70
96,232,50726,1,8
128,328,50929,1,0
160,232,51131,1,0
72,288,51334,1,0
176,288,51537,1,0
96,224,51942,5,4
32,168,52348,2,0,B|64:104|64:104|136:128,1,140
88,168,53158,2,0,B|40:32,1,140,8|0
80,24,53766,2,0,B|136:48|136:48|168:48,1,70
224,80,54375,6,2,B|240:168|160:288,1,210,2|0
128,304,55185,2,0,B|152:344|280:336,1,140
304,320,55793,2,0,B|328:304|344:248,3,70
344,144,56807,1,2
240,72,58023,1,8
216,96,58226,1,0
160,168,58429,1,0
224,240,58834,1,0
296,176,59239,6,4,B|392:200|440:168,1,140,4|0
464,144,59848,2,0,B|480:96|424:72,1,70
400,72,60253,1,0
288,48,60456,2,8,B|224:80,1,70,8|0
248,128,60861,2,0,B|176:168,1,70,0|0
144,192,61266,1,8
248,272,61672,6,0,B|320:232,2,70,8|0|0
216,176,62483,2,0,B|152:208,6,70,0|0|8|8|0|8|0
352,144,64104,2,4,B|320:80|224:72,1,140,4|0
208,80,64712,2,0,B|136:88,3,70,0|0|0|8
224,120,65523,2,0,B|240:152|224:200,1,70
216,224,65929,2,0,B|208:272|176:280,1,70
136,296,66334,2,0,B|80:296|64:264,3,70,0|4|0|0
256,192,67753,5,8
304,192,67956,1,0
208,192,68158,2,0,B|160:136,1,70
304,192,68564,2,0,B|360:128,1,70
256,80,68969,1,4
256,304,69375,1,0
256,128,69983,1,0
256,256,70185,1,8
256,216,70388,1,0
256,168,70591,1,0
352,168,70996,5,0
312,240,71402,1,8
280,264,71604,1,0
248,272,71807,1,0
208,264,72010,2,0,B|168:256|168:256|144:208,1,70
168,128,72618,1,0
192,144,72821,1,0
232,144,73023,2,0,B|264:120|352:128|392:152,1,140
256,288,73834,6,4,B|208:272|200:224,1,70,4|0
200,200,74239,2,0,B|144:120|80:128,1,140
136,48,75050,1,8
176,64,75253,2,0,B|232:96|320:112,1,140
336,120,75861,2,0,B|408:152|392:256,1,140,0|2
344,320,76672,1,0
272,272,77077,5,0
224,192,77483,1,0
200,80,77888,1,0
232,80,78091,1,0
264,80,78293,2,0,B|312:136|312:144|384:144,1,140,0|8
408,160,78902,6,0,B|424:200|416:248,1,70
400,264,79307,2,0,B|368:272|304:272,2,70
384,224,79915,2,8,B|352:176|304:176,1,70,8|0
232,176,80321,2,0,B|184:176|152:128,1,70
128,48,80726,2,0,B|56:32|32:48,1,70
256,56,81131,5,8
256,184,81334,1,8
256,312,81537,1,8
120,184,82348,1,2
256,184,82551,1,2
384,184,82754,1,2
88,248,83564,6,0,B|160:248,1,70
256,336,83969,2,0,B|256:256,1,70
424,248,84375,2,0,B|352:248,1,70
256,48,84780,2,0,B|256:136,1,70
96,128,85185,2,0,B|184:128,1,70
424,136,85591,2,0,B|344:136,1,70
256,192,85996,12,4,87212
256,56,88429,5,2
184,72,88631,1,0
136,128,88834,1,0
96,192,89037,1,0
64,264,89239,1,0
112,320,89442,5,0
152,256,89645,1,2
208,200,89848,1,0
264,152,90050,1,0
336,144,90253,1,0
408,128,90456,2,0,B|464:144|480:184,1,70,8|0
456,240,90861,6,8,B|400:264|296:264,1,140,8|0
280,272,91469,2,0,B|232:288|200:256,1,70
176,184,92077,2,0,B|216:144|248:152,1,70
280,200,92483,2,0,B|336:160|368:176,1,70
344,104,92888,2,0,B|400:96|440:112,1,70,8|0
448,168,93293,5,4
408,232,93699,2,0,B|336:248|264:232,1,140
320,160,94510,2,0,B|280:128|256:128,1,70,8|0
256,184,94915,2,0,B|200:176|184:152,1,70
232,120,95321,1,0
80,288,95726,5,2
168,312,96334,1,0
208,320,96537,1,0
312,304,96942,1,2
320,200,97348,1,0
408,256,97753,1,0
256,192,98158,12,8,99375
144,112,100185,5,0
96,176,100591,2,0,B|128:216|168:224,1,70,2|0
216,256,100996,2,0,B|264:280|304:272,1,70
360,256,101402,2,0,B|432:248|440:216,1,70
456,168,101807,2,2,B|456:88|376:56,1,140,8|0
304,64,102618,1,8
256,128,103023,6,0,B|184:192|40:176,1,210
24,176,103834,1,0
72,264,104239,2,8,B|120:288|160:280,1,70,8|0
224,304,104645,2,0,B|264:312|320:304,1,70
376,288,105050,2,0,B|432:272|456:240,1,70
472,176,105456,1,8
400,112,105861,6,0,B|336:64|264:80,1,140
232,104,106469,2,0,B|216:128|160:136,1,70,0|2
104,200,107077,1,0
168,272,107483,1,0
232,200,107888,2,0,B|272:224|312:224,2,70
176,128,119645,5,0
208,224,119848,1,0
280,152,120050,2,0,B|336:176|424:168,1,140,8|0
424,256,121064,2,0,B|392:288|336:288,1,70
296,304,121469,1,0
224,248,121672,1,0
184,168,121875,1,0
160,80,122077,1,0
304,80,122483,6,0,B|400:80,1,70
208,128,122888,2,0,B|136:128,1,70
304,184,123293,2,0,B|384:184,1,70
208,264,123699,6,0,B|136:264,1,70
376,328,124104,2,0,B|296:328,1,70
376,184,124510,2,0,B|280:184,1,70
136,96,124915,6,0,B|224:96,1,70
296,32,125321,2,0,B|384:32,1,70
296,184,125726,2,0,B|392:184,1,70
256,328,126131,5,0
256,288,126334,1,0
256,240,126537,1,0
256,192,126739,1,0
256,136,126942,1,0
256,72,127145,1,0
256,192,127348,12,8,128564
256,112,129780,5,0
256,192,130388,1,0
256,272,130996,1,8
336,256,131402,6,0,B|400:216|448:160,1,140
448,264,132010,2,0,B|296:112,1,210
200,128,133226,2,0,B|176:208|88:216,1,140
88,112,133834,2,0,B|240:272,1,210
256,288,134645,1,4
344,256,135861,6,0,B|424:232|440:128,1,140
440,120,136469,1,0
432,80,136672,1,0
400,56,136875,1,0
360,64,137077,1,2
304,128,137483,5,0
256,216,138293,2,0,B|208:272|48:280,1,210
184,344,139104,2,0,B|144:264|128:136,1,210
120,96,139915,1,0
248,56,140118,2,2,B|320:56,1,70
280,120,140523,2,2,B|192:120,1,70
168,184,140929,2,2,B|256:184,1,70
208,256,141334,5,2
264,320,141537,1,2
320,256,141739,1,2
368,184,141942,1,2
264,144,142348,1,8
264,48,143158,5,8
200,96,143564,2,0,B|200:168,1,70
200,208,143969,2,0,B|200:288,1,70
224,304,144375,2,0,B|272:304|320:280,1,70
312,256,144780,2,0,B|312:160,3,70
312,144,145591,2,0,B|312:64,5,70
216,144,146807,6,0,B|144:144,1,70
112,144,147212,1,0
128,240,147415,2,0,B|208:240,1,70
232,240,147821,1,0
360,320,148023,6,0,B|408:288|416:256,1,70
424,184,148429,2,0,B|416:128|392:96,1,70
288,32,148834,2,0,B|352:56|368:80,1,70
256,128,149239,6,0,B|256:336,1,210
152,152,150050,2,0,B|264:200|360:152,2,210
256,240,151672,1,0
256,192,152077,12,0,153699
256,80,154104,6,0,B|216:152|216:152|288:200|288:200|224:296,1,280
160,192,155321,2,0,B|256:232|256:232|352:192,1,210
256,232,156131,1,0
256,88,156537,6,0,B|224:136|224:136|240:176,1,70
248,176,156942,2,0,B|296:208|296:208|272:240,1,70
272,264,157348,2,0,B|272:360,2,70
256,192,158158,1,0
256,128,158969,37,0
232,144,159172,1,0
272,232,159375,53,0
304,208,159577,1,2
