osu file format v12

[General]
AudioFilename: Kajiura Yuki - Run!Cat!Run!.mp3
AudioLeadIn: 0
PreviewTime: 25542
Countdown: 0
SampleSet: Soft
StackLeniency: 0.7
Mode: 0
LetterboxInBreaks: 0
WidescreenStoryboard: 0

[Editor]
DistanceSpacing: 1.7
BeatDivisor: 4
GridSize: 4

[Metadata]
Title:Run!Cat!Run!
TitleUnicode:Run!Cat!Run!
Artist:Kajiura Yuki
ArtistUnicode:梶浦由記
Creator:CodeS
Version:Easy
Source:Mai-Otome
Tags:Soundtrack forseen Mai Otome Original Soundtrack Vol. 2 ~ Otome no Inori (Otome's Prayers) project_railgun
BeatmapID:362067
BeatmapSetID:144338

[Difficulty]
HPDrainRate:2
CircleSize:3
OverallDifficulty:2
ApproachRate:3
SliderMultiplier:0.9
SliderTickRate:1

[Events]
//Background and Video events
0,0,"BG.jpg",0,0
//Break Periods
//Storyboard Layer 0 (Background)
//Storyboard Layer 1 (Fail)
//Storyboard Layer 2 (Pass)
//Storyboard Layer 3 (Foreground)
//Storyboard Sound Samples
//Background Colour Transformations
3,100,163,162,255

[TimingPoints]
481.932555594165,352.941176470588,4,2,1,70,1,0
5776,-100,4,2,1,50,0,0
25893,-100,4,2,1,50,0,1
36481,-100,4,2,1,50,0,0
37187,-100,4,2,1,70,0,1
47423,-100,4,2,1,70,0,0
49893,-100,4,2,1,50,0,0
55540,-100,4,2,1,70,0,1
61893,-100,4,2,1,50,0,1
62246,-100,4,2,1,70,0,0

[Colours]
Combo1 : 173,183,0
Combo2 : 0,120,179
Combo3 : 255,128,64
Combo4 : 255,55,196

[HitObjects]
256,220,481,6,0,L|256:40,2,180,2|0|2,0:0|0:0|0:0,0:0:0:0:
304,288,2246,1,2,0:0:0:0:
384,272,2599,2,0,B|368:240|368:240|380:212|380:212|366:192,1,90,2|2,0:0|0:0,0:0:0:0:
424,132,3305,6,0,P|340:112|284:200,1,180,2|2,0:0|0:0,0:0:0:0:
236,244,4364,1,0,0:0:0:0:
188,180,4717,2,0,B|188:136|188:136|168:92,2,90,2|2|2,0:0|0:0|0:0,0:0:0:0:
140,248,5776,1,0,0:0:0:0:
199,299,6128,6,0,P|288:306|360:255,1,180,2|2,0:0|0:0,0:0:0:0:
388,180,7187,2,0,P|416:196|440:252,2,90,0|2|2,0:0|0:0|0:0,0:0:0:0:
360,256,8246,1,2,0:0:0:0:
197,256,8952,5,2,0:0:0:0:
116,240,9305,2,0,P|176:176|260:204,1,180,2|2,0:0|0:0,0:0:0:0:
316,252,10364,2,0,B|352:280|352:280|396:292,2,90,2|2|2,0:0|0:0|0:0,0:0:0:0:
172,180,11776,5,2,0:0:0:0:
288,68,12481,2,0,P|372:40|456:88,1,180,2|4,0:0|0:0,0:0:0:0:
456,160,13540,2,0,P|408:188|380:232,1,90,2|4,0:0|0:0,0:0:0:0:
272,327,14599,6,0,P|227:332|187:314,1,90
240,252,15305,2,0,P|192:232|148:244,1,90,2|0,0:0|0:0,0:0:0:0:
80,272,16011,2,0,P|80:196|164:152,1,180,2|2,0:0|0:0,0:0:0:0:
244,136,17070,1,0,0:0:0:0:
312,92,17423,5,2,0:0:0:0:
368,152,17776,2,0,P|416:180|432:224,2,90,0|2|0,0:0|0:0|0:0,0:0:0:0:
352,232,18834,2,0,P|276:224|244:136,1,180,2|2,0:0|0:0,0:0:0:0:
400,84,20246,6,0,B|326:36|326:36|220:36,1,180,2|2,0:0|0:0,0:0:0:0:
160,68,21305,1,0,0:0:0:0:
92,112,21658,2,0,P|114:196|188:264,1,180,2|2,0:0|0:0,0:0:0:0:
248,300,22717,1,2,0:0:0:0:
308,243,23070,6,0,P|328:200|368:176,1,90,2|0,0:0|0:0,0:0:0:0:
392,256,23776,2,0,P|432:228|444:188,1,90,2|0,0:0|0:0,0:0:0:0:
416,116,24481,2,0,B|428:72|428:72|458:36,2,90,4|2|4,0:0|0:0|0:0,0:0:0:0:
344,256,25893,6,0,B|256:272|256:272|160:256,1,180,4|4,0:0|0:0,0:0:0:0:
64,128,27305,1,4,0:0:0:0:
224,124,28011,1,4,0:0:0:0:
368,48,28717,6,0,P|416:100|380:196,1,180,4|4,0:0|0:0,0:0:0:0:
260,300,30128,2,0,L|172:332,2,90,4|0|4,0:0|0:0|0:0,0:0:0:0:
388,212,31540,6,4,B|316:168|300:228|214:204,1,180,4|0,0:0|0:0,0:0:0:0:
140,236,32599,2,0,P|141:279|121:322,2,90,0|4|4,0:0|0:0|0:0,0:0:0:0:
148,156,33658,1,2,0:0:0:0:
312,108,34364,6,0,P|284:196|196:200,2,180,2|2|2,0:0|0:0|0:0,0:0:0:0:
254,50,36128,1,2,0:0:0:0:
181,85,36481,1,4,0:0:0:0:
232,240,37187,6,0,P|304:284|396:256,2,180,4|4|4,0:0|0:0|0:0,0:0:0:0:
124,120,39305,1,4,0:0:0:0:
284,92,40011,6,0,B|340:65|340:65|398:64|398:64|462:42,2,180,4|4|4,0:0|0:0|0:0,0:0:0:0:
212,132,41776,1,2,0:0:0:0:
184,208,42128,1,4,0:0:0:0:
48,120,42834,6,0,P|108:60|204:56,1,180,4|0,0:0|0:0,0:0:0:0:
336,140,44246,1,4,0:0:0:0:
276,292,44952,1,4,0:0:0:0:
256,192,45481,12,4,47423,0:0:0:0:
256,92,48481,6,0,P|224:122|221:168,1,90,2|2,0:0|0:0,0:0:0:0:
296,272,49893,6,0,P|220:320|140:268,1,180,2|2,0:0|0:0,0:0:0:0:
60,144,51305,2,0,P|60:72|152:52,2,180,2|2|2,0:0|0:0|0:0,0:0:0:0:
216,184,53423,1,2,0:0:0:0:
376,180,54128,2,0,P|400:260|316:304,1,180,2|2,0:0|0:0,0:0:0:0:
172,276,55540,5,4,0:0:0:0:
52,164,56246,2,0,P|76:84|168:76,1,180,4|4,0:0|0:0,0:0:0:0:
212,136,57305,1,2,0:0:0:0:
292,152,57658,2,0,P|232:216|144:180,1,180,4|4,0:0|0:0,0:0:0:0:
252,64,59070,5,4,0:0:0:0:
408,112,59776,2,0,B|448:136|448:136|468:186,1,90,2|2,0:0|0:0,0:0:0:0:
308,136,60834,5,2,0:0:0:0:
308,136,61893,6,0,P|267:150|256:192,1,90,6|4,0:0|0:0,0:0:0:0:
