osu file format v12

[General]
AudioFilename: Pugna cum maga.mp3
AudioLeadIn: 1000
PreviewTime: 77739
Countdown: 0
SampleSet: None
StackLeniency: 0.7
Mode: 0
LetterboxInBreaks: 1
WidescreenStoryboard: 0

[Editor]
DistanceSpacing: 2
BeatDivisor: 8
GridSize: 8

[Metadata]
Title:Pugna cum maga
TitleUnicode:Pugna cum maga
Artist:Kajiura Yuki
ArtistUnicode:梶浦由記
Creator:Faust
Version:Stained
Source:Puella Magi Madoka Magica
Tags:Strings Shaft Urobuchi Gen Bass Guitar Duel with a Witch Majou to no Tatakae
BeatmapID:236346
BeatmapSetID:86079

[Difficulty]
HPDrainRate:4
CircleSize:3
OverallDifficulty:5
ApproachRate:5
SliderMultiplier:1.4
SliderTickRate:1

[Events]
//Background and Video events
0,0,"PCMBG.jpg",0,0
//Break Periods
//Storyboard Layer 0 (Background)
//Storyboard Layer 1 (Fail)
//Storyboard Layer 2 (Pass)
//Storyboard Layer 3 (Foreground)
//Storyboard Sound Samples
//Background Colour Transformations
3,100,0,0,0

[TimingPoints]
3073,666.666666666667,4,3,0,40,1,0
12406,-100,4,3,0,45,0,0
23739,-100,4,3,0,50,0,0
24406,-100,4,3,0,55,0,0
24489,-100,4,3,0,45,0,0
64406,-100,4,3,0,5,0,0
67073,-100,4,2,0,60,0,0
77739,-100,4,3,0,40,0,1
88323,-100,4,2,0,50,0,1
88489,-100,4,3,0,40,0,1
98989,-100,4,2,0,50,0,1
99156,-100,4,3,0,40,0,1
102906,-100,4,3,0,55,0,1
104323,-100,4,2,0,50,0,1
104489,-100,4,3,0,40,0,1
112406,-100,4,3,0,5,0,1
113073,-100,4,3,0,5,0,0

[Colours]
Combo1 : 243,33,117
Combo2 : 115,148,71
Combo3 : 218,251,172
Combo4 : 94,85,68

[HitObjects]
392,128,3073,2,0,P|384:192|392:272,1,140,0|0,0:0|0:0,0:0:0:0:
360,344,4073,1,0,0:0:0:0:
256,312,4739,2,0,L|272:240,1,70,0|0,0:0|0:0,0:0:0:0:
192,128,5406,1,0,0:0:0:0:
64,56,5739,2,0,P|72:128|72:208,1,140
40,272,6739,1,0,0:0:0:0:
192,264,7406,2,0,L|272:256,1,70
368,304,8073,1,0,0:0:0:0:
416,192,8406,6,0,P|416:128|400:48,1,140,2|0,0:0|0:0,0:0:0:0:
320,40,9406,1,0,0:0:0:0:
312,160,10073,2,0,L|232:176,1,70
144,192,10739,1,0,0:0:0:0:
56,80,11073,2,0,P|128:72|208:80,1,140
328,120,12073,1,0,0:0:0:0:
328,251,12406,6,8,P|264:264|192:248,2,140
448,144,14073,1,0,0:0:0:0:
448,144,14406,2,0,P|432:208|440:296,1,140,8|0,0:0|0:0,0:0:0:0:
296,312,15406,2,0,L|304:240,1,70
72,88,16406,2,0,P|120:120|160:192,1,140,0|2,0:0|0:0,0:0:0:0:
160,328,17406,2,0,L|80:304,1,70
160,328,18073,2,0,L|240:320,1,70,0|2,0:0|0:0,0:0:0:0:
360,272,18739,5,0,0:0:0:0:
272,176,19073,2,0,P|336:144|408:152,1,140
360,272,20073,2,0,L|352:224,1,35
480,280,20739,2,0,L|472:360,1,70
360,272,21739,2,0,P|288:256|208:272,1,140,0|2,0:0|0:0,0:0:0:0:
240,160,22739,2,0,P|240:112|272:56,2,105
344,136,24073,1,0,0:0:0:0:
472,72,24406,6,0,P|496:144|488:208,3,140,0|2|0|2,0:0|0:0|0:0|0:0,0:0:0:0:
368,280,26739,1,0,0:0:0:0:
232,240,27073,2,0,L|80:248,1,140,0|2,0:0|0:0,0:0:0:0:
40,344,28073,1,0,0:0:0:0:
92,247,28406,2,0,L|16:232,1,70
96,144,29073,2,0,L|80:64,1,70,2|0,0:0|0:0,0:0:0:0:
192,112,29739,6,0,P|248:112|304:136,2,105
64,168,31073,2,0,P|48:248|64:320,1,140,0|2,0:0|0:0,0:0:0:0:
312,192,32406,2,0,P|306:273|272:338,1,140,0|2,0:0|0:0,0:0:0:0:
144,288,33406,1,0,0:0:0:0:
282,325,33739,2,0,P|352:312|432:328,2,140
56,240,35573,6,0,P|112:248|160:240,1,105
288,192,36406,2,0,P|344:208|392:240,1,105
200,336,37406,2,0,B|160:296|256:240|208:168|128:144|72:192|80:248,1,280
200,336,39073,2,0,P|264:336|336:304,1,140,0|2,0:0|0:0,0:0:0:0:
456,312,40073,1,0,0:0:0:0:
464,192,40406,6,0,P|464:136|400:80,1,140,0|2,0:0|0:0,0:0:0:0:
296,56,41406,1,0,0:0:0:0:
256,160,41739,2,0,P|248:232|272:296,1,140,0|2,0:0|0:0,0:0:0:0:
376,296,42739,1,0,0:0:0:0:
464,216,43073,2,0,P|416:184|360:176,2,105
464,72,44406,2,0,B|408:96|328:32|272:144,1,210
136,112,45739,6,0,P|178:174|183:248,3,140,0|2|0|2,0:0|0:0|0:0|0:0,0:0:0:0:
264,328,48073,1,0,0:0:0:0:
128,336,48406,2,0,P|96:288|96:200,1,140,0|4,0:0|0:0,0:0:0:0:
248,176,49406,1,0,0:0:0:0:
384,120,49739,2,0,P|392:200|360:264,1,140,4|2,0:0|0:0,0:0:0:0:
104,136,51073,6,0,B|160:96|160:96|200:168|280:144|280:144|288:224,1,280
464,272,52906,2,0,P|437:228|423:166,1,105
304,192,53739,2,0,P|288:256|232:320,1,140,4|2,0:0|0:0,0:0:0:0:
40,112,55073,2,0,P|32:176|64:256,1,140,0|2,0:0|0:0,0:0:0:0:
160,144,56073,1,0,0:0:0:0:
56,245,56406,6,0,P|136:272|264:248,1,210,4|0,0:0|0:0,0:0:0:0:
360,192,57739,2,0,P|328:152|320:88,2,105
240,112,59073,2,0,P|176:136|136:272,1,210
256,328,60406,2,0,P|200:336|136:328,2,105
216,192,61739,6,0,B|256:200|296:216|368:208,2,140,4|2|0,0:0|0:0|0:0,0:0:0:0:
80,168,63406,1,0,0:0:0:0:
80,312,63739,1,2,0:0:0:0:
216,344,64073,1,0,0:0:0:0:
256,192,64406,12,4,67073,0:0:0:0:
408,152,67739,5,2,0:0:0:0:
272,192,68073,2,0,L|304:224,1,35
392,288,68739,2,0,L|472:272,2,70,0|2|0,0:0|0:0|0:0,0:0:0:0:
280,320,69739,2,0,L|208:352,1,70
104,344,70406,2,0,L|64:336,1,35,2|0,0:0|0:0,0:0:0:0:
40,80,71239,2,0,L|48:128,1,35,2|0,0:0|0:0,0:0:0:0:
160,192,71739,1,2,0:0:0:0:
160,192,72406,5,0,0:0:0:0:
256,216,72739,1,0,0:0:0:0:
304,312,73073,1,2,0:0:0:0:
144,328,73406,2,0,L|176:304,1,35
304,312,74073,2,0,L|384:320,2,70,0|2|0,0:0|0:0|0:0,0:0:0:0:
172,307,75073,1,0,0:0:0:0:
280,192,75739,6,0,L|208:216,1,70,2|0,0:0|0:0,0:0:0:0:
144,144,76406,2,0,L|88:200,1,70
48,280,77073,2,0,L|128:304,1,70,0|2,0:0|0:0,0:0:0:0:
248,344,77739,6,0,P|328:320|336:136,1,280,4|0,0:0|0:0,0:0:0:0:
72,192,79739,2,0,L|152:192,1,70,2|0,0:0|0:0,0:0:0:0:
208,72,80406,2,0,P|120:120|152:280,1,280,4|0,0:0|0:0,0:0:0:0:
146,276,82406,1,2,0:0:0:0:
280,320,82739,1,0,0:0:0:0:
424,272,83073,6,0,P|360:248|280:248,1,140,4|0,0:0|0:0,0:0:0:0:
320,136,84073,1,8,0:0:0:0:
320,136,84406,2,0,P|256:160|184:160,1,140,4|2,0:0|0:0,0:0:0:0:
48,152,85406,1,0,0:0:0:0:
48,288,85739,2,0,P|88:320|112:376,2,105
48,152,87073,2,0,L|32:72,1,70
176,64,87739,2,0,L|176:136,1,70
288,224,88406,6,0,P|240:176|136:304,1,280,4|0,0:0|0:0,0:0:0:0:
336,328,90239,1,0,0:0:0:0:
440,144,90739,1,0,0:0:0:0:
440,144,91073,2,0,P|448:208|440:296,3,140,4|2|4|2,0:0|0:0|0:0|0:0,0:0:0:0:
312,328,93406,1,8,0:0:0:0:
168,352,93739,6,0,P|168:288|192:216,1,140,0|2,0:0|0:0,0:0:0:0:
328,192,94739,1,0,0:0:0:0:
256,312,95073,2,0,P|304:296|368:296,2,105
120,344,96406,2,0,P|120:264|96:200,1,140,0|2,0:0|0:0,0:0:0:0:
376,192,97739,2,0,P|368:128|384:48,1,140,4|0,0:0|0:0,0:0:0:0:
224,144,99073,6,0,P|304:208|280:312,1,210,4|0,0:0|0:0,0:0:0:0:
216,240,100406,2,0,P|168:248|104:272,2,105
344,192,101739,2,0,P|344:128|392:56,1,140,0|2,0:0|0:0,0:0:0:0:
344,192,103073,2,0,P|400:208|456:200,2,105,4|8|4,0:0|0:0|0:0,0:0:0:0:
216,128,104406,6,0,L|224:272,1,140,4|2,0:0|0:0,0:0:0:0:
120,304,105406,1,4,0:0:0:0:
24,256,105739,2,0,L|40:112,1,140,4|2,0:0|0:0,0:0:0:0:
256,168,107073,2,0,L|232:88,1,70
376,112,107739,2,0,P|344:168|360:240,1,140,2|0,0:0|0:0,0:0:0:0:
480,200,108739,1,4,0:0:0:0:
480,200,109073,6,0,P|432:192|336:208,1,140,2|0,0:0|0:0,0:0:0:0:
312,320,110073,1,4,0:0:0:0:
200,312,110406,2,4,L|128:192,1,140,2|4,0:0|0:0,0:0:0:0:
256,192,111406,2,0,L|224:120,1,70,4|2,0:0|0:0,0:0:0:0:
344,96,112073,1,8,0:0:0:0:
256,192,112406,12,0,115073,0:0:0:0:
