osu file format v12

[General]
AudioFilename: Pugna cum maga.mp3
AudioLeadIn: 1000
PreviewTime: 77739
Countdown: 0
SampleSet: None
StackLeniency: 0.7
Mode: 0
LetterboxInBreaks: 1
WidescreenStoryboard: 0

[Editor]
DistanceSpacing: 2
BeatDivisor: 8
GridSize: 8

[Metadata]
Title:Pugna cum maga
TitleUnicode:Pugna cum maga
Artist:Kajiura Yuki
ArtistUnicode:梶浦由記
Creator:Faust
Version:Darkened
Source:Puella Magi Madoka Magica
Tags:Strings Shaft Urobuchi Gen Bass Guitar Duel with a Witch Majou to no Tatakae
BeatmapID:236259
BeatmapSetID:86079

[Difficulty]
HPDrainRate:5
CircleSize:3
OverallDifficulty:5
ApproachRate:7
SliderMultiplier:1.6
SliderTickRate:1

[Events]
//Background and Video events
0,0,"PCMBG.jpg",0,0
//Break Periods
//Storyboard Layer 0 (Background)
//Storyboard Layer 1 (Fail)
//Storyboard Layer 2 (Pass)
//Storyboard Layer 3 (Foreground)
//Storyboard Sound Samples
//Background Colour Transformations
3,100,0,0,0

[TimingPoints]
3073,666.666666666667,4,3,0,40,1,0
23739,-100,4,3,0,50,0,0
66906,-100,4,2,0,60,0,0
67156,-100,4,3,0,50,0,0
77739,-100,4,3,0,40,0,1
88323,-100,4,2,0,60,0,1
88489,-100,4,3,0,40,0,1
98989,-100,4,2,0,60,0,1
99156,-100,4,3,0,40,0,1
104323,-100,4,2,0,60,0,1
104489,-100,4,3,0,40,0,1
112406,-100,4,3,0,40,0,1
113073,-100,4,3,0,40,0,0

[Colours]
Combo1 : 243,33,117
Combo2 : 115,148,71
Combo3 : 218,251,172
Combo4 : 94,85,68

[HitObjects]
104,144,3073,2,0,L|264:120,1,160,0|2,0:0|0:0,0:0:0:0:
304,192,4073,2,0,L|352:200,1,40
440,72,4573,2,0,L|448:112,1,40
480,272,5073,1,2,0:0:0:0:
480,272,5739,6,0,P|464:224|440:184,1,80
352,320,6406,1,2,0:0:0:0:
352,320,6739,2,0,L|328:280,1,40
176,232,7239,2,0,L|224:240,1,40
352,192,7739,1,2,0:0:0:0:
352,192,8406,6,0,L|256:168,1,80
112,152,9073,2,0,L|128:200,1,40,2|0,0:0|0:0,0:0:0:0:
256,280,9573,2,0,P|224:304|200:344,1,80
336,240,10239,2,0,L|384:216,1,40,2|2,0:0|0:0,0:0:0:0:
304,104,10739,1,0,0:0:0:0:
168,152,11073,6,0,P|176:120|184:72,1,80
208,216,11739,2,0,L|200:264,2,40,2|0|0,0:0|0:0|0:0,0:0:0:0:
288,120,12406,2,0,P|352:120|424:136,2,120,8|4|4,0:0|0:0|0:0,0:0:0:0:
128,96,13739,6,0,P|120:144|128:184,1,80,4|0,0:0|0:0,0:0:0:0:
256,232,14406,2,0,L|208:240,1,40,2|0,0:0|0:0,0:0:0:0:
112,336,14906,2,0,P|168:344|248:336,1,120
334,271,15739,2,0,P|320:224|304:192,1,80,2|4,0:0|0:0,0:0:0:0:
176,264,16406,2,0,B|232:264|264:248|336:272,1,160,4|2,0:0|0:0,0:0:0:0:
456,192,17406,2,0,L|432:232,4,40
432,72,18406,1,2,0:0:0:0:
456,192,18739,5,0,0:0:0:0:
312,216,19073,2,0,P|224:208|144:176,1,160,4|2,0:0|0:0,0:0:0:0:
208,48,20073,2,0,L|184:96,1,40,4|0,0:0|0:0,0:0:0:0:
48,120,20573,2,0,L|64:168,1,40
40,312,21073,2,0,P|88:312|128:288,1,80,2|0,0:0|0:0,0:0:0:0:
240,240,21739,1,0,0:0:0:0:
376,288,22073,1,0,0:0:0:0:
240,240,22406,2,0,L|288:224,1,40,2|0,0:0|0:0,0:0:0:0:
136,192,22906,2,0,L|80:184,2,40,0|0|2,0:0|0:0|0:0,0:0:0:0:
216,152,23573,2,0,L|248:112,3,40,2|4|8|4,0:0|0:0|0:0|0:0,0:0:0:0:
384,128,24406,6,0,P|400:184|384:288,1,160,4|2,0:0|0:0,0:0:0:0:
224,304,25406,2,0,L|272:320,1,40
144,208,25906,2,0,L|176:168,1,40
320,232,26406,2,0,P|304:184|304:144,1,80,2|0,0:0|0:0,0:0:0:0:
302,154,27073,1,0,0:0:0:0:
144,192,27406,1,0,0:0:0:0:
72,336,27739,2,0,L|24:320,1,40,2|0,0:0|0:0,0:0:0:0:
192,312,28239,2,0,L|168:272,1,40
171,277,28739,1,0,0:0:0:0:
328,248,29073,1,2,0:0:0:0:
328,248,29406,5,0,0:0:0:0:
216,192,29739,2,0,P|232:152|264:112,1,80
384,144,30406,2,0,L|440:136,1,40,2|0,0:0|0:0,0:0:0:0:
432,264,30906,2,0,L|472:280,1,40
368,360,31406,1,0,0:0:0:0:
368,360,31739,2,0,P|336:296|248:256,1,160,2|0,0:0|0:0,0:0:0:0:
136,240,32739,1,0,0:0:0:0:
88,352,33073,2,0,L|176:368,1,80,2|0,0:0|0:0,0:0:0:0:
136,240,33739,2,0,L|200:296,1,80
320,256,34406,1,2,0:0:0:0:
320,256,34739,5,0,0:0:0:0:
400,168,35073,2,0,P|392:112|400:48,2,120
304,224,36406,2,0,P|328:272|336:344,1,120
168,352,37406,1,0,0:0:0:0:
136,264,37739,2,0,P|152:192|232:136,1,160,4|2,0:0|0:0,0:0:0:0:
264,120,39073,2,0,P|184:144|104:136,1,160,0|2,0:0|0:0,0:0:0:0:
32,280,40073,1,4,0:0:0:0:
108,137,40406,6,0,L|144:216,1,80,8|0,0:0|0:0,0:0:0:0:
280,296,41073,2,0,L|232:304,1,40,2|0,0:0|0:0,0:0:0:0:
360,192,41573,2,0,L|400:200,3,40
248,152,42406,2,0,L|240:240,1,80,4|0,0:0|0:0,0:0:0:0:
120,336,43073,2,0,L|112:240,1,80
104,96,43739,2,0,L|128:128,2,40,2|0|0,0:0|0:0|0:0,0:0:0:0:
208,112,44406,2,0,L|216:152,2,40
56,192,45073,1,0,0:0:0:0:
88,312,45406,6,0,L|184:304,1,80
320,256,46073,2,0,L|408:264,2,80
88,320,47073,2,0,P|88:256|56:208,2,120
248,344,48406,2,0,P|232:272|264:184,1,160,4|2,0:0|0:0,0:0:0:0:
408,144,49406,1,4,0:0:0:0:
256,104,49739,2,0,P|296:176|288:264,1,160,0|2,0:0|0:0,0:0:0:0:
136,280,50739,1,0,0:0:0:0:
136,280,51073,6,0,L|168:192,1,80,8|0,0:0|0:0,0:0:0:0:
184,48,51739,2,0,L|272:64,1,80,2|0,0:0|0:0,0:0:0:0:
384,128,52406,2,0,P|360:184|360:248,2,120
464,264,53739,2,0,P|384:264|296:288,1,160,0|2,0:0|0:0,0:0:0:0:
160,336,54739,1,0,0:0:0:0:
272,304,55073,2,0,P|264:264|240:224,1,80
88,232,55739,1,2,0:0:0:0:
88,232,56073,5,4,0:0:0:0:
200,184,56406,2,0,P|200:136|224:96,1,80,2|0,0:0|0:0,0:0:0:0:
368,136,57073,2,0,P|368:176|344:224,1,80,2|0,0:0|0:0,0:0:0:0:
208,280,57739,2,0,L|160:256,2,40,4|0|4,0:0|0:0|0:0,0:0:0:0:
368,256,58406,1,2,0:0:0:0:
368,256,58739,2,0,L|408:280,1,40
472,240,59073,2,0,P|464:200|480:152,1,80,4|0,0:0|0:0,0:0:0:0:
336,88,59739,2,0,L|168:104,1,160,2|0,0:0|0:0,0:0:0:0:
176,248,60739,2,0,L|256:264,1,80,0|2,0:0|0:0,0:0:0:0:
254,263,61406,1,4,0:0:0:0:
368,216,61739,6,0,P|432:184|520:208,1,160,4|2,0:0|0:0,0:0:0:0:
448,304,62739,2,0,L|440:352,1,40
320,352,63239,2,0,L|296:312,1,40
200,248,63739,2,0,L|112:256,1,80,2|0,0:0|0:0,0:0:0:0:
88,120,64406,2,0,L|176:128,1,80
328,152,65073,2,0,P|296:184|280:224,1,80,2|0,0:0|0:0,0:0:0:0:
256,320,65739,2,0,L|200:304,2,40,2|4|4,0:0|0:0|0:0,0:0:0:0:
112,288,66406,2,0,L|64:296,2,40,8|4|4,0:0|0:0|0:0,0:0:0:0:
24,208,67073,6,0,P|56:136|56:56,1,160,4|2,0:0|0:0,0:0:0:0:
216,88,68073,2,0,L|176:96,1,40
280,216,68573,2,0,L|224:200,1,40
88,256,69073,1,2,0:0:0:0:
88,256,69739,2,0,P|168:264|240:296,1,160,0|2,0:0|0:0,0:0:0:0:
392,256,70739,2,0,L|384:216,1,40
224,232,71239,2,0,L|224:176,1,40,8|4,0:0|0:0,0:0:0:0:
160,40,71739,2,0,L|176:88,2,40,2|8|4,0:0|0:0|0:0,0:0:0:0:
184,160,72406,6,0,P|264:136|352:144,1,160,4|0,0:0|0:0,0:0:0:0:
464,40,73406,1,4,0:0:0:0:
384,64,73573,2,0,B|304:88|272:40|168:64,1,200,8|0,0:0|0:0,0:0:0:0:
24,168,74739,2,0,L|72:160,1,40,4|4,0:0|0:0,0:0:0:0:
128,208,75073,2,0,P|200:208|288:232,1,160,8|2,0:0|0:0,0:0:0:0:
384,280,76073,1,0,0:0:0:0:
456,192,76406,2,0,L|472:96,1,80,2|0,0:0|0:0,0:0:0:0:
304,56,77073,2,0,L|320:104,2,40,4|0|0,0:0|0:0|0:0,0:0:0:0:
296,168,77739,6,0,P|280:232|232:280,2,120
136,192,79073,2,0,P|120:240|120:280,1,80
256,352,79739,1,2,0:0:0:0:
256,352,80073,1,0,0:0:0:0:
96,336,80406,2,0,P|88:280|48:216,2,120
96,336,81739,2,0,L|256:320,1,160,0|2,0:0|0:0,0:0:0:0:
376,216,82739,6,0,L|328:224,1,40
296,152,83073,2,0,L|128:144,1,160,4|2,0:0|0:0,0:0:0:0:
32,264,84073,2,0,L|80:248,1,40
224,304,84573,2,0,L|272:304,1,40
376,192,85073,2,0,P|376:240|368:272,1,80,2|0,0:0|0:0,0:0:0:0:
504,232,85739,2,0,P|520:176|512:112,2,120,4|0|0,0:0|0:0|0:0,0:0:0:0:
424,80,87073,2,0,L|376:72,1,40
256,160,87573,2,0,L|208:136,3,40,4|4|8|4,0:0|0:0|0:0|0:0,0:0:0:0:
128,144,88406,6,0,P|144:80|240:56,1,160,4|0,0:0|0:0,0:0:0:0:
344,112,89406,1,4,0:0:0:0:
312,272,89739,2,0,P|256:256|184:264,2,120
208,152,91073,2,0,P|144:168|72:240,1,160,0|2,0:0|0:0,0:0:0:0:
192,344,92073,1,4,0:0:0:0:
72,240,92406,2,0,P|80:168|48:88,1,160,0|2,0:0|0:0,0:0:0:0:
200,128,93406,1,0,0:0:0:0:
312,160,93739,6,0,P|328:208|320:240,1,80
200,208,94406,1,2,0:0:0:0:
120,288,94739,1,0,0:0:0:0:
120,288,95073,2,0,P|176:320|240:320,2,120
40,192,96406,2,0,P|48:240|40:280,1,80
184,192,97073,1,2,0:0:0:0:
312,288,97406,1,0,0:0:0:0:
312,288,97739,2,0,P|320:240|344:200,1,80
496,192,98406,2,0,P|464:136|368:112,1,160,2|4,0:0|0:0,0:0:0:0:
224,160,99406,5,0,0:0:0:0:
272,272,99739,2,0,L|352:256,2,80,2|0|0,0:0|0:0|0:0,0:0:0:0:
112,240,100739,2,0,L|104:152,1,80,0|2,0:0|0:0,0:0:0:0:
256,112,101406,1,0,0:0:0:0:
104,144,101739,2,0,L|111:223,1,80
8,344,102406,2,0,P|8:272|40:176,1,160,2|4,0:0|0:0,0:0:0:0:
192,208,103406,2,4,L|184:248,1,40
48,328,103906,2,0,L|11:341,1,40,8|4,0:0|0:0,0:0:0:0:
168,288,104406,6,0,P|240:296|296:368,1,160,4|2,0:0|0:0,0:0:0:0:
168,288,105406,2,0,L|192:256,1,40
352,248,105906,2,0,L|336:208,1,40
208,112,106406,2,0,P|208:176|256:272,1,160,2|0,0:0|0:0,0:0:0:0:
392,192,107406,2,0,P|384:240|384:288,1,80,0|2,0:0|0:0,0:0:0:0:
232,312,108073,2,0,L|192:304,1,40
344,264,108573,2,0,P|296:232|224:216,1,120,0|2,0:0|0:0,0:0:0:0:
112,112,109406,5,0,0:0:0:0:
224,96,109739,2,0,P|232:176|208:256,1,160,0|2,0:0|0:0,0:0:0:0:
56,280,110739,2,4,L|8:272,1,40
120,152,111239,2,0,L|168:168,3,40,0|0|0|2,0:0|0:0|0:0|0:0,0:0:0:0:
256,232,112073,1,4,0:0:0:0:
256,232,112406,2,0,P|272:200|272:144,3,80
256,192,113739,12,0,115073,0:0:0:0:
