osu file format v13

[General]
AudioFilename: 32. Noi!.mp3
AudioLeadIn: 0
PreviewTime: 27712
Countdown: 0
SampleSet: Soft
StackLeniency: 0.7
Mode: 0
LetterboxInBreaks: 1
WidescreenStoryboard: 1

[Editor]
DistanceSpacing: 1.8
BeatDivisor: 8
GridSize: 4
TimelineZoom: 3

[Metadata]
Title:Noi!
TitleUnicode:Noi!
Artist:Kajiura Yuki
ArtistUnicode:梶浦 由記
Creator:ryuu
Version:Higanbana
Source:劇場版 魔法少女まどか☆マギカ[新編]叛逆の物語
Tags:gekijouban mahou shoujo madoka*magica [shinpen] hangyaku no monogatari puella magi movie 3 the rebellion story
BeatmapID:537529
BeatmapSetID:231257

[Difficulty]
HPDrainRate:7
CircleSize:4
OverallDifficulty:7
ApproachRate:8.5
SliderMultiplier:2
SliderTickRate:1

[Events]
//Background and Video events
0,0,"bg.jpg",0,0
//Break Periods
//Storyboard Layer 0 (Background)
//Storyboard Layer 1 (Fail)
//Storyboard Layer 2 (Pass)
//Storyboard Layer 3 (Foreground)
//Storyboard Sound Samples
//Background Colour Transformations
3,100,163,162,255

[TimingPoints]
1594,689.655172413793,4,2,1,60,1,0
7111,689.655172413793,6,2,1,60,1,0
11248,689.655172413793,5,2,1,60,1,0
18144,689.655172413793,6,2,1,60,1,0
22281,689.655172413793,4,2,1,60,1,0
27798,-100,4,2,1,70,0,1
30513,-100,4,2,1,70,0,0
30556,-100,4,2,1,70,0,1
33315,-100,4,2,1,70,0,0
37453,689.655172413793,4,2,1,60,1,0
37453,-100,4,2,1,70,0,1
40168,-100,4,2,1,70,0,0
40211,-100,4,2,1,70,0,1
42927,-100,4,2,1,70,0,0
42970,-100,4,2,1,70,0,1
45685,-100,4,2,1,70,0,0
45728,-100,4,2,1,70,0,1
48444,-100,4,2,1,70,0,0
48487,-100,4,2,1,70,0,1
48530,-100,4,2,1,70,0,0
49177,-100,4,2,1,55,0,0
49694,-100,4,2,1,50,0,0
50211,-100,4,2,1,45,0,0
50728,-100,4,2,1,40,0,0
51246,-100,4,2,1,35,0,0
51763,-100,4,2,1,30,0,0
52108,-100,4,2,1,20,0,0
52453,-100,4,2,1,10,0,0
52625,-100,4,2,1,5,0,0

[Colours]
Combo1 : 17,254,176
Combo2 : 173,255,95
Combo3 : 255,88,100
Combo4 : 255,94,55

[HitObjects]
396,328,1594,6,0,L|408:228,1,100,12|0,0:3|0:0,0:0:0:0:
444,136,2283,1,2,0:0:0:0:
444,136,2628,5,2,1:0:0:0:
292,144,2800,1,8,1:0:0:0:
152,84,2973,1,2,0:0:0:0:
152,84,3318,2,0,P|112:108|48:104,2,100,2|2|0,0:0|0:2|0:0,0:0:0:0:
204,152,4180,2,0,L|220:172,2,25,0|2|6,0:0|1:0|1:2,0:0:0:0:
116,196,4697,6,0,L|124:304,1,100,2|2,0:0|1:2,0:0:0:0:
123,295,5387,1,2,1:0:0:0:
272,324,5559,1,8,1:0:0:0:
380,216,5731,1,2,0:0:0:0:
380,216,6076,6,0,L|387:116,1,100,2|6,0:0|0:0,0:0:0:0:
386,116,6766,1,2,1:0:0:0:
244,172,6938,1,8,1:0:0:0:
272,324,7111,1,8,0:3:0:0:
124,296,7455,6,0,L|64:320,2,50,2|0|0,0:0|0:0|0:0,0:0:0:0:
156,200,8145,2,0,P|168:152|144:96,1,100,2|2,0:0|0:0,0:0:0:0:
64,156,8835,1,0,0:0:0:0:
32,252,9179,1,2,0:0:0:0:
124,296,9524,1,2,0:0:0:0:
156,200,9869,6,0,P|212:212|260:196,1,100,2|0,1:2|0:0,0:0:0:0:
420,128,10559,2,0,P|372:116|324:128,1,100,2|2,1:2|0:0,0:0:0:0:
252,84,11076,2,0,L|240:48,2,25,0|8|6,0:0|1:0|1:2,0:0:0:0:
252,204,11592,6,0,P|264:252|260:304,1,100,2|2,0:0|0:0,0:0:0:0:
261,302,12282,1,2,1:0:0:0:
115,344,12454,1,8,1:0:0:0:
115,344,12627,1,4,0:3:0:0:
104,180,12972,6,0,P|89:132|93:82,1,100,2|2,0:0|0:0,0:0:0:0:
184,44,13661,1,2,0:0:0:0:
272,88,14006,1,6,0:0:0:0:
372,68,14351,1,2,0:0:0:0:
372,68,14523,2,0,L|404:44,2,25,0|8|8,0:0|1:0|1:3,0:0:0:0:
436,144,15041,6,0,L|448:248,1,100,2|2,0:0|0:0,0:0:0:0:
356,280,15730,2,0,L|348:348,1,50,2|8,1:0|1:0,0:0:0:0:
432,332,16075,1,4,0:3:0:0:
244,332,16420,6,0,P|192:348|144:339,1,100,2|2,0:0|0:0,0:0:0:0:
80,264,17110,1,2,0:0:0:0:
168,220,17454,1,6,0:0:0:0:
104,144,17799,2,0,P|104:123|96:92,2,50,2|0|8,0:0|1:3|0:3,0:0:0:0:
188,48,18488,5,2,0:0:0:0:
188,48,18833,1,2,0:0:0:0:
284,76,19178,2,0,L|384:72,1,100,0|2,0:0|0:0,0:0:0:0:
383,72,19868,5,2,1:0:0:0:
432,216,20040,1,8,1:0:0:0:
288,268,20212,1,4,0:3:0:0:
288,268,20557,6,0,P|240:284|176:272,2,100,0|2|2,0:0|0:0|0:0,0:0:0:0:
228,188,21592,2,0,L|216:80,1,100,2|2,0:0|0:0,0:0:0:0:
144,44,22109,2,0,L|112:32,2,25,0|8|6,0:0|1:0|0:0,0:0:0:0:
44,152,22625,5,2,0:0:0:0:
44,152,22970,1,2,0:0:0:0:
104,232,23315,2,0,L|116:332,1,100,0|2,0:0|0:0,0:0:0:0:
115,331,24005,5,2,1:0:0:0:
260,284,24177,1,8,1:0:0:0:
192,144,24349,2,0,P|184:96|188:36,1,100,4|0,0:0|0:0,0:0:0:0:
300,72,25039,2,0,P|308:120|304:180,1,100,6|0,0:0|0:0,0:0:0:0:
352,260,25729,5,2,0:0:0:0:
448,288,26074,1,4,0:3:0:0:
352,260,26418,2,0,L|252:268,1,100,8|0,0:3|0:0,0:0:0:0:
192,348,27108,1,10,0:0:0:0:
96,320,27453,1,0,0:0:0:0:
20,276,27625,5,0,0:0:0:0:
20,240,27712,1,0,0:0:0:0:
36,216,27798,2,0,P|48:164|36:112,1,100,12|2,1:3|0:3,0:0:0:0:
56,32,28315,1,0,0:0:0:0:
128,84,28487,2,0,L|240:76,1,100,2|8,0:3|0:0,0:0:0:0:
304,128,29005,1,0,0:0:0:0:
228,204,29177,6,0,L|164:200,1,50,0|0,0:0|0:0,0:0:0:0:
94,287,29522,2,0,L|144:284,1,50,8|0,0:0|0:0,0:0:0:0:
168,304,29781,1,0,0:0:0:0:
188,328,29867,2,0,P|248:320|304:340,1,100,2|2,0:0|1:0,0:0:0:0:
368,360,30384,1,8,1:0:0:0:
440,256,30556,6,0,B|429:204|429:204|444:160,1,100,12|2,0:3|0:3,0:0:0:0:
430,79,31074,1,0,0:0:0:0:
342,91,31246,2,0,B|354:147|354:147|338:195,1,100,2|8,0:3|0:0,0:0:0:0:
232,240,31763,5,0,0:0:0:0:
232,240,31849,1,0,0:0:0:0:
232,240,31936,2,0,L|176:232,1,50,0|0,0:0|0:0,0:0:0:0:
100,268,32281,1,8,0:0:0:0:
56,192,32453,1,0,0:0:0:0:
61,159,32539,1,0,0:0:0:0:
66,127,32625,1,2,0:0:0:0:
127,61,32798,1,0,0:0:0:0:
212,88,32970,2,0,L|276:76,1,50,4|0,0:3|0:3,0:0:0:0:
376,44,33315,6,0,L|480:64,1,100,12|2,0:0|0:0,0:0:0:0:
412,172,33832,1,0,0:0:0:0:
412,172,33918,1,0,0:0:0:0:
412,172,34005,2,0,L|424:228,1,50,2|0,0:3|0:0,0:0:0:0:
482,288,34349,2,0,P|438:308|378:300,1,100,8|6,0:0|0:0,0:0:0:0:
304,268,34867,1,0,0:0:0:0:
224,308,35039,2,0,P|188:308|160:324,1,50,8|0,0:0|0:0,0:0:0:0:
92,348,35384,6,0,L|84:240,1,100,6|2,0:0|1:0,0:0:0:0:
32,172,35901,1,8,1:0:0:0:
76,92,36074,2,0,P|128:96|184:72,1,100,12|4,1:3|0:0,0:0:0:0:
252,40,36591,2,0,L|292:52,2,25,0|0|14,0:0|0:0|0:0,0:0:0:0:
264,128,36936,1,0,0:0:0:0:
192,184,37108,1,0,0:0:0:0:
232,264,37281,5,0,0:0:0:0:
240,300,37367,1,0,0:0:0:0:
248,336,37453,2,0,L|364:328,1,100,12|2,1:3|1:3,0:0:0:0:
432,356,37970,1,10,1:0:0:0:
452,268,38142,2,0,P|436:220|444:156,1,100,2|8,0:3|0:0,0:0:0:0:
426,148,38573,1,0,0:0:0:0:
408,120,38659,1,0,0:0:0:0:
336,44,38832,6,0,L|284:36,2,50,0|0|8,0:0|0:0|0:0,0:0:0:0:
304,136,39349,1,0,0:0:0:0:
304,136,39521,2,0,L|248:148,1,50,2|0,0:0|0:0,0:0:0:0:
408,120,39866,2,0,L|457:129,1,50,2|8,1:0|1:0,0:0:0:0:
484,144,40125,1,0,0:0:0:0:
496,172,40211,6,0,L|492:280,1,100,12|2,1:3|0:3,0:0:0:0:
432,340,40728,1,0,0:0:0:0:
344,328,40901,2,0,P|292:316|228:336,1,100,2|8,0:3|0:0,0:0:0:0:
204,312,41332,1,0,0:0:0:0:
204,312,41418,1,0,0:0:0:0:
116,260,41590,6,0,P|120:212|96:152,2,100,0|8|2,0:0|0:0|0:0,0:0:0:0:
24,128,42453,1,0,0:0:0:0:
24,128,42539,1,0,0:0:0:0:
24,128,42625,2,0,L|24:64,1,50,2|8,1:0|1:0,0:0:0:0:
152,60,42970,6,0,L|264:44,1,100,12|2,1:3|0:3,0:0:0:0:
324,100,43487,1,0,0:0:0:0:
494,33,43659,2,0,L|396:48,1,100,2|8,0:3|0:0,0:0:0:0:
388,160,44177,5,0,0:0:0:0:
388,160,44263,1,0,0:0:0:0:
388,160,44349,2,8,L|396:232,1,50,4|0,0:0|0:0,0:0:0:0:
480,244,44694,2,0,L|486:293,1,50,8|0,0:0|0:0,0:0:0:0:
486,294,44953,1,0,0:0:0:0:
486,294,45039,5,6,0:0:0:0:
404,332,45211,1,2,1:0:0:0:
284,260,45384,1,6,0:0:0:0:
148,280,45556,1,8,1:0:0:0:
72,192,45728,6,0,L|60:80,2,100,12|2|2,1:3|0:3|0:3,0:0:0:0:
148,40,46590,1,0,0:0:0:0:
153,72,46677,1,0,0:0:0:0:
158,104,46763,1,8,0:0:0:0:
216,172,46935,1,0,0:0:0:0:
168,264,47108,6,0,L|232:272,1,50,4|0,0:3|0:0,0:0:0:0:
260,348,47453,2,0,L|320:336,1,50,8|0,0:0|0:0,0:0:0:0:
352,352,47711,1,0,0:0:0:0:
352,352,47797,1,4,1:3:0:0:
388,172,47970,1,10,1:0:0:0:
500,228,48142,6,0,L|452:240,1,50,4|0,0:3|0:0,0:0:0:0:
428,280,48401,1,0,0:0:0:0:
428,280,48487,1,6,0:0:0:0:
256,192,48573,12,0,52625,1:0:0:0:
