osu file format v4

[General]
AudioFilename: Mezame.mp3
AudioLeadIn: 0
AudioHash: 313aa13043ba049e67972a388ada2609
PreviewTime: -1
SampleSet: Soft

[Metadata]
Title:Mezame
Artist:Kajiura Yuki
Creator:EiJi
Version:Normal

[Difficulty]
HPDrainRate:5
CircleSize:5
OverallDifficulty:6
SliderMultiplier: 1.4
SliderTickRate: 2

[Events]
0,0,"mh.jpg"
2,104034,106384
3,0,163,162,255

[TimingPoints]
48420,375,4,2,1

[HitObjects]
40,64,48420,1,2
208,64,49170,1,2
208,232,49920,5,2
40,232,50670,1,2
176,328,51420,5,2
264,184,52170,1,2
96,184,52920,5,2
96,16,53670,1,2
224,128,54420,5,2
360,224,55170,1,2
216,312,55920,5,2
104,184,56670,1,2
168,128,57045,1,2
232,80,57420,5,2
240,160,57795,1,2
240,248,58170,1,2
152,208,58545,1,2
88,168,58920,6,2,B|88:168|232:144|392:168,3,280
368,80,61545,2,2,B|368:80|224:144,1,140
80,88,62670,6,2,B|80:88|80:152|192:176,2,140
248,88,64170,6,2,B|248:88|192:160|112:160,2,140
40,224,66045,5,2
120,224,66420,2,2,B|120:224|256:240|336:152|392:80|312:72|160:56,1,420
96,56,67920,1,2
96,224,68670,5,2
176,224,69045,1,2
256,224,69420,2,2,B|256:224|384:176|320:104|304:48|192:16,1,280
144,32,70545,5,2
56,32,70920,2,2,B|56:32|19:329|304:320,1,420
352,328,72420,6,2,B|352:328|408:184|320:48|176:40|128:56,1,420
56,56,73920,6,2,B|56:56|32:136|48:248|88:312|256:328|280:264|304:184|272:208,1,420
288,136,75420,6,2,B|288:136|183:58|63:34|-1:42|-1:162|23:210|47:234,1,420
128,224,76920,6,2,B|128:224|56:168|144:96|252:123|232:192|232:240|200:240|168:232|160:232,3,280
248,232,79545,1,2
256,192,79920,12,2,82170
400,104,82920,2,2,B|400:104|320:232|136:216,2,280
144,96,85545,5,2
144,176,85920,1,2
304,128,86670,5,2
368,184,87045,1,2
432,232,87420,1,2
288,320,88170,5,2
232,256,88545,1,2
152,224,88920,1,2
88,80,90045,5,2
168,80,90420,2,2,B|168:80|320:104|416:208|424:296|256:288,1,420
176,288,91920,1,2
176,120,92670,6,2,B|176:120|216:192|320:184,2,140
184,288,94170,6,2,B|184:288|272:328|200:168,2,140
256,192,96045,12,2,97545
256,192,97920,12,2,99045
256,192,99420,12,2,100545
256,192,100920,12,2,101670
256,192,102420,12,2,103920
184,192,107670,6,2,B|184:192|352:192,2,140
256,120,110670,6,2,B|256:120|256:272,2,140
208,144,113670,6,2,B|208:144|312:240,1,140
376,288,114420,2,2,B|376:288|440:160|352:104|280:72|136:64|120:112,1,420
184,168,115920,6,2,B|184:168|296:272,3,140
368,264,117420,6,2,B|368:264|456:144|344:88|216:40|104:40|64:112|40:192|56:272|128:280|200:296|272:296,1,700
328,296,119670,5,2
328,208,120045,1,2
328,120,120420,2,2,B|328:120|248:24|56:48,1,280
72,128,121545,5,2
72,208,121920,2,2,B|72:208|72:296|176:328|304:312,1,280
464,312,123420,6,2,B|464:312|464:104|240:88|152:96,1,420
256,192,124920,12,2,126420
88,208,127170,2,2,B|88:208|248:136,2,140
312,104,129045,5,2
256,168,129420,2,2,B|256:168|112:184|56:272|224:288|328:280|408:224|408:96|272:48|184:80,1,560
64,48,131670,6,2,B|64:48|64:192,1,140
64,272,132420,2,2,B|64:272|176:360|432:320|456:144|336:96|160:112|40:184|256:208|288:224|216:240|144:232|88:216|64:192|72:152|128:112|208:72|296:104|352:104,1,840
432,104,135045,5,2
432,184,135420,2,2,B|432:184|400:288|208:320|72:312|40:208|120:128|272:160|184:80|96:72|16:120|24:256|64:352|248:360|320:344,1,840
392,344,138045,5,2
472,344,138420,2,2,B|472:344|472:32|384:88|384:120|384:152|384:176|392:216|392:256|392:296,1,420
304,272,139920,6,2,B|304:272|144:272,4,140
304,104,142170,6,2,B|304:104|128:104,1,140
168,184,142920,2,2,B|168:184|168:320|344:320|376:216,2,280
336,184,145170,6,2,B|336:184|456:280,2,140
168,184,146670,1,2
48,72,147420,2,2,B|48:72|168:280|416:216,1,420
400,136,148920,1,2
80,56,150420,6,2,B|80:56|80:208|264:256,1,280
328,256,151545,1,2
408,256,151920,2,2,B|408:256|440:112|232:80|200:160|184:304|128:296,1,420
256,192,153420,12,2,156420
