osu file format v11

[General]
AudioFilename: Pandora hearts OST 26 - Melody (Lacie).mp3
AudioLeadIn: 2000
PreviewTime: 64814
Countdown: 0
SampleSet: Soft
StackLeniency: 0.7
Mode: 0
LetterboxInBreaks: 0

[Editor]
DistanceSpacing: 0.8
BeatDivisor: 4
GridSize: 8

[Metadata]
Title:Lacie
TitleUnicode:
Artist:Kajiura Yuki
ArtistUnicode:
Creator:Arakawa_Nyx
Version:Normal
Source:Pandora Hearts
Tags:Pandora Hearts Lacie
BeatmapID:164234
BeatmapSetID:53935

[Difficulty]
HPDrainRate:4
CircleSize:4
OverallDifficulty:4
ApproachRate:5
SliderMultiplier:1.50000000596046
SliderTickRate:1

[Events]
//Background and Video events
0,0,"800 x 600.jpg"
//Break Periods
2,62014,63614
//Storyboard Layer 0 (Background)
//Storyboard Layer 1 (Fail)
//Storyboard Layer 2 (Pass)
//Storyboard Layer 3 (Foreground)
//Storyboard Sound Samples
//Background Colour Transformations
3,100,255,255,255

[TimingPoints]
529,428.571428571429,3,2,1,35,1,0
64815,-100,3,2,1,35,0,1
85387,-100,3,2,1,35,0,0

[Colours]
Combo1 : 255,255,255
Combo2 : 128,128,128

[HitObjects]
104,80,529,2,0,P|176:64|224:104|272:80|280:80,2,150.000000596046
168,184,1814,2,0,B|136:256|168:336,1,150.000000596046,2|0,0:0|0:0,0:0:0
256,256,2671,5,2,0:0:0
344,176,3100,2,0,P|368:224|320:264|352:328,3,150.000000596046
432,232,4814,2,0,B|432:312,2,75.000000298023
440,144,5671,5,0,0:0:0
328,104,6100,1,2,0:0:0
216,144,6529,1,0,0:0:0
256,256,6957,2,0,P|192:232|160:296|80:272,2,150.000000596046
376,240,8243,1,0,0:0:0
320,136,8671,1,0,0:0:0
216,192,9100,1,2,0:0:0
136,104,9528,1,4,0:0:0
96,160,10814,5,2,0:0:0
184,240,11243,1,2,0:0:0
280,160,11671,1,2,0:0:0
376,232,12100,1,0,0:0:0
256,288,13386,5,2,0:0:0
320,184,13814,1,0,0:0:0
256,80,14243,1,0,0:0:0
200,184,14671,1,4,0:0:0
168,48,15528,5,0,0:0:0
96,144,15957,2,0,B|64:224|104:304,1,150.000000596046,0|2,0:0|0:0,0:0:0
216,272,16814,2,0,B|248:200|216:112,1,150.000000596046,0|2,0:0|0:0,0:0:0
112,80,17671,2,0,B|72:144|112:240,1,150.000000596046,0|2,0:0|0:0,0:0:0
216,280,18529,1,2,0:0:0
320,224,18957,2,0,B|344:152|304:72,2,150.000000596046,4|0|4,0:0|0:0|0:0,0:0:0
368,96,21100,5,0,0:0:0
368,216,21529,1,2,0:0:0
272,144,21957,1,0,0:0:0
272,264,22386,2,8,B|112:264,2,150.000000596046,2|0|2,0:0|0:0|0:0,0:0:0
184,184,23671,1,0,0:0:0
104,88,24100,1,2,0:0:0
224,88,24529,2,0,P|272:64|320:120|376:96,1,150.000000596046,0|4,0:0|0:0,0:0:0
432,128,26243,5,2,0:0:0
312,128,26671,1,2,0:0:0
192,128,27100,2,0,B|120:88|32:136,2,150.000000596046,2|0|2,0:0|0:0|0:0,0:0:0
120,224,28386,1,2,0:0:0
240,224,28814,1,2,0:0:0
360,224,29243,2,0,P|336:152|400:144|360:64,2,150.000000596046,0|0|0,0:0|0:0|0:0,0:0:0
176,72,30957,5,2,0:0:0
128,184,31386,1,2,0:0:0
216,280,31814,1,0,0:0:0
312,208,32243,2,0,B|472:208,2,150.000000596046,2|0|2,0:0|0:0|0:0,0:0:0
224,288,33529,5,2,0:0:0
152,192,33957,1,2,0:0:0
224,96,34386,1,2,0:0:0
296,192,34814,2,0,B|456:192,2,150.000000596046,0|0|2,0:0|0:0|0:0,0:0:0
216,280,36100,5,2,0:0:0
96,280,36529,2,0,P|80:240|120:216|96:176,2,75.000000298023,0|0|2,0:0|0:0|0:0,0:0:0
216,280,37386,1,4,0:0:0
256,192,38243,12,0,40386,0:0:0
136,152,41671,6,0,P|104:216|152:248|120:320,2,150.000000596046
208,248,42957,1,2,0:0:0
208,128,43386,1,0,0:0:0
440,176,44243,6,0,P|416:256,2,75.000000298023
328,224,45100,1,2,0:0:0
216,184,45529,2,0,P|160:168|136:200|64:160|64:160,1,150.000000596046
296,80,46814,6,0,B|272:144|304:240,1,150.000000596046,0|2,0:0|0:0,0:0:0
424,224,47671,2,0,B|451:140|427:76,1,150.000000596046,0|2,0:0|0:0,0:0:0
312,104,48528,5,0,0:0:0
192,104,48957,1,2,0:0:0
96,176,49386,2,0,B|80:248|96:336,1,150.000000596046,0|2,0:0|0:0,0:0:0
216,328,50243,2,0,B|232:248|216:176,1,150.000000596046,0|2,0:0|0:0,0:0:0
152,80,51100,2,0,B|152:240,1,150.000000596046,2|2,0:0|0:0,0:0:0
256,288,51957,5,2,0:0:0
160,216,52386,1,0,0:0:0
264,152,52814,1,2,0:0:0
352,72,53243,1,0,0:0:0
232,64,53671,2,0,B|168:64|72:128,1,150.000000596046,2|0,0:0|0:0,0:0:0
192,184,54528,2,0,B|288:152|352:184,1,150.000000596046,2|0,0:0|0:0,0:0:0
440,240,55386,1,0,0:0:0
344,304,55814,1,4,0:0:0
320,64,56671,5,2,0:0:0
232,152,57100,1,0,0:0:0
144,232,57528,1,2,0:0:0
240,304,57957,2,0,B|336:336|400:304,1,150.000000596046,0|2,0:0|0:0,0:0:0
304,224,58814,2,0,B|232:192|240:96,1,150.000000596046,0|2,0:0|0:0,0:0:0
352,144,59671,1,6,0:0:0
256,192,60529,12,0,61814,0:0:0
128,176,64814,6,0,P|176:152|208:184|280:168,1,150.000000596046
400,168,65671,1,0,0:0:0
400,288,66100,2,0,P|320:288,2,75.000000298023,0|2|2,0:0|0:0|0:0,0:0:0
400,168,66957,5,0,0:0:0
280,168,67386,1,2,0:0:0
336,272,67814,2,0,P|288:248|256:280|184:264,2,150.000000596046,0|2|0,0:0|0:0|0:0,0:0:0
128,96,69957,5,0,0:0:0
200,192,70386,1,2,0:0:0
272,96,70814,1,0,0:0:0
344,192,71243,1,2,0:0:0
416,96,71671,2,0,B|472:160|408:256,1,150.000000596046,0|2,0:0|0:0,0:0:0
328,312,72528,2,0,B|280:240|328:144,2,150.000000596046,2|2|0,0:0|0:0|0:0,0:0:0
424,248,73814,1,4,0:0:0
96,96,75100,5,0,0:0:0
48,208,75528,1,2,0:0:0
160,240,75957,1,0,0:0:0
208,128,76386,1,2,0:0:0
96,96,76814,1,0,0:0:0
48,208,77243,1,0,0:0:0
160,240,77671,1,0,0:0:0
208,128,78100,1,2,0:0:0
328,128,78529,2,0,P|360:112|384:144|416:120,2,75.000000298023
256,320,79814,5,0,0:0:0
336,232,80243,2,0,P|360:192|320:152|336:80,1,150.000000596046
216,88,81100,2,0,P|192:128|232:160|208:248,1,150.000000596046
256,192,83028,12,4,85386,0:0:0
