osu file format v12

[General]
AudioFilename: Pandora hearts OST 26 - Melody (Lacie).mp3
AudioLeadIn: 2023
PreviewTime: 64814
Countdown: 0
SampleSet: Soft
StackLeniency: 0.7
Mode: 0
LetterboxInBreaks: 1

[Editor]
DistanceSpacing: 1
BeatDivisor: 4
GridSize: 4

[Metadata]
Title:Lacie
TitleUnicode:
Artist:Kajiura Yuki
ArtistUnicode:
Creator:Arakawa_Nyx
Version:Hard
Source:Pandora Hearts
Tags:Pandora Hearts Lacie
BeatmapID:164355
BeatmapSetID:53935

[Difficulty]
HPDrainRate:7
CircleSize:4
OverallDifficulty:6
ApproachRate:8
SliderMultiplier:1.70000000596046
SliderTickRate:2

[Events]
//Background and Video events
0,0,"800 x 600.jpg",0,0
//Break Periods
//Storyboard Layer 0 (Background)
//Storyboard Layer 1 (Fail)
//Storyboard Layer 2 (Pass)
//Storyboard Layer 3 (Foreground)
//Storyboard Sound Samples
//Background Colour Transformations
3,100,255,255,255

[TimingPoints]
529,428.571428571429,3,2,1,30,1,0
26243,-100,3,2,1,5,0,0
26564,-100,3,2,1,30,0,0
59671,-100,3,2,1,5,0,0
64815,-100,3,2,1,30,0,1
85387,-100,3,2,1,30,0,0

[Colours]
Combo1 : 255,255,255
Combo2 : 128,128,128

[HitObjects]
448,96,529,1,0,0:0:0:0:
448,96,743,1,0,0:0:0:0:
448,96,957,2,0,B|384:192,1,85.000000298023
340,228,1386,2,0,B|296:264|228:212,2,85.000000298023,0|2|0,0:0|0:0|0:0,0:0:0:0:
280,112,2243,1,2,0:0:0:0:
408,196,2671,5,0,0:0:0:0:
372,220,2886,1,2,0:0:0:0:
340,240,3100,2,0,B|272:216|272:216|232:240|232:240|176:224,1,170.000000596046,2|2,0:0|0:0,0:0:0:0:
188,56,3957,2,0,B|96:84|44:184,1,170.000000596046,0|2,0:0|0:0,0:0:0:0:
136,312,4814,2,0,B|248:312,2,85.000000298023,2|0|2,0:0|0:0|0:0,0:0:0:0:
160,208,5671,5,2,0:0:0:0:
208,144,5886,1,2,0:0:0:0:
288,144,6100,1,2,0:0:0:0:
368,160,6314,2,0,B|464:160,1,85.000000298023,2|2,0:0|0:0,0:0:0:0:
416,84,6743,2,0,B|320:84,1,85.000000298023,2|2,0:0|0:0,0:0:0:0:
160,96,7386,5,2,0:0:0:0:
160,272,7814,1,0,0:0:0:0:
160,272,8029,1,2,0:0:0:0:
160,272,8243,2,0,B|220:256|232:276|268:260|296:272|336:264,1,170.000000596046,2|0,0:0|0:0,0:0:0:0:
352,332,9100,2,0,B|308:312|316:284|292:272|312:248|272:212|248:184,1,170.000000596046,0|2,0:0|0:0,0:0:0:0:
176,176,9957,2,0,B|264:196|380:172,1,170.000000596046,2|2,0:0|0:0,0:0:0:0:
368,80,10814,5,0,0:0:0:0:
368,80,11028,1,0,0:0:0:0:
368,80,11243,1,0,0:0:0:0:
160,232,11671,2,0,B|244:272|352:232,1,170.000000596046
352,80,12528,1,0,0:0:0:0:
272,80,12743,1,0,0:0:0:0:
192,80,12957,1,2,0:0:0:0:
160,224,13386,2,0,B|248:204|352:256,3,170.000000596046,0|4|4|4,0:0|0:0|0:0|0:0,0:0:0:0:
256,64,15528,5,0,0:0:0:0:
200,128,15743,1,0,0:0:0:0:
160,204,15957,2,0,P|144:276|156:288,2,85.000000298023
244,212,16600,1,0,0:0:0:0:
328,192,16814,2,0,P|352:140|324:88,2,85.000000298023
256,64,17671,5,0,0:0:0:0:
192,128,18100,2,0,B|136:208|192:320,1,170.000000596046
312,296,18957,2,0,B|352:204|308:128,1,170.000000596046
256,64,19814,1,4,0:0:0:0:
64,256,21100,6,0,B|64:136,1,85.000000298023
80,48,21529,1,0,0:0:0:0:
112,64,21743,1,2,0:0:0:0:
192,48,21957,1,0,0:0:0:0:
232,32,22064,1,2,0:0:0:0:
268,48,22171,1,0,0:0:0:0:
368,96,22386,5,0,0:0:0:0:
384,256,22814,2,0,B|320:256|288:192,1,85.000000298023
256,160,23243,1,0,0:0:0:0:
224,192,23350,1,2,0:0:0:0:
192,224,23457,1,2,0:0:0:0:
160,192,23671,6,0,B|224:128,2,85.000000298023,0|2|0,0:0|0:0|0:0,0:0:0:0:
256,192,24529,12,0,25600,0:0:0:0:
64,96,26243,6,0,B|96:128|192:96,1,127.500000447034
224,96,26671,2,0,B|288:64|352:96,1,127.500000447034,0|2,0:0|0:0,0:0:0:0:
384,96,27100,1,0,0:0:0:0:
432,96,27207,1,0,0:0:0:0:
256,96,27529,2,0,B|256:224,1,127.500000447034
224,256,27957,2,0,B|304:320|384:256,1,170.000000596046
416,96,28814,1,2,0:0:0:0:
384,96,28921,1,0,0:0:0:0:
352,96,29029,5,0,0:0:0:0:
256,96,29243,2,0,B|192:128|224:192,1,85.000000298023
288,160,29671,2,0,B|384:160|352:256,1,127.500000447034,0|0,0:0|0:0,0:0:0:0:
288,256,30100,1,4,0:0:0:0:
64,160,30957,6,0,B|192:160,1,127.500000447034
256,160,31386,1,2,0:0:0:0:
256,320,31814,1,0,0:0:0:0:
416,320,32243,1,0,0:0:0:0:
416,320,32350,1,0,0:0:0:0:
416,320,32457,1,2,0:0:0:0:
416,256,32671,2,0,B|416:192|352:160,1,85.000000298023
384,96,33100,1,0,0:0:0:0:
416,256,33529,1,0,0:0:0:0:
296,256,33957,6,0,B|96:256,1,170.000000596046
144,124,34814,1,2,0:0:0:0:
316,128,35243,1,2,0:0:0:0:
356,112,35350,1,2,0:0:0:0:
392,132,35457,1,0,0:0:0:0:
252,128,36100,5,0,0:0:0:0:
248,224,36529,1,2,0:0:0:0:
248,56,36743,1,2,0:0:0:0:
248,296,36957,1,2,0:0:0:0:
248,128,37386,1,4,0:0:0:0:
256,192,37600,12,0,39529,0:0:0:0:
256,168,39957,5,0,0:0:0:0:
200,232,40171,1,2,0:0:0:0:
284,256,40386,1,4,0:0:0:0:
192,64,41671,6,0,B|192:160,1,85.000000298023
192,240,42100,1,0,0:0:0:0:
260,188,42314,1,2,0:0:0:0:
168,264,42529,1,0,0:0:0:0:
232,208,42743,1,0,0:0:0:0:
300,160,42957,2,0,B|364:192|316:256|316:256|348:288|300:336,1,170.000000596046
416,336,44243,5,0,0:0:0:0:
352,272,44457,1,0,0:0:0:0:
416,208,44671,1,0,0:0:0:0:
480,272,44886,1,0,0:0:0:0:
416,336,45100,1,2,0:0:0:0:
240,336,45529,2,0,B|252:307|204:275|204:275|220:227|204:179,1,170.000000596046,0|4,0:0|0:0,0:0:0:0:
256,192,46814,12,2,49386,0:0:0:0:
152,220,50243,6,0,B|140:184|112:176|88:136,2,85.000000298023
236,220,50886,1,0,0:0:0:0:
320,220,51100,2,0,B|332:184|360:176|384:136,2,85.000000298023
276,56,51957,5,0,0:0:0:0:
240,132,52171,1,0,0:0:0:0:
192,60,52386,1,0,0:0:0:0:
240,128,52600,1,0,0:0:0:0:
276,56,52814,2,0,B|356:120|356:120|340:184|332:208,1,170.000000596046
260,236,53671,5,0,0:0:0:0:
164,92,54100,1,2,0:0:0:0:
308,180,54528,1,2,0:0:0:0:
140,152,54957,1,2,0:0:0:0:
304,112,55386,2,0,P|392:104|488:140,1,170.000000596046,0|4,0:0|0:0,0:0:0:0:
256,192,56671,5,2,0:0:0:0:
256,192,57100,12,0,58386,0:0:0:0:
256,192,58814,5,0,0:0:0:0:
256,192,59028,1,2,0:0:0:0:
256,192,59243,1,2,0:0:0:0:
256,128,59671,6,0,B|352:64|448:96|448:256|256:320|256:320,1,382.500001341104
256,320,60743,2,0,B|254:319|62:255|62:95|158:63|254:127,1,382.500001341103
256,192,62136,12,0,64386,0:0:0:0:
64,128,64814,5,0,0:0:0:0:
64,128,65028,1,0,0:0:0:0:
64,128,65243,1,2,0:0:0:0:
160,128,65457,2,0,B|272:128|272:128|240:204|288:272,1,255.000000894069,0|2,0:0|0:0,0:0:0:0:
352,240,66314,2,2,B|352:144,1,85.000000298023
352,64,66957,5,2,0:0:0:0:
352,64,67064,1,0,0:0:0:0:
352,64,67171,2,0,B|352:176,1,85.000000298023
352,224,67814,1,2,0:0:0:0:
176,224,68243,1,0,0:0:0:0:
352,224,68671,1,4,0:0:0:0:
352,128,69528,5,2,0:0:0:0:
480,32,69957,1,2,0:0:0:0:
480,32,70064,1,0,0:0:0:0:
480,32,70171,1,0,0:0:0:0:
480,128,70386,1,2,0:0:0:0:
352,224,70814,1,2,0:0:0:0:
480,320,71243,5,2,0:0:0:0:
480,320,71350,1,0,0:0:0:0:
480,320,71457,1,0,0:0:0:0:
352,224,71671,1,2,0:0:0:0:
224,128,72100,1,2,0:0:0:0:
400,128,72528,5,2,0:0:0:0:
400,304,72957,1,2,0:0:0:0:
400,128,73386,2,0,B|400:320,1,170.000000596046,0|4,0:0|0:0,0:0:0:0:
256,64,74671,5,2,0:0:0:0:
432,80,75100,1,0,0:0:0:0:
432,80,75314,1,0,0:0:0:0:
432,80,75528,2,0,B|368:256,1,170.000000596046
224,160,76386,1,0,0:0:0:0:
80,80,76814,1,0,0:0:0:0:
80,80,76921,1,0,0:0:0:0:
80,80,77028,1,0,0:0:0:0:
80,256,77243,1,2,0:0:0:0:
224,160,77671,2,4,B|416:160,3,170.000000596046,4|2|2|4,0:0|0:0|0:0|0:0,0:0:0:0:
64,96,79814,5,0,0:0:0:0:
256,96,80243,1,2,0:0:0:0:
160,224,80671,1,0,0:0:0:0:
256,96,81100,1,2,0:0:0:0:
160,224,81528,2,0,B|112:200|116:148,1,85.000000298023
164,88,81957,1,0,0:0:0:0:
336,84,82386,2,0,B|428:196|340:324,1,255.000000894069
256,192,83136,12,6,85386,0:0:0:0:
