osu file format v11

[General]
AudioFilename: Pandora hearts OST 26 - Melody (Lacie).mp3
AudioLeadIn: 2000
PreviewTime: 64814
Countdown: 0
SampleSet: Soft
StackLeniency: 0.7
Mode: 0
LetterboxInBreaks: 0

[Editor]
DistanceSpacing: 0.9
BeatDivisor: 2
GridSize: 8

[Metadata]
Title:Lacie
TitleUnicode:Lacie
Artist:Kajiura Yuki
ArtistUnicode:Kajiura Yuki
Creator:Arakawa_Nyx
Version:Easy
Source:Pandora Hearts
Tags:Pandora hearts Lacie
BeatmapID:164963
BeatmapSetID:53935

[Difficulty]
HPDrainRate:3
CircleSize:3
OverallDifficulty:3
ApproachRate:2
SliderMultiplier:1.00000000596046
SliderTickRate:1

[Events]
//Background and Video events
0,0,"800 x 600.jpg"
//Break Periods
//Storyboard Layer 0 (Background)
//Storyboard Layer 1 (Fail)
//Storyboard Layer 2 (Pass)
//Storyboard Layer 3 (Foreground)
//Storyboard Sound Samples
//Background Colour Transformations
3,100,255,255,255

[TimingPoints]
529,428.571428571429,3,2,1,40,1,0
64815,-100,3,2,1,40,0,1
85387,-100,3,2,1,40,0,0

[Colours]
Combo1 : 255,255,255
Combo2 : 128,128,128

[HitObjects]
160,56,529,1,0,0:0:0
192,144,957,1,0,0:0:0
136,216,1386,1,0,0:0:0
192,288,1814,2,0,P|240:304|288:304,2,100.000000596046,0|2|0,0:0|0:0|0:0,0:0:0
136,216,3100,2,0,P|128:192|120:168,2,50.000000298023,0|0|2,0:0|0:0|0:0,0:0:0
208,160,3957,2,0,P|240:264,1,100.000000596046
336,304,5671,5,0,0:0:0
376,224,6099,1,0,0:0:0
344,136,6528,1,0,0:0:0
272,80,6956,1,2,0:0:0
184,72,7385,2,0,P|128:72|72:136,1,100.000000596046
64,184,8243,2,0,P|56:216|64:232,2,50.000000298023,0|0|2,0:0|0:0|0:0,0:0:0
160,184,9100,1,2,0:0:0
248,184,9529,2,0,B|312:184,2,50.000000298023,0|2|4,0:0|0:0|0:0,0:0:0
120,312,10814,5,0,0:0:0
120,224,11243,1,0,0:0:0
176,152,11671,1,0,0:0:0
264,152,12100,1,2,0:0:0
352,152,12529,2,0,P|352:40,1,100.000000596046
280,104,13386,1,0,0:0:0
216,160,13814,1,2,0:0:0
152,216,14243,2,0,P|152:112,1,100.000000596046
224,72,15528,5,0,0:0:0
152,128,15957,2,0,B|136:176|152:240,1,100.000000596046,0|2,0:0|0:0,0:0:0
232,192,16814,2,0,B|256:240|232:304,1,100.000000596046,0|2,0:0|0:0,0:0:0
320,320,17671,1,0,0:0:0
392,272,18100,2,0,B|368:216|384:152,1,100.000000596046,0|2,0:0|0:0,0:0:0
376,80,18957,2,0,B|440:64|504:112,2,100.000000596046,0|2|4,0:0|0:0|0:0,0:0:0
112,224,21100,5,2,0:0:0
208,224,21528,2,0,B|264:240|328:224,1,100.000000596046,0|2,0:0|0:0,0:0:0
400,224,22386,1,2,0:0:0
344,104,23671,5,2,0:0:0
256,96,24100,2,0,B|200:72|120:104,1,100.000000596046,0|2,0:0|0:0,0:0:0
72,96,24957,1,2,0:0:0
336,144,26243,5,0,0:0:0
336,240,26671,1,2,0:0:0
336,144,27100,1,0,0:0:0
336,48,27528,1,2,0:0:0
336,144,27957,1,0,0:0:0
240,144,28386,1,2,0:0:0
240,240,28814,1,0,0:0:0
336,240,29243,1,2,0:0:0
336,144,29671,2,0,B|208:144,1,100.000000596046,0|4,0:0|0:0,0:0:0
64,160,30957,5,0,0:0:0
144,112,31386,1,0,0:0:0
144,208,31814,1,2,0:0:0
224,160,32243,2,0,B|304:272,2,100.000000596046,2|0|2,0:0|0:0|0:0,0:0:0
224,64,33528,5,0,0:0:0
176,144,33957,1,2,0:0:0
224,224,34386,1,0,0:0:0
272,144,34814,1,2,0:0:0
360,144,35243,1,4,0:0:0
192,128,36100,6,8,B|192:256|192:256,2,100.000000596046,0|2|2,0:0|0:0|0:0,0:0:0
280,112,37386,1,0,0:0:0
344,176,37814,1,2,0:0:0
408,240,38243,1,0,0:0:0
320,272,38671,2,0,B|256:224|224:160,1,100.000000596046,2|0,0:0|0:0,0:0:0
192,136,39529,5,2,0:0:0
264,80,39957,1,0,0:0:0
336,136,40386,1,4,0:0:0
64,168,41671,6,0,B|192:200,1,100.000000596046,2|2,0:0|0:0,0:0:0
248,176,42529,1,2,0:0:0
328,224,42957,1,2,0:0:0
408,184,43386,1,0,0:0:0
440,208,44243,6,0,B|312:144,1,100.000000596046,2|2,0:0|0:0,0:0:0
272,120,45100,1,2,0:0:0
192,160,45529,1,2,0:0:0
104,136,45957,1,4,0:0:0
256,192,46814,12,2,49386,0:0:0
256,256,50243,6,0,B|336:256,2,50.000000298023
192,192,51100,1,0,0:0:0
192,96,51529,1,0,0:0:0
272,48,51957,5,2,0:0:0
336,112,52386,1,2,0:0:0
336,208,52814,2,0,B|336:336,1,100.000000596046,2|2,0:0|0:0,0:0:0
240,304,53671,2,0,B|240:176,1,100.000000596046
240,112,54529,5,2,0:0:0
144,112,54957,1,2,0:0:0
192,184,55386,2,0,B|192:56,1,100.000000596046,2|4,0:0|0:0,0:0:0
368,120,56671,5,2,0:0:0
288,160,57100,2,0,P|288:248,2,50.000000298023
368,192,57957,2,0,B|384:240|368:320,1,100.000000596046,0|2,0:0|0:0,0:0:0
280,280,58814,2,0,P|272:224|272:224|280:176,2,100.000000596046
256,192,60957,12,4,63529,0:0:0
128,64,64814,5,0,0:0:0
208,112,65243,1,2,0:0:0
288,64,65671,2,0,B|368:160,1,100.000000596046,0|2,0:0|0:0,0:0:0
376,232,66529,1,2,0:0:0
312,296,66957,1,2,0:0:0
224,312,67386,2,0,P|224:256,2,50.000000298023
136,288,68243,1,0,0:0:0
88,208,68671,1,6,0:0:0
248,120,69529,5,0,0:0:0
336,120,69957,2,0,P|336:176,2,50.000000298023
424,120,70814,1,0,0:0:0
424,208,71243,1,0,0:0:0
336,216,71671,2,0,B|288:224|262:277,1,100.000000596046,2|0,0:0|0:0,0:0:0
336,336,72529,1,2,0:0:0
424,312,72957,2,0,B|424:384,2,50.000000298023
424,224,73814,1,4,0:0:0
248,216,74671,5,2,0:0:0
168,184,75100,2,0,P|152:216|152:256,2,50.000000298023
248,216,75957,2,0,B|304:200|392:208,1,100.000000596046,2|2,0:0|0:0,0:0:0
416,144,76814,1,0,0:0:0
360,72,77243,1,0,0:0:0
288,120,77671,2,0,B|188:120,3,100.000000596046,2|2|2|6,0:0|0:0|0:0|0:0,0:0:0
427,75,79814,5,2,0:0:0
352,128,80243,2,0,B|288:136|256:224,1,100.000000596046,0|2,0:0|0:0,0:0:0
208,240,81100,2,0,B|176:288|112:304,1,100.000000596046,0|2,0:0|0:0,0:0:0
256,192,83029,12,2,85386,0:0:0
