osu file format v14

[General]
AudioFilename: Decretum.mp3
AudioLeadIn: 0
PreviewTime: 233
Countdown: 0
SampleSet: Soft
StackLeniency: 0.7
Mode: 0
LetterboxInBreaks: 0
WidescreenStoryboard: 1

[Editor]
Bookmarks: 9655,18655,55780,58780,59530,59811,59905,60186,60280,61030,61217,61405,63186,63280,63467,63655,65530,65717,65905,66655,67030,68530,68780,68967,69905,70155,70405,72655
DistanceSpacing: 1
BeatDivisor: 2
GridSize: 4
TimelineZoom: 0.8000001

[Metadata]
Title:Decretum
TitleUnicode:Decretum
Artist:Kajiura Yuki
ArtistUnicode:梶浦由記
Creator:Smokeman
Version:Normal
Source:魔法少女まどか☆マギカ
Tags:Puella Magi Madoka Magica Kajiura Yuki ORIGINAL SOUNDTRACK II 2 miki sayaka theme determination
BeatmapID:876178
BeatmapSetID:402915

[Difficulty]
HPDrainRate:4
CircleSize:3.5
OverallDifficulty:4
ApproachRate:5.5
SliderMultiplier:1
SliderTickRate:1

[Events]
//Background and Video events
0,0,"BG_1.jpg",0,0
//Break Periods
//Storyboard Layer 0 (Background)
//Storyboard Layer 1 (Fail)
//Storyboard Layer 2 (Pass)
//Storyboard Layer 3 (Foreground)
//Storyboard Sound Samples

[TimingPoints]
275,375,3,2,1,20,1,0
650,375,3,2,1,30,1,0
18275,-100,3,2,1,25,0,0
18650,-100,3,2,1,30,0,0
72650,-100,3,2,1,45,0,1
76025,-100,3,2,1,40,0,1
76775,-100,3,2,1,40,0,0
77150,-100,3,2,1,45,0,1
80525,-100,3,2,1,40,0,1
81275,-100,3,2,1,40,0,0
81650,-100,3,2,1,45,0,1
85025,-100,3,2,1,40,0,0
86150,-100,3,2,1,45,0,1
92900,-100,3,2,1,40,0,0
97400,-100,3,2,1,35,0,0
100775,-100,3,2,1,30,0,0
101900,-100,3,2,1,20,0,0
103025,-100,3,2,1,10,0,0
103212,-100,3,2,1,5,0,0

[Colours]
Combo1 : 147,245,253
Combo2 : 81,164,255
Combo3 : 243,105,216
Combo4 : 255,234,193

[HitObjects]
96,232,275,5,0,0:0:0:0:
96,232,650,2,0,P|140:220|236:228,1,100,2|0,0:0|0:0,0:0:0:0:
288,252,1400,1,0,0:0:0:0:
380,212,1775,2,0,L|388:104,2,100,2|0|0,0:0|0:0|0:0,0:0:0:0:
320,292,2900,6,0,P|256:300|160:284,1,150,2|0,0:0|0:0,0:0:0:0:
128,264,3650,1,0,0:0:0:0:
188,184,4025,2,0,L|332:196,1,100,2|0,0:0|0:0,0:0:0:0:
380,152,4775,1,0,0:0:0:0:
444,228,5150,6,0,P|444:292|424:356,1,100,6|0,0:0|0:0,0:0:0:0:
344,368,5900,1,0,0:0:0:0:
256,324,6275,2,0,P|176:308|128:316,2,100,2|0|0,0:0|0:0|0:0,0:0:0:0:
332,260,7400,6,0,L|345:75,1,150,2|0,0:0|0:0,0:0:0:0:
346,60,8150,1,0,0:0:0:0:
260,12,8525,1,2,0:0:0:0:
236,108,8900,1,2,0:0:0:0:
212,204,9275,1,2,0:0:0:0:
308,180,9650,6,0,P|300:248|276:280,1,100,6|0,0:0|0:0,0:0:0:0:
200,332,10400,1,0,0:0:0:0:
120,268,10775,2,0,P|100:208|120:104,1,150,2|0,0:0|0:0,0:0:0:0:
140,84,11525,1,0,0:0:0:0:
228,36,11900,6,0,L|340:40,2,100,2|0|0,0:0|0:0|0:0,0:0:0:0:
148,96,13025,2,0,P|140:164|152:200,1,100,6|0,0:0|0:0,0:0:0:0:
216,268,13775,1,0,0:0:0:0:
284,196,14150,6,0,P|344:176|424:208,1,150,2|0,0:0|0:0,0:0:0:0:
440,252,14900,1,0,0:0:0:0:
364,320,15275,2,0,L|243:305,1,100,2|0,0:0|0:0,0:0:0:0:
165,295,16025,1,0,0:0:0:0:
80,244,16400,6,0,P|68:176|80:128,1,100,2|0,0:0|0:0,0:0:0:0:
104,108,16962,2,0,P|160:112|212:96,1,100,2|0,0:0|0:0,0:0:0:0:
240,68,17525,1,2,0:0:0:0:
304,144,17900,1,0,0:0:0:0:
320,244,18275,2,0,L|312:316,1,50,8|0,0:0|0:0,0:0:0:0:
280,328,18650,6,0,P|228:304|172:304,1,100,6|0,0:0|0:0,0:0:0:0:
100,252,19400,1,0,0:0:0:0:
64,160,19775,2,0,P|136:116|160:80,2,100,8|0|0,0:0|0:0|0:0,0:0:0:0:
8,244,20900,6,0,L|157:256,1,150,6|0,0:0|0:0,0:0:0:0:
208,260,21650,1,0,0:0:0:0:
260,176,22025,2,0,P|304:144|360:148,1,100,8|0,0:0|0:0,0:0:0:0:
436,188,22775,1,0,0:0:0:0:
412,284,23150,6,0,L|271:298,1,100,6|0,0:0|0:0,0:0:0:0:
213,304,23900,1,0,0:0:0:0:
132,244,24275,2,0,P|124:164|132:120,2,100,8|0|0,0:0|0:0|0:0,0:0:0:0:
204,316,25400,6,0,P|245:248|328:208,1,150,6|0,0:0|0:0,0:0:0:0:
356,208,26150,1,0,0:0:0:0:
432,144,26525,2,0,L|372:128,1,50,8|0,0:0|0:0,0:0:0:0:
344,100,26900,2,0,L|282:105,1,50,0|0,0:0|0:0,0:0:0:0:
246,88,27275,2,0,L|189:114,1,50,8|0,0:0|0:0,0:0:0:0:
149,110,27650,6,0,L|139:281,1,150,6|0,0:0|0:0,0:0:0:0:
152,308,28400,1,0,0:0:0:0:
232,252,28775,2,0,P|280:240|344:260,2,100,8|0|0,0:0|0:0|0:0,0:0:0:0:
164,324,29900,6,0,P|116:336|24:304,1,150,6|0,0:0|0:0,0:0:0:0:
0,260,30650,1,0,0:0:0:0:
64,184,31025,2,0,P|120:180|172:204,1,100,8|0,0:0|0:0,0:0:0:0:
220,276,31775,1,0,0:0:0:0:
280,196,32150,6,0,P|280:132|288:64,2,100,6|0|0,0:0|0:0|0:0,0:0:0:0:
340,276,33275,2,0,P|400:260|452:288,2,100,8|0|0,0:0|0:0|0:0,0:0:0:0:
272,348,34400,6,0,P|208:324|128:320,1,150,6|0,0:0|0:0,0:0:0:0:
80,336,35150,1,0,0:0:0:0:
24,248,35525,2,0,L|136:240,1,100,8|0,0:0|0:0,0:0:0:0:
172,236,36087,1,2,0:0:0:0:
224,232,36275,2,0,L|260:188,1,50,2|2,0:0|0:0,0:0:0:0:
292,156,36650,6,0,P|340:128|436:160,1,150,6|0,0:0|0:0,0:0:0:0:
452,196,37400,1,0,0:0:0:0:
404,284,37775,2,0,L|280:260,1,100,8|0,0:0|0:0,0:0:0:0:
208,296,38525,1,0,0:0:0:0:
124,240,38900,6,0,P|116:180|128:120,2,100,6|0|0,0:0|0:0|0:0,0:0:0:0:
56,316,40025,2,0,P|20:220|36:96,1,200,8|0,0:0|0:0,0:0:0:0:
96,56,41150,6,0,B|160:64|160:64|240:56,1,100,6|0,0:0|0:0,0:0:0:0:
288,28,41900,1,0,0:0:0:0:
380,72,42275,2,0,L|388:184,1,100,8|0,0:0|0:0,0:0:0:0:
340,260,43025,1,0,0:0:0:0:
284,176,43400,6,0,P|200:152|140:196,1,150,6|0,0:0|0:0,0:0:0:0:
124,224,44150,1,0,0:0:0:0:
172,312,44525,2,0,L|232:288,1,50,10|0,0:0|0:0,0:0:0:0:
268,308,44900,2,0,L|328:284,1,50,0|0,0:0|0:0,0:0:0:0:
364,304,45275,2,0,L|424:280,1,50,0|0,0:0|0:0,0:0:0:0:
460,300,45650,6,0,P|476:228|460:144,1,150,6|0,0:0|0:0,0:0:0:0:
432,116,46400,1,0,0:0:0:0:
340,152,46775,2,0,B|304:160|304:160|204:156,2,100,8|0|0,0:0|0:0|0:0,0:0:0:0:
364,56,47900,6,0,P|304:72|200:56,1,150,6|0,0:0|0:0,0:0:0:0:
172,40,48650,1,0,0:0:0:0:
88,96,49025,2,0,L|104:152,1,50,8|0,0:0|0:0,0:0:0:0:
80,188,49400,2,0,L|114:235,1,50,0|0,0:0|0:0,0:0:0:0:
103,277,49775,2,0,L|151:309,1,50,0|0,0:0|0:0,0:0:0:0:
155,352,50150,6,0,P|220:352|292:328,1,100,6|0,0:0|0:0,0:0:0:0:
324,272,50900,1,0,0:0:0:0:
276,184,51275,2,0,P|211:184|139:208,1,100,8|0,0:0|0:0,0:0:0:0:
107,264,52025,1,0,0:0:0:0:
63,173,52400,6,0,P|103:114|188:74,1,150,6|0,0:0|0:0,0:0:0:0:
220,87,53150,2,0,P|248:91|292:79,1,50
317,73,53525,2,0,P|336:124|308:204,1,100,8|0,0:0|0:0,0:0:0:0:
280,252,54275,1,0,0:0:0:0:
184,280,54650,6,0,B|140:268|140:268|64:272,1,100,6|0,0:0|0:0,0:0:0:0:
12,204,55400,1,0,0:0:0:0:
88,140,55775,2,0,L|206:133,1,100,8|0,0:0|0:0,0:0:0:0:
272,188,56525,1,0,0:0:0:0:
356,244,56900,6,0,L|474:237,2,100,6|0|0,0:0|0:0|0:0,0:0:0:0:
268,292,58025,2,0,L|168:297,1,100,8|0,0:0|0:0,0:0:0:0:
80,252,58775,2,0,L|56:192,1,50,0|0,0:0|0:0,0:0:0:0:
40,160,59150,6,0,P|112:168|180:152,1,100,6|0,0:0|0:0,0:0:0:0:
224,112,59900,1,0,0:0:0:0:
296,40,60275,2,0,L|312:228,1,150,8|0,0:0|0:0,0:0:0:0:
336,232,61025,2,0,L|392:276,1,50,0|0,0:0|0:0,0:0:0:0:
400,304,61400,6,0,P|328:312|284:344,1,100,6|0,0:0|0:0,0:0:0:0:
212,288,62150,1,0,0:0:0:0:
120,328,62525,2,0,B|104:268|104:268|108:192,1,100,8|0,0:0|0:0,0:0:0:0:
120,132,63275,1,0,0:0:0:0:
200,72,63650,6,0,P|264:68|320:84,1,100,6|0,0:0|0:0,0:0:0:0:
380,136,64400,1,0,0:0:0:0:
308,204,64775,2,0,B|272:208|272:208|180:200,1,100,8|0,0:0|0:0,0:0:0:0:
116,240,65525,2,0,L|152:288,1,50,0|0,0:0|0:0,0:0:0:0:
176,320,65900,6,0,B|306:331,1,100,6|0,0:0|0:0,0:0:0:0:
372,296,66650,1,0,0:0:0:0:
420,208,67025,2,0,B|420:152|420:152|392:76,1,100,8|0,0:0|0:0,0:0:0:0:
324,52,67775,1,0,0:0:0:0:
240,108,68150,6,0,P|176:120|128:104,1,100,6|0,0:0|0:0,0:0:0:0:
64,172,68900,1,0,0:0:0:0:
112,260,69275,2,0,P|164:248|228:268,1,100,8|0,0:0|0:0,0:0:0:0:
284,324,70025,1,0,0:0:0:0:
356,256,70400,6,0,P|352:200|364:140,1,100,6|0,0:0|0:0,0:0:0:0:
420,80,71150,1,10,0:0:0:0:
332,36,71525,2,0,B|288:28|288:28|228:32,1,100,2|0,0:0|0:0,0:0:0:0:
148,84,72275,1,8,0:0:0:0:
148,84,72650,6,0,L|144:224,1,100,6|0,0:0|0:0,0:0:0:0:
184,276,73400,1,0,0:0:0:0:
248,200,73775,2,0,P|312:168|384:180,1,100,8|0,0:0|0:0,0:0:0:0:
388,176,74337,1,0,0:0:0:0:
428,208,74525,1,0,0:0:0:0:
388,300,74900,6,0,P|304:292|236:300,1,150,6|0,0:0|0:0,0:0:0:0:
192,316,75650,1,0,0:0:0:0:
112,256,76025,1,8,0:0:0:0:
136,160,76400,1,0,0:0:0:0:
160,64,76775,1,0,0:0:0:0:
232,132,77150,6,0,P|284:148|344:132,1,100,6|0,0:0|0:0,0:0:0:0:
404,76,77900,1,0,0:0:0:0:
436,172,78275,2,0,P|436:224|424:288,1,100,8|0,0:0|0:0,0:0:0:0:
404,316,78837,1,0,0:0:0:0:
356,336,79025,1,0,0:0:0:0:
264,292,79400,6,0,L|246:121,1,150,2|0,0:0|0:0,0:0:0:0:
220,100,80150,1,0,0:0:0:0:
124,68,80525,2,0,L|118:117,1,50,8|0,0:0|0:0,0:0:0:0:
96,160,80900,2,0,L|101:209,1,50,0|0,0:0|0:0,0:0:0:0:
136,248,81275,2,0,L|130:297,1,50,0|0,0:0|0:0,0:0:0:0:
112,344,81650,6,0,P|168:332|240:348,1,100,6|0,0:0|0:0,0:0:0:0:
308,360,82400,1,0,0:0:0:0:
272,268,82775,2,0,B|264:216|264:216|272:160,1,100,8|0,0:0|0:0,0:0:0:0:
284,120,83337,1,0,0:0:0:0:
300,72,83525,1,0,0:0:0:0:
212,24,83900,6,0,P|152:16|64:40,1,150,6|0,0:0|0:0,0:0:0:0:
32,76,84650,1,0,0:0:0:0:
68,168,85025,2,0,B|120:212|176:216|176:216|268:192,1,200,8|0,0:0|0:0,0:0:0:0:
352,172,86150,6,0,P|360:232|348:280,2,100,6|0|0,0:0|0:0|0:0,0:0:0:0:
280,104,87275,1,8,0:0:0:0:
180,92,87650,1,0,0:0:0:0:
100,152,88025,1,0,0:0:0:0:
76,248,88400,6,0,P|156:276|272:204,1,200,6|0,0:0|0:0,0:0:0:0:
280,184,89337,1,0,0:0:0:0:
288,136,89525,2,0,B|280:92|252:60|252:60|292:72|400:80,1,200,8|0,0:0|0:0,0:0:0:0:
416,164,90650,6,0,P|388:268|304:360,1,200,6|0,0:0|0:0,0:0:0:0:
236,308,91775,2,0,L|208:100,1,200,8|0,0:0|0:0,0:0:0:0:
180,68,92712,1,0,0:0:0:0:
132,60,92900,6,0,P|92:104|124:160,2,100,6|0|0,0:0|0:0|0:0,0:0:0:0:
228,84,94025,2,0,B|284:88|284:88|344:76,2,100,2|0|0,0:0|0:0|0:0,0:0:0:0:
136,44,95150,6,0,P|56:52|4:120,1,150,6|0,0:0|0:0,0:0:0:0:
4,150,95900,1,0,0:0:0:0:
78,216,96275,2,0,P|142:196|226:212,1,150,8|8,0:0|0:0,0:0:0:0:
258,244,97025,1,0,0:0:0:0:
282,340,97400,5,6,0:0:0:0:
256,192,97587,12,2,103212,0:3:0:0:
